<?xml version="1.0" standalone="no"?>
<!DOCTYPE svg PUBLIC "-//W3C//DTD SVG 1.1//EN" "http://www.w3.org/Graphics/SVG/1.1/DTD/svg11.dtd" >
<svg xmlns="http://www.w3.org/2000/svg" xmlns:xlink="http://www.w3.org/1999/xlink" version="1.1">
<metadata>
Created by FontForge 20170731 at Mon Apr 24 14:02:20 2023
 By Aleksey,,,
Copyright (c) 1992 ParaType Inc., ParaType Ltd. All rights reserved.
</metadata>
<defs>
<font id="VTBGroupUI-Bold" horiz-adv-x="819" >
  <font-face 
    font-family="VTB Group UI Bold"
    font-weight="700"
    font-stretch="normal"
    units-per-em="2048"
    panose-1="2 11 8 3 5 5 4 2 2 4"
    ascent="1583"
    descent="-465"
    x-height="1079"
    cap-height="1434"
    bbox="-1032 -512 2621 2058"
    underline-thickness="102"
    underline-position="-307"
    unicode-range="U+0020-FEFF"
  />
<missing-glyph horiz-adv-x="471" 
 />
    <glyph glyph-name="IJ" unicode="IJ" horiz-adv-x="1331" 
d="M119 0v1434h397v-1434h-397zM756 -25q-77 0 -162 25v322q40 -15 82 -15q30 0 52.5 10.5t36.5 32.5t23.5 47t13.5 63t5.5 70.5t1.5 79.5v824h397v-938q0 -255 -116 -388t-334 -133z" />
    <glyph glyph-name="ij" unicode="ij" horiz-adv-x="1187" 
d="M102 0v1079h390v-1079h-390zM692 -455q-51 0 -151 19v289q56 -7 69 -7q52 0 69 38t17 116v1079h389v-1089q0 -227 -96 -336t-297 -109zM106 1241v270h381v-270h-381zM702 1241v270h381v-270h-381z" />
    <glyph glyph-name="uni0410.var.accented" unicode="&#x410;`" horiz-adv-x="1413" 
d="M10 0l461 1434h471l461 -1434h-428l-76 270h-407l-74 -270h-408zM696 1001l-127 -454h254zM584 1520l123 282h380l-245 -282h-258z" />
    <glyph glyph-name="uni0415.var.accented" unicode="&#x415;`" horiz-adv-x="1105" 
d="M129 0v1434h881v-328h-488v-209h441v-328h-441v-241h502v-328h-895zM463 1520l123 282h381l-246 -282h-258z" />
    <glyph glyph-name="uni0418.var.accented" unicode="&#x418;`" horiz-adv-x="1515" 
d="M129 0v1434h381v-615l-12 -352h12l88 203l332 764h456v-1434h-380v614l12 353h-12l-105 -240l-315 -727h-457zM635 1520l123 282h381l-246 -282h-258z" />
    <glyph glyph-name="uni041E.var.accented" unicode="&#x41e;`" horiz-adv-x="1536" 
d="M768 -25q-335 0 -511.5 194.5t-176.5 547.5q0 355 178 548t510 193q335 0 511.5 -194t176.5 -547q0 -355 -178 -548.5t-510 -193.5zM768 283q72 0 126 34t85.5 95t47 137.5t15.5 167.5q0 94 -16 171t-48.5 137t-86 93t-123.5 33q-72 0 -126 -34t-85.5 -95t-47 -137.5
t-15.5 -167.5q0 -94 16 -171t48.5 -137t86 -93t123.5 -33zM645 1520l123 282h381l-246 -282h-258z" />
    <glyph glyph-name="uni0423.var.accented" unicode="&#x423;`" horiz-adv-x="1269" 
d="M180 313q79 -28 137 -28q105 0 156 86l-461 1063h424l217 -615h9l184 615h411l-430 -1098q-76 -194 -177 -277.5t-265 -83.5q-103 0 -205 45v293zM512 1520l123 282h381l-246 -282h-258z" />
    <glyph glyph-name="uni042B.var.accented" unicode="&#x42b;`" horiz-adv-x="1792" 
d="M129 0v1434h397v-476h78q281 0 409 -119.5t128 -359.5q0 -224 -134.5 -351.5t-402.5 -127.5h-475zM526 287h78q67 0 103 50t36 142q0 93 -36 143t-103 50h-78v-385zM1266 0v1434h397v-1434h-397zM774 1520l123 282h381l-246 -282h-258z" />
    <glyph glyph-name="uni042D.var.accented" unicode="&#x42d;`" horiz-adv-x="1310" 
d="M381 303q374 0 428 307h-528v262h518q-64 263 -389 263q-179 0 -330 -68v324q165 67 362 67q377 0 583 -198t206 -545q0 -345 -209.5 -542.5t-599.5 -197.5q-171 0 -340 52v317q135 -41 299 -41zM430 1520l123 282h381l-246 -282h-258z" />
    <glyph glyph-name="uni042E.var.accented" unicode="&#x42e;`" horiz-adv-x="2037" 
d="M1300 -25q-279 0 -439.5 164t-192.5 443h-142v-582h-397v1434h397v-545h144q38 277 204 423t426 146q320 0 489 -196t169 -545t-169 -545.5t-489 -196.5zM1300 283q66 0 114.5 36t76 99t40.5 137.5t13 161.5q0 125 -23.5 219t-79.5 154.5t-141 60.5q-65 0 -113.5 -34.5
t-76 -96.5t-40.5 -137.5t-13 -165.5q0 -92 13.5 -168t41 -137t75.5 -95t113 -34zM897 1520l123 282h381l-246 -282h-258z" />
    <glyph glyph-name="uni042F.var.accented" unicode="&#x42f;`" horiz-adv-x="1290" 
d="M14 0l289 575q-219 123 -219 386q0 220 141 346.5t414 126.5h522v-1434h-397v471h-119l-194 -471h-437zM653 760h111v393h-111q-81 0 -126.5 -52t-45.5 -143q0 -93 45.5 -145.5t126.5 -52.5zM528 1520l123 282h381l-246 -282h-258z" />
    <glyph glyph-name="uni0401.var.accented" unicode="&#x401;`" horiz-adv-x="1105" 
d="M129 0v1434h881v-328h-488v-209h441v-328h-441v-241h502v-328h-895zM463 1763l139 295h338l-270 -295h-207zM154 1516v286h270v-286h-270zM748 1516v286h270v-286h-270z" />
    <glyph glyph-name="uni0430.var.accented" unicode="&#x430;`" horiz-adv-x="1142" 
d="M371 -25q-65 0 -122.5 20t-103.5 59.5t-73 104.5t-27 148q0 85 28.5 149t75 102.5t114.5 62.5t137 32.5t153 8.5h115v14q0 151 -207 151q-150 0 -318 -43v269q198 45 392 45q113 0 204 -23t162.5 -71.5t110.5 -132.5t39 -199v-672h-357v168h-6q-47 -91 -131.5 -142
t-185.5 -51zM518 219q59 0 104.5 70.5t45.5 150.5v35h-76q-73 0 -118.5 -39.5t-45.5 -107.5q0 -53 27 -81t63 -28zM432 1208l139 328h381l-262 -328h-258z" />
    <glyph glyph-name="uni0435.var.accented" unicode="&#x435;`" horiz-adv-x="1177" 
d="M1102 426h-639q21 -101 80.5 -143.5t167.5 -42.5q125 0 329 39v-254q-64 -19 -166.5 -34.5t-199.5 -15.5q-290 0 -449 151.5t-159 412.5q0 257 146.5 408t393.5 151t371.5 -160t124.5 -444v-68zM608 854q-131 0 -153 -219h293q5 96 -32.5 157.5t-107.5 61.5zM461 1208
l139 328h381l-262 -328h-258z" />
    <glyph glyph-name="uni0438.var.accented" unicode="&#x438;`" horiz-adv-x="1259" 
d="M117 0v1079h379v-567h4l301 567h342v-1079h-379v565h-4l-314 -565h-329zM496 1208l139 328h381l-262 -328h-258z" />
    <glyph glyph-name="uni043E.var.accented" unicode="&#x43e;`" horiz-adv-x="1269" 
d="M635 -25q-257 0 -413 151t-156 406q0 259 159 412.5t410 153.5q253 0 411 -154.5t158 -411.5q0 -258 -156.5 -407.5t-412.5 -149.5zM635 242q84 0 128 80.5t44 209.5q0 135 -45 217t-127 82q-84 0 -128 -83.5t-44 -215.5t44.5 -211t127.5 -79zM500 1208l139 328h381
l-262 -328h-258z" />
    <glyph glyph-name="uni0443.var.accented" unicode="&#x443;`" horiz-adv-x="1126" 
d="M297 -461q-67 0 -195 23v305q94 -12 113 -12q55 0 88.5 19.5t52.5 70.5l11 28l-353 1106h412l147 -659h2l154 659h383l-356 -1142q-65 -204 -176 -301t-283 -97zM436 1208l139 328h381l-262 -328h-258z" />
    <glyph glyph-name="uni044B.var.accented" unicode="&#x44b;`" horiz-adv-x="1587" 
d="M117 0v1079h389v-295h84q114 0 198.5 -30t134.5 -85.5t73.5 -126t23.5 -157.5q0 -177 -97.5 -281t-306.5 -104h-499zM500 254h37q104 0 104 137q0 65 -26.5 102t-77.5 37h-37v-276zM1081 0v1079h389v-1079h-389zM659 1208l140 328h381l-262 -328h-259z" />
    <glyph glyph-name="uni044D.var.accented" unicode="&#x44d;`" horiz-adv-x="1024" 
d="M301 248q220 0 268 192h-372v213h372q-49 176 -254 176q-104 0 -221 -26v266q134 29 258 29q98 0 185 -19t165 -62.5t134 -107t89 -158t33 -210.5q0 -265 -159 -415.5t-441 -150.5q-124 0 -276 37v267q102 -31 219 -31zM371 1208l139 328h381l-262 -328h-258z" />
    <glyph glyph-name="uni044E.var.accented" unicode="&#x44e;`" horiz-adv-x="1716" 
d="M117 0v1079h389v-395h123q42 196 179.5 305t324.5 109q110 0 204 -37.5t164 -108t110 -178.5t40 -242q0 -131 -39.5 -237.5t-109.5 -176t-164.5 -106.5t-204.5 -37q-200 0 -338.5 115t-171.5 324h-117v-414h-389zM1133 246q63 0 93.5 71.5t30.5 221.5q0 154 -31 221
t-93 67q-64 0 -94.5 -69t-30.5 -219q0 -293 125 -293zM725 1208l139 328h381l-262 -328h-258z" />
    <glyph glyph-name="uni044F.var.accented" unicode="&#x44f;`" horiz-adv-x="1146" 
d="M12 0l226 422q-168 101 -168 297q0 168 126.5 264t383.5 96h450v-1079h-389v332h-68l-139 -332h-422zM612 555h35v309h-35q-74 0 -111.5 -38.5t-37.5 -110.5q0 -76 37.5 -118t111.5 -42zM444 1208l140 328h381l-263 -328h-258z" />
    <glyph glyph-name="uni0451.var.accented" unicode="&#x451;`" horiz-adv-x="1177" 
d="M1102 426h-639q21 -101 80.5 -143.5t167.5 -42.5q125 0 329 39v-254q-64 -19 -166.5 -34.5t-199.5 -15.5q-290 0 -449 151.5t-159 412.5q0 257 146.5 408t393.5 151t371.5 -160t124.5 -444v-68zM608 854q-131 0 -153 -219h293q5 96 -32.5 157.5t-107.5 61.5zM111 1241
v270h295v-270h-295zM786 1241v270h295v-270h-295zM436 1458l139 295h383l-264 -295h-258z" />
    <glyph glyph-name="fi" unicode="fi" horiz-adv-x="1320" 
d="M29 809v270h143v54q0 219 104.5 323.5t325.5 104.5q26 0 133 -11v-264q-31 8 -63 8q-62 0 -91.5 -44t-29.5 -144v-27h184v-270h-184v-809h-379v809h-143zM829 0v1079h390v-1079h-390zM834 1241v270h380v-270h-380z" />
    <glyph glyph-name="fl" unicode="fl" horiz-adv-x="1320" 
d="M29 809v270h143v54q0 219 104.5 323.5t325.5 104.5q26 0 133 -11v-264q-31 8 -63 8q-62 0 -91.5 -44t-29.5 -144v-27h184v-270h-184v-809h-379v809h-143zM829 0v1536h390v-1536h-390z" />
    <glyph glyph-name=".notdef" horiz-adv-x="471" 
 />
    <glyph glyph-name=".null" horiz-adv-x="0" 
 />
    <glyph glyph-name="nonmarkingreturn" horiz-adv-x="682" 
 />
    <glyph glyph-name="space" unicode=" " horiz-adv-x="471" 
 />
    <glyph glyph-name="exclam" unicode="!" horiz-adv-x="737" 
d="M231 487l-53 947h381l-53 -947h-275zM197 0v332h344v-332h-344z" />
    <glyph glyph-name="quotedbl" unicode="&#x22;" horiz-adv-x="962" 
d="M147 877v557h271v-557h-271zM545 877v557h270v-557h-270z" />
    <glyph glyph-name="numbersign" unicode="#" horiz-adv-x="1187" 
d="M139 0l49 358h-139v246h174l33 225h-145v246h178l51 359h266l-51 -359h176l51 359h267l-52 -359h142v-246h-174l-33 -225h145v-246h-180l-49 -358h-234l50 358h-209l-49 -358h-267zM489 604h177l32 225h-176z" />
    <glyph glyph-name="dollar" unicode="$" horiz-adv-x="1187" 
d="M479 -205v182q-227 10 -385 60v328q147 -85 391 -101v342q-68 19 -118.5 38t-108.5 54.5t-95 79t-62 111t-25 151.5q0 193 110 293t320 119v186h225v-184q162 -9 299 -49v-303q-127 60 -303 72v-310q61 -18 104.5 -34t95 -41t86.5 -57.5t65.5 -76.5t45.5 -104.5
t15 -134.5q0 -386 -434 -434v-187h-226zM801 399q0 46 -27.5 84t-73.5 62v-269q101 32 101 123zM397 1061q0 -89 109 -137v239q-55 -11 -82 -35t-27 -67z" />
    <glyph glyph-name="percent" unicode="%" horiz-adv-x="1843" 
d="M295 0l991 1434h262l-991 -1434h-262zM451 700q-176 0 -283 104.5t-107 274.5t107 274.5t283 104.5t282.5 -104.5t106.5 -274.5t-106.5 -274.5t-282.5 -104.5zM451 905q57 0 84.5 39t27.5 135t-27.5 135t-84.5 39t-85 -39t-28 -135t28 -135t85 -39zM1393 -25
q-176 0 -282.5 104.5t-106.5 274.5t106.5 274.5t282.5 104.5t282.5 -104.5t106.5 -274.5t-106.5 -274.5t-282.5 -104.5zM1393 180q57 0 84.5 39t27.5 135t-27.5 135t-84.5 39t-85 -39t-28 -135t28 -135t85 -39z" />
    <glyph glyph-name="ampersand" unicode="&#x26;" horiz-adv-x="1515" 
d="M618 -25q-87 0 -167.5 18t-150 54t-121.5 86.5t-82 120.5t-31 152q-1 127 67 215t201 155q-91 84 -132.5 166t-41.5 174q0 86 38 152.5t105 107.5t153.5 61.5t188.5 20.5q98 0 183.5 -22.5t151.5 -65t104 -110t38 -152.5q0 -122 -83 -214.5t-248 -170.5
q237 -213 278 -252q49 97 72 303h336q-18 -316 -201 -512q94 -100 237 -262h-421l-62 76q-197 -101 -412 -101zM858 268q-136 143 -346 340q-101 -74 -98 -182q1 -98 64 -151.5t169 -53.5q119 0 211 47zM492 1096q0 -104 108 -209q104 55 147.5 100t43.5 109q0 67 -42.5 98
t-107.5 31t-107 -31t-42 -98z" />
    <glyph glyph-name="quotesingle" unicode="'" horiz-adv-x="573" 
d="M152 877v557h270v-557h-270z" />
    <glyph glyph-name="parenleft" unicode="(" horiz-adv-x="716" 
d="M432 -287q-318 410 -321 920q9 509 325 919h301q-289 -418 -295 -919q9 -497 281 -920h-291z" />
    <glyph glyph-name="parenright" unicode=")" horiz-adv-x="716" 
d="M-20 -287q285 422 294 920q-9 500 -294 919h301q319 -404 325 -919q-9 -510 -325 -920h-301z" />
    <glyph glyph-name="asterisk" unicode="*" horiz-adv-x="1126" 
d="M416 618l-201 146l211 211l-291 57l78 238l272 -135l-43 299h250l-41 -295l267 131l75 -240l-295 -53l209 -211l-207 -150l-137 265z" />
    <glyph glyph-name="plus" unicode="+" horiz-adv-x="1187" 
d="M440 174v389h-379v307h379v390h308v-390h378v-307h-378v-389h-308z" />
    <glyph glyph-name="comma" unicode="," horiz-adv-x="573" 
d="M-23 -223l138 555h344l-201 -555h-281z" />
    <glyph glyph-name="hyphen" unicode="-" 
d="M102 471v287h615v-287h-615z" />
    <glyph glyph-name="period" unicode="." horiz-adv-x="573" 
d="M115 0v332h344v-332h-344z" />
    <glyph glyph-name="slash" unicode="/" horiz-adv-x="655" 
d="M-20 0l405 1434h291l-406 -1434h-290z" />
    <glyph glyph-name="zero" unicode="0" horiz-adv-x="1269" 
d="M635 -25q-138 0 -238 39.5t-172 126t-107.5 230t-35.5 346.5t35.5 346t107.5 230t172 126t238 39t238 -39t172 -126t107.5 -230t35.5 -346t-35.5 -346.5t-107.5 -230t-172 -126t-238 -39.5zM635 256q39 0 66 19t49 68t32.5 142t10.5 232t-10.5 232t-32.5 142t-49 68
t-66 19t-66 -19t-49 -68t-32.5 -142t-10.5 -232t10.5 -232t32.5 -142t49 -68t66 -19z" />
    <glyph glyph-name="one" unicode="1" 
d="M283 0v981l-123 -92l-174 254l383 291h303v-1434h-389z" />
    <glyph glyph-name="two" unicode="2" horiz-adv-x="1146" 
d="M66 0v272q53 44 136.5 125t98.5 95q160 148 243 279.5t83 232.5q0 151 -197 151q-145 0 -330 -68v308q199 63 377 63q280 0 413.5 -114t133.5 -312q0 -85 -27 -164.5t-85.5 -160.5t-127.5 -153.5t-174 -168.5l-90 -78h535v-307h-989z" />
    <glyph glyph-name="three" unicode="3" horiz-adv-x="1146" 
d="M471 -25q-249 0 -410 50v299q65 -29 169 -43.5t190 -14.5q129 0 191.5 46t62.5 130q0 154 -223 154h-168v266h168q106 0 153 39t47 113q0 73 -44.5 108t-153.5 35q-172 0 -336 -59v301q174 59 364 59q152 0 264 -29t177.5 -83t96 -123t30.5 -156q0 -247 -289 -315v-4
q150 -28 230.5 -115.5t80.5 -222.5q0 -87 -38.5 -164.5t-111 -138.5t-189 -96.5t-261.5 -35.5z" />
    <glyph glyph-name="four" unicode="4" horiz-adv-x="1187" 
d="M666 0v248h-627v307l590 879h409v-906h107v-280h-107v-248h-372zM344 528h322v467h-11z" />
    <glyph glyph-name="five" unicode="5" horiz-adv-x="1146" 
d="M481 -25q-216 3 -389 52v301q179 -66 342 -66q252 0 252 207q0 113 -78 159t-215 46q-122 0 -287 -31q44 371 66 791h848v-308h-578l-16 -204q91 12 164 12q493 0 493 -453q0 -231 -155 -368.5t-447 -137.5z" />
    <glyph glyph-name="six" unicode="6" horiz-adv-x="1228" 
d="M625 -25q-253 0 -400 178t-147 523q0 387 169.5 584.5t502.5 197.5q78 0 134 -8.5t142 -30.5v-297q-121 39 -254 39q-150 0 -222.5 -73t-84.5 -220h6q59 46 121 71.5t147 25.5q192 0 307 -124.5t115 -348.5q0 -230 -145.5 -373.5t-390.5 -143.5zM623 242q73 0 113 59.5
t40 165.5q0 109 -39.5 167t-113.5 58t-114 -58.5t-40 -166.5q0 -106 40.5 -165.5t113.5 -59.5z" />
    <glyph glyph-name="seven" unicode="7" horiz-adv-x="1126" 
d="M139 0l520 1126h-610v308h1014v-285l-524 -1149h-400z" />
    <glyph glyph-name="eight" unicode="8" horiz-adv-x="1228" 
d="M614 -25q-138 0 -247 32t-177 88t-103.5 128.5t-35.5 155.5q0 118 76 215.5t211 140.5v4q-246 120 -246 334q0 173 132 279t390 106q247 0 376.5 -104.5t129.5 -272.5q0 -112 -63.5 -192t-165.5 -129v-4q150 -59 218.5 -149.5t68.5 -217.5q0 -87 -35.5 -161.5t-104 -131
t-177.5 -89t-247 -32.5zM616 240q72 0 123.5 45t51.5 125q0 83 -56 137t-141 80q-64 -30 -110 -90t-46 -129q0 -73 52 -120.5t126 -47.5zM635 854q123 79 123 207q0 69 -38 104t-106 35q-66 0 -112.5 -35.5t-46.5 -99.5q0 -68 53 -122t127 -89z" />
    <glyph glyph-name="nine" unicode="9" horiz-adv-x="1228" 
d="M600 1458q253 0 402 -172.5t149 -503.5q0 -807 -643 -807q-153 0 -309 39v297q153 -39 286 -39q146 0 204.5 69.5t74.5 223.5h-6q-59 -46 -121.5 -71t-147.5 -25q-192 0 -306.5 124.5t-114.5 348.5q0 235 143 375.5t389 140.5zM602 1192q-73 0 -111 -59t-38 -166
q0 -109 39.5 -167.5t113.5 -58.5t114 58.5t40 167.5q0 105 -42 165t-116 60z" />
    <glyph glyph-name="colon" unicode=":" horiz-adv-x="573" 
d="M115 735v332h344v-332h-344zM115 0v332h344v-332h-344z" />
    <glyph glyph-name="semicolon" unicode=";" horiz-adv-x="573" 
d="M-23 -223l138 555h344l-201 -555h-281zM115 735v332h344v-332h-344z" />
    <glyph glyph-name="less" unicode="&#x3c;" horiz-adv-x="1187" 
d="M1049 449v-377l-922 483v324l922 483v-393l-584 -260z" />
    <glyph glyph-name="equal" unicode="=" horiz-adv-x="1187" 
d="M61 788v308h1065v-308h-1065zM61 338v307h1065v-307h-1065z" />
    <glyph glyph-name="greater" unicode="&#x3e;" horiz-adv-x="1187" 
d="M139 72v377l584 260l-584 260v393l922 -483v-324z" />
    <glyph glyph-name="question" unicode="?" horiz-adv-x="1024" 
d="M354 487q-1 71 22.5 137t57 117t67.5 98.5t57.5 100t23.5 102.5q0 146 -189 146q-129 0 -248 -80v291q174 59 349 59q102 0 180.5 -16t142.5 -53.5t98.5 -105t34.5 -163.5q0 -82 -28 -150.5t-69 -119.5t-83 -100.5t-75.5 -117t-41.5 -145.5h-299zM332 0v332h344v-332
h-344z" />
    <glyph glyph-name="at" unicode="@" horiz-adv-x="1740" 
d="M922 -276q-185 0 -342.5 60.5t-266.5 167t-170 256t-61 324.5q0 185 62.5 342.5t171.5 266.5t262 170t329 61q174 0 316.5 -54t237.5 -149t146.5 -224t51.5 -279q0 -137 -31.5 -244t-86 -173t-125.5 -100t-154 -34q-97 0 -167 42.5t-94 125.5q-36 -77 -112 -122.5
t-166 -45.5q-131 0 -211 95t-80 275q0 216 114.5 364t280.5 148q134 0 201 -120h4l12 81h273l-82 -479q-16 -67 -4 -114.5t61 -47.5q65 0 116.5 84t51.5 248q0 248 -138 391.5t-402 143.5q-283 0 -461 -179t-178 -473q0 -283 172 -451.5t469 -168.5q218 0 370 76v-201
q-61 -28 -160.5 -45.5t-209.5 -17.5zM829 332q46 0 82 49.5t53 116t17 131.5q0 72 -20 104.5t-62 32.5q-50 0 -88 -42.5t-56 -105t-18 -131.5q0 -74 23.5 -114.5t68.5 -40.5z" />
    <glyph glyph-name="A" unicode="A" horiz-adv-x="1413" 
d="M10 0l461 1434h471l461 -1434h-428l-76 270h-407l-74 -270h-408zM696 1001l-127 -454h254z" />
    <glyph glyph-name="B" unicode="B" horiz-adv-x="1249" 
d="M129 0v1434h569q97 0 178 -21t144.5 -64t99 -114.5t35.5 -165.5q0 -129 -71 -214t-197 -120v-4q42 -6 80.5 -17.5t82 -36.5t74.5 -59t51.5 -89t20.5 -123q0 -106 -42 -185.5t-118.5 -127t-174.5 -70.5t-218 -23h-514zM526 270h88q83 0 131 38.5t48 133.5t-47 130.5
t-144 35.5h-76v-338zM526 866h66q74 0 117 34.5t43 123.5q0 78 -33.5 108.5t-100.5 30.5h-92v-297z" />
    <glyph glyph-name="C" unicode="C" horiz-adv-x="1290" 
d="M877 -25q-201 0 -355.5 56.5t-250 157.5t-143.5 233.5t-48 292.5q0 186 58 329.5t162.5 233t244 135t309.5 45.5q86 0 170 -14t125 -28l41 -15v-326q-145 68 -309 68q-177 0 -283 -106.5t-106 -325.5q0 -112 30.5 -194.5t86.5 -130.5t128 -70.5t162 -22.5q150 0 291 43
v-303q-168 -58 -313 -58z" />
    <glyph glyph-name="D" unicode="D" horiz-adv-x="1474" 
d="M129 0v1434h514q141 0 254 -22.5t207.5 -74.5t157.5 -133.5t98 -202.5t35 -278q0 -192 -54.5 -333.5t-156 -225.5t-236 -124t-305.5 -40h-514zM526 287h125q159 0 244.5 108.5t85.5 321.5q0 211 -86.5 320.5t-243.5 109.5h-125v-860z" />
    <glyph glyph-name="E" unicode="E" horiz-adv-x="1105" 
d="M129 0v1434h881v-328h-488v-209h441v-328h-441v-241h502v-328h-895z" />
    <glyph glyph-name="F" unicode="F" horiz-adv-x="1064" 
d="M129 0v1434h885v-328h-488v-258h463v-291h-463v-557h-397z" />
    <glyph glyph-name="G" unicode="G" horiz-adv-x="1464" 
d="M850 -25q-357 0 -563.5 196t-206.5 556q0 183 58.5 323.5t166 229t253 133.5t325.5 45q247 0 436 -53v-318q-189 50 -391 50q-439 0 -439 -426q0 -199 107 -317t281 -118q65 0 120 15l7 264h-218v283h572v-797q-259 -66 -508 -66z" />
    <glyph glyph-name="H" unicode="H" horiz-adv-x="1474" 
d="M129 0v1434h397v-533h422v533h398v-1434h-398v573h-422v-573h-397z" />
    <glyph glyph-name="I" unicode="I" horiz-adv-x="634" 
d="M119 0v1434h397v-1434h-397z" />
    <glyph glyph-name="J" unicode="J" horiz-adv-x="778" 
d="M203 -25q-77 0 -162 25v322q40 -15 82 -15q30 0 52.5 10.5t36.5 32.5t23.5 47t13.5 63t5.5 70.5t1.5 79.5v824h397v-938q0 -255 -116 -388t-334 -133z" />
    <glyph glyph-name="K" unicode="K" horiz-adv-x="1320" 
d="M129 0v1434h397v-598h15l338 598h432l-404 -680l414 -754h-451l-327 657h-17v-657h-397z" />
    <glyph glyph-name="L" unicode="L" horiz-adv-x="1064" 
d="M129 0v1434h397v-1106h506v-328h-903z" />
    <glyph glyph-name="M" unicode="M" horiz-adv-x="1761" 
d="M129 0v1434h508l254 -691l254 691h487v-1434h-377v973h-6l-254 -662h-250l-239 658v-969h-377z" />
    <glyph glyph-name="N" unicode="N" horiz-adv-x="1495" 
d="M129 0v1434h498l383 -914h4l-6 170v744h358v-1434h-465l-416 942h-4l6 -166v-776h-358z" />
    <glyph glyph-name="O" unicode="O" horiz-adv-x="1536" 
d="M768 -25q-335 0 -511.5 194.5t-176.5 547.5q0 355 178 548t510 193q335 0 511.5 -194t176.5 -547q0 -355 -178 -548.5t-510 -193.5zM768 283q72 0 126 34t85.5 95t47 137.5t15.5 167.5q0 94 -16 171t-48.5 137t-86 93t-123.5 33q-72 0 -126 -34t-85.5 -95t-47 -137.5
t-15.5 -167.5q0 -94 16 -171t48.5 -137t86 -93t123.5 -33z" />
    <glyph glyph-name="P" unicode="P" horiz-adv-x="1228" 
d="M129 0v1434h498q278 0 416.5 -126t138.5 -352q0 -233 -134 -363t-421 -130h-101v-463h-397zM526 750h86q172 0 172 202q0 195 -172 195h-86v-397z" />
    <glyph glyph-name="Q" unicode="Q" horiz-adv-x="1536" 
d="M768 -25q-335 0 -511.5 194.5t-176.5 547.5q0 355 178 548t510 193q335 0 511.5 -194t176.5 -547q0 -236 -79.5 -403t-233.5 -253l313 -331h-430l-213 247q-14 -2 -45 -2zM768 283q72 0 126 34t85.5 95t47 137.5t15.5 167.5q0 94 -16 171t-48.5 137t-86 93t-123.5 33
q-72 0 -126 -34t-85.5 -95t-47 -137.5t-15.5 -167.5q0 -94 16 -171t48.5 -137t86 -93t123.5 -33z" />
    <glyph glyph-name="R" unicode="R" horiz-adv-x="1280" 
d="M827 0l-198 496h-103v-496h-397v1434h489q287 0 430.5 -123t143.5 -342q0 -283 -215 -394l289 -575h-439zM526 778h107q76 0 119 53t43 140q0 83 -42.5 131.5t-119.5 48.5h-107v-373z" />
    <glyph glyph-name="S" unicode="S" horiz-adv-x="1085" 
d="M453 -25q-191 0 -392 62v315q185 -84 383 -84q96 0 142.5 31t46.5 96q0 25 -6.5 46t-23.5 39.5t-31.5 30.5t-46 28t-50 24t-59.5 25q-46 19 -74 31.5t-72 36.5t-71 45t-59 54.5t-50 69.5t-30.5 84.5t-12.5 104.5q0 115 45 202.5t124.5 139t181 77t223.5 25.5
q176 0 340 -53v-289q-134 49 -308 49q-45 0 -77.5 -4.5t-60.5 -16.5t-42 -35t-14 -58q0 -27 11 -50.5t25.5 -39.5t46 -34t53.5 -28.5t67 -30.5q8 -3 23 -10q37 -16 56.5 -24.5t55 -26t55.5 -30.5t49.5 -35t46.5 -42t37.5 -48.5t31 -58t18 -67.5t7.5 -80q0 -124 -43.5 -216.5
t-123.5 -147t-185 -81t-237 -26.5z" />
    <glyph glyph-name="T" unicode="T" horiz-adv-x="1146" 
d="M375 0v1106h-346v328h1089v-328h-346v-1106h-397z" />
    <glyph glyph-name="U" unicode="U" horiz-adv-x="1474" 
d="M737 -25q-288 0 -450 143t-162 427v889h397v-826q0 -71 10 -126t33 -102t66.5 -72t105.5 -25q63 0 107 26t66.5 74.5t32 102t9.5 122.5v826h398v-889q0 -285 -162.5 -427.5t-450.5 -142.5z" />
    <glyph glyph-name="V" unicode="V" horiz-adv-x="1351" 
d="M430 0l-444 1434h422l270 -1065h6l274 1065h408l-453 -1434h-483z" />
    <glyph glyph-name="W" unicode="W" horiz-adv-x="2048" 
d="M334 0l-303 1434h399l178 -1008h13l184 1008h457l182 -1008h12l180 1008h381l-305 -1434h-489l-195 1063h-6l-195 -1063h-493z" />
    <glyph glyph-name="X" unicode="X" horiz-adv-x="1413" 
d="M940 0l-246 471l-243 -471h-433l453 754l-403 680h444l209 -416l215 416h418l-408 -680l449 -754h-455z" />
    <glyph glyph-name="Y" unicode="Y" horiz-adv-x="1331" 
d="M-6 1434h432l238 -543h2l239 543h432l-473 -924v-510h-397v510z" />
    <glyph glyph-name="Z" unicode="Z" horiz-adv-x="1187" 
d="M86 0v297l573 829h-555v308h994v-295l-590 -832h594v-307h-1016z" />
    <glyph glyph-name="bracketleft" unicode="[" horiz-adv-x="716" 
d="M178 -287v1839h510v-233h-203v-1372h203v-234h-510z" />
    <glyph glyph-name="backslash" unicode="\" horiz-adv-x="655" 
d="M377 0l-397 1434h299l397 -1434h-299z" />
    <glyph glyph-name="bracketright" unicode="]" horiz-adv-x="716" 
d="M539 1552v-1839h-510v234h202v1372h-202v233h510z" />
    <glyph glyph-name="asciicircum" unicode="^" horiz-adv-x="1187" 
d="M31 717l397 717h332l397 -717h-332l-231 471l-232 -471h-331z" />
    <glyph glyph-name="underscore" unicode="_" horiz-adv-x="1024" 
d="M0 -256v102h1024v-102h-1024z" />
    <glyph glyph-name="grave" unicode="`" 
d="M295 1208l-207 328h381l84 -328h-258z" />
    <glyph glyph-name="a" unicode="a" horiz-adv-x="1142" 
d="M371 -25q-65 0 -122.5 20t-103.5 59.5t-73 104.5t-27 148q0 85 28.5 149t75 102.5t114.5 62.5t137 32.5t153 8.5h115v14q0 151 -207 151q-150 0 -318 -43v269q198 45 392 45q113 0 204 -23t162.5 -71.5t110.5 -132.5t39 -199v-672h-357v168h-6q-47 -91 -131.5 -142
t-185.5 -51zM518 219q59 0 104.5 70.5t45.5 150.5v35h-76q-73 0 -118.5 -39.5t-45.5 -107.5q0 -53 27 -81t63 -28z" />
    <glyph glyph-name="b" unicode="b" horiz-adv-x="1290" 
d="M768 -25q-194 0 -295 160h-6l-21 -135h-329v1536h389v-549h4q116 111 268 111q89 0 164 -33t126.5 -88.5t87.5 -128t52.5 -150.5t16.5 -157q0 -154 -52.5 -281t-158 -206t-246.5 -79zM662 262q74 0 119.5 72.5t45.5 197.5q0 126 -45.5 199.5t-119.5 73.5q-75 0 -125 -75
t-50 -200q0 -123 49.5 -195.5t125.5 -72.5z" />
    <glyph glyph-name="c" unicode="c" horiz-adv-x="993" 
d="M649 -25q-270 0 -426.5 149.5t-156.5 407.5q0 255 150.5 410.5t422.5 155.5q164 0 262 -29v-281q-116 27 -182 27q-131 0 -194.5 -64.5t-63.5 -209.5q0 -81 21.5 -137.5t61.5 -87t87.5 -43.5t109.5 -13q63 0 170 29v-285q-128 -29 -262 -29z" />
    <glyph glyph-name="d" unicode="d" horiz-adv-x="1290" 
d="M522 -25q-106 0 -193.5 45.5t-144 124t-87.5 180.5t-31 216q0 79 16.5 157t52.5 150.5t87 128t126 88.5t164 33q157 0 272 -115v553h390v-1536h-359v131q-100 -156 -293 -156zM629 262q76 0 125 72.5t49 195.5q0 125 -49.5 200t-124.5 75q-74 0 -120 -73.5t-46 -199.5
q0 -124 46 -197t120 -73z" />
    <glyph glyph-name="e" unicode="e" horiz-adv-x="1177" 
d="M1102 426h-639q21 -101 80.5 -143.5t167.5 -42.5q125 0 329 39v-254q-64 -19 -166.5 -34.5t-199.5 -15.5q-290 0 -449 151.5t-159 412.5q0 257 146.5 408t393.5 151t371.5 -160t124.5 -444v-68zM608 854q-131 0 -153 -219h293q5 96 -32.5 157.5t-107.5 61.5z" />
    <glyph glyph-name="f" unicode="f" horiz-adv-x="757" 
d="M29 809v270h143v54q0 219 104.5 323.5t325.5 104.5q26 0 133 -11v-264q-31 8 -63 8q-62 0 -91.5 -44t-29.5 -144v-27h184v-270h-184v-809h-379v809h-143z" />
    <glyph glyph-name="g" unicode="g" horiz-adv-x="1290" 
d="M586 -455q-221 0 -412 56v299q196 -78 371 -78q139 0 202.5 72t63.5 231v8h-4q-118 -133 -301 -133q-109 0 -195 46t-138.5 124t-79.5 175t-27 206q0 150 49.5 272.5t151 198.5t239.5 76q185 0 305 -160h4v141h359v-954q0 -308 -143 -444t-445 -136zM625 287
q76 0 122 71.5t46 192.5q0 115 -46.5 184.5t-121.5 69.5t-119.5 -68.5t-44.5 -185.5q0 -121 44 -192.5t120 -71.5z" />
    <glyph glyph-name="h" unicode="h" horiz-adv-x="1249" 
d="M117 0v1536h389v-457l-2 -188h6q131 207 319 207q158 0 243 -119.5t85 -319.5v-659h-389v551q0 104 -27.5 155.5t-91.5 51.5q-143 0 -143 -273v-485h-389z" />
    <glyph glyph-name="i" unicode="i" horiz-adv-x="593" 
d="M102 0v1079h390v-1079h-390zM106 1241v270h381v-270h-381z" />
    <glyph glyph-name="j" unicode="j" horiz-adv-x="593" 
d="M98 -455q-51 0 -151 19v289q56 -7 69 -7q52 0 69 38t17 116v1079h390v-1089q0 -227 -96.5 -336t-297.5 -109zM106 1241v270h381v-270h-381z" />
    <glyph glyph-name="k" unicode="k" horiz-adv-x="1136" 
d="M117 0v1536h379v-874l239 417h412l-305 -438l305 -641h-414l-182 430l-55 -82v-348h-379z" />
    <glyph glyph-name="l" unicode="l" horiz-adv-x="593" 
d="M102 0v1536h390v-1536h-390z" />
    <glyph glyph-name="m" unicode="m" horiz-adv-x="1812" 
d="M117 0v1079h356v-188h6q38 60 75 101.5t96.5 73.5t127.5 32q102 0 175 -59t114 -165q70 107 148 165.5t178 58.5q154 0 240.5 -120.5t86.5 -318.5v-659h-389v551q0 104 -22.5 155.5t-75.5 51.5q-121 0 -121 -273v-485h-387v551q0 105 -21.5 156t-74.5 51
q-123 0 -123 -273v-485h-389z" />
    <glyph glyph-name="n" unicode="n" horiz-adv-x="1249" 
d="M117 0v1079h356v-188h4q143 207 342 207q163 0 250.5 -120t87.5 -319v-659h-389v551q0 104 -27 155.5t-92 51.5q-75 0 -109 -69.5t-34 -203.5v-485h-389z" />
    <glyph glyph-name="o" unicode="o" horiz-adv-x="1269" 
d="M635 -25q-257 0 -413 151t-156 406q0 259 159 412.5t410 153.5q253 0 411 -154.5t158 -411.5q0 -258 -156.5 -407.5t-412.5 -149.5zM635 242q84 0 128 80.5t44 209.5q0 135 -45 217t-127 82q-84 0 -128 -83.5t-44 -215.5t44.5 -211t127.5 -79z" />
    <glyph glyph-name="p" unicode="p" horiz-adv-x="1290" 
d="M506 96v-526h-389v1509h360v-151h4q125 170 324 170q101 0 182 -45t132 -122t78.5 -177t27.5 -213q0 -254 -123.5 -410t-317.5 -156q-162 0 -274 121h-4zM657 262q74 0 123 73.5t49 196.5q0 124 -49 198.5t-123 74.5t-121 -74.5t-47 -200.5q0 -123 47 -195.5t121 -72.5z
" />
    <glyph glyph-name="q" unicode="q" horiz-adv-x="1290" 
d="M784 -430v526h-4q-112 -121 -274 -121q-194 0 -317 156t-123 410q0 153 46 277t143 202t230 78q199 0 324 -170h4v151h361v-1509h-390zM633 262q74 0 121 72.5t47 195.5q0 126 -47 200.5t-121 74.5t-123 -74.5t-49 -198.5q0 -123 49 -196.5t123 -73.5z" />
    <glyph glyph-name="r" unicode="r" horiz-adv-x="829" 
d="M117 0v1079h348v-182h6q9 25 14.5 37.5t17.5 37.5t22.5 39t28.5 33t37.5 29t46.5 17.5t58 7.5q62 0 92 -13v-317q-4 0 -44 3t-58 3q-47 0 -80 -14.5t-52.5 -38.5t-30 -67t-14 -88t-3.5 -113v-453h-389z" />
    <glyph glyph-name="s" unicode="s" horiz-adv-x="962" 
d="M430 -25q-189 0 -356 52v274q213 -70 321 -70q105 0 105 70q0 11 -2 20.5t-8 18.5t-11 15.5t-16.5 14.5t-19.5 13.5t-24.5 14t-26.5 13.5t-31 15t-33 16q-7 3 -33.5 15.5t-36.5 17.5t-34.5 18.5t-35.5 22.5t-31.5 25.5t-30.5 31t-23.5 35.5t-20 43t-11.5 50t-5 59
q0 92 36 159.5t99 105.5t139 55.5t166 17.5q177 0 328 -68v-262q-160 68 -283 68q-109 0 -109 -64q0 -16 7 -28t23 -22.5t31 -17.5t42.5 -19t46.5 -21q16 -8 50.5 -24t53.5 -25.5t50 -27.5t49 -33.5t40 -40.5t33.5 -51.5t20 -62.5t8.5 -77q0 -347 -467 -347z" />
    <glyph glyph-name="t" unicode="t" horiz-adv-x="778" 
d="M700 1079v-270h-157v-350q0 -104 28.5 -146.5t81.5 -42.5q13 0 58 9v-287q-117 -17 -162 -17q-185 0 -288 92t-103 287v455h-121v270h121v213l385 105v-318h157z" />
    <glyph glyph-name="u" unicode="u" horiz-adv-x="1249" 
d="M1133 1079v-1079h-357v178h-4q-31 -44 -59.5 -76t-68 -63t-88.5 -47.5t-105 -16.5q-169 0 -264 122t-95 323v659h389v-551q0 -104 26.5 -155t90.5 -51q77 0 111 69t34 203v485h390z" />
    <glyph glyph-name="v" unicode="v" horiz-adv-x="1105" 
d="M324 0l-312 1079h400l149 -655h6l146 655h381l-310 -1079h-460z" />
    <glyph glyph-name="w" unicode="w" horiz-adv-x="1648" 
d="M233 0l-208 1079h413l86 -669l156 669h326l149 -669l84 669h385l-207 -1079h-461l-122 573l-140 -573h-461z" />
    <glyph glyph-name="x" unicode="x" horiz-adv-x="1105" 
d="M-12 0l315 571l-276 508h448l105 -321l102 321h414l-277 -508l299 -571h-446l-125 344l-144 -344h-415z" />
    <glyph glyph-name="y" unicode="y" horiz-adv-x="1126" 
d="M297 -461q-67 0 -195 23v305q94 -12 113 -12q55 0 88.5 19.5t52.5 70.5l11 28l-353 1106h412l147 -659h2l154 659h383l-356 -1142q-65 -204 -176 -301t-283 -97z" />
    <glyph glyph-name="z" unicode="z" horiz-adv-x="1024" 
d="M76 0v274l420 531h-410v274h854v-274l-424 -531h432v-274h-872z" />
    <glyph glyph-name="braceleft" unicode="{" horiz-adv-x="716" 
d="M502 -287q-128 0 -210.5 76.5t-82.5 204.5v397q0 79 -39.5 117t-99.5 33v184q59 -5 99 30.5t40 104.5v412q0 134 81 207t212 73h174v-198h-66q-65 0 -91.5 -34.5t-26.5 -96.5v-363q0 -108 -69 -164t-183 -61v-4q130 0 191 -58.5t61 -181.5v-348q0 -68 28.5 -97t89.5 -34
h66v-199h-174z" />
    <glyph glyph-name="bar" unicode="|" horiz-adv-x="532" 
d="M123 -287v1823h287v-1823h-287z" />
    <glyph glyph-name="braceright" unicode="}" horiz-adv-x="716" 
d="M215 -287h-174v199h65q61 5 90 34t29 97v348q0 123 61 181.5t191 58.5v4q-114 5 -183 61t-69 164v363q0 131 -119 131h-65v198h174q131 0 212 -73t81 -207v-412q0 -69 40 -104.5t99 -30.5v-184q-60 5 -99.5 -33t-39.5 -117v-397q0 -128 -82.5 -204.5t-210.5 -76.5z" />
    <glyph glyph-name="asciitilde" unicode="~" horiz-adv-x="1187" 
d="M813 481q-67 0 -135 28.5t-115 62t-107 62t-112 28.5q-66 0 -131 -40.5t-111 -109.5l-82 266q57 79 154 135t195 56q69 0 138.5 -28.5t116.5 -62t107 -62t111 -28.5q62 0 122 35t101 95l102 -246q-58 -80 -155 -135.5t-199 -55.5z" />
    <glyph glyph-name="uni00A0" unicode="&#xa0;" horiz-adv-x="471" 
 />
    <glyph glyph-name="exclamdown" unicode="&#xa1;" horiz-adv-x="737" 
d="M178 -367l53 947h275l53 -947h-381zM197 735v332h344v-332h-344z" />
    <glyph glyph-name="cent" unicode="&#xa2;" horiz-adv-x="1187" 
d="M500 -205v215q-180 58 -283.5 194t-103.5 328q0 190 102.5 328t284.5 195v217h368v-191q77 -12 158 -49v-270q-98 59 -235 59q-129 0 -212 -79.5t-83 -209.5q0 -74 27.5 -131t73.5 -89.5t99.5 -49t112.5 -16.5q118 0 227 51v-274q-80 -27 -168 -39v-189h-368z" />
    <glyph glyph-name="sterling" unicode="&#xa3;" horiz-adv-x="1187" 
d="M111 0v287h131v338h-129v225h129v92q0 516 581 516q148 0 279 -35v-278q-99 31 -215 31q-143 0 -203.5 -57.5t-60.5 -176.5v-92h319v-225h-319v-338h471v-287h-983z" />
    <glyph glyph-name="currency" unicode="&#xa4;" horiz-adv-x="1187" 
d="M188 203l-118 119l114 114q-90 136 -90 291q0 149 90 291l-114 115l118 118l115 -114q133 90 291 90q149 0 291 -90l114 114l119 -118l-114 -115q90 -139 90 -291q0 -146 -90 -291l114 -114l-119 -119l-114 114q-142 -90 -291 -90t-291 90zM594 500q91 0 155 66t64 161
t-64 161t-155 66t-155 -66t-64 -161t64 -161t155 -66z" />
    <glyph glyph-name="yen" unicode="&#xa5;" horiz-adv-x="1187" 
d="M133 555v225h152l-303 654h417l195 -531l194 531h418l-303 -654h152v-225h-267v-74h267v-225h-267v-256h-389v256h-266v225h266v74h-266z" />
    <glyph glyph-name="brokenbar" unicode="&#xa6;" horiz-adv-x="532" 
d="M123 844v692h287v-692h-287zM123 -287v762h287v-762h-287z" />
    <glyph glyph-name="section" unicode="&#xa7;" horiz-adv-x="1126" 
d="M508 -281q-238 0 -397 58l18 256q200 -70 346 -70q96 0 147.5 27t51.5 71q0 30 -26.5 57.5t-69 48.5t-97.5 46.5t-112.5 49.5t-112.5 57.5t-97.5 71t-69 91t-26.5 115.5q0 86 46 149.5t143 124.5q-168 107 -168 256q0 84 40.5 149t112 104t162 59t195.5 20q179 0 354 -53
l-16 -248q-161 53 -318 53q-77 0 -119 -21.5t-42 -62.5q0 -34 33.5 -63t87.5 -51.5t119 -46.5t130 -56t119 -72t87.5 -102t33.5 -139q0 -170 -170 -289q145 -95 145 -243q0 -88 -45.5 -156.5t-122 -109t-168.5 -61t-194 -20.5zM369 639q0 -51 47 -94t92.5 -63.5t147.5 -59.5
q8 -3 12.5 -5t11 -4.5t12.5 -4.5q31 36 49.5 76.5t18.5 70.5q0 17 -5 32t-18 30t-24.5 26.5t-35 25.5t-39.5 23t-47.5 23t-49.5 21.5t-55 23t-54 22.5q-63 -70 -63 -143z" />
    <glyph glyph-name="dieresis" unicode="&#xa8;" 
d="M496 1241v270h295v-270h-295zM29 1241v270h295v-270h-295z" />
    <glyph glyph-name="copyright" unicode="&#xa9;" horiz-adv-x="1802" 
d="M942 295q-197 0 -313.5 114.5t-116.5 307.5t116.5 307.5t313.5 114.5q113 0 205 -45v-201q-89 61 -189 61q-112 0 -176.5 -64t-64.5 -173t64.5 -173.5t176.5 -64.5q118 0 189 62v-201q-33 -16 -92.5 -30.5t-112.5 -14.5zM901 -25q-201 0 -370.5 99.5t-268 270
t-98.5 372.5q0 151 58 288.5t157 236.5t235.5 157.5t286.5 58.5t286.5 -58.5t235.5 -157.5t157 -236.5t58 -288.5q0 -202 -98.5 -372.5t-268 -270t-370.5 -99.5zM901 168q148 0 270.5 72t192.5 198t70 279t-70 279t-192.5 198t-270.5 72t-270.5 -72t-192 -198t-69.5 -279
t69.5 -279t192 -198t270.5 -72z" />
    <glyph glyph-name="ordfeminine" unicode="&#xaa;" 
d="M258 549q-100 0 -164 67t-67 193q0 309 385 309h55v27q0 100 -121 100q-79 0 -240 -49v213q133 49 304 49q158 0 240.5 -79.5t82.5 -270.5v-535h-258v97h-4q-38 -67 -97 -94t-116 -27zM373 750q47 0 70.5 40.5t23.5 104.5v63h-41q-62 0 -92.5 -27.5t-30.5 -86.5
q0 -94 70 -94z" />
    <glyph glyph-name="guillemotleft" unicode="&#xab;" horiz-adv-x="1136" 
d="M776 195l-244 419l244 418h303l-225 -418l225 -419h-303zM289 195l-244 419l244 418h303l-225 -418l225 -419h-303z" />
    <glyph glyph-name="logicalnot" unicode="&#xac;" horiz-adv-x="1187" 
d="M799 328v379h-738v307h1045v-686h-307z" />
    <glyph glyph-name="uni00AD" unicode="&#xad;" 
d="M102 471v287h615v-287h-615z" />
    <glyph glyph-name="registered" unicode="&#xae;" horiz-adv-x="1802" 
d="M901 -25q-201 0 -370.5 99.5t-268 270t-98.5 372.5q0 151 58 288.5t157 236.5t235.5 157.5t286.5 58.5t286.5 -58.5t235.5 -157.5t157 -236.5t58 -288.5q0 -202 -98.5 -372.5t-268 -270t-370.5 -99.5zM891 168q149 0 273.5 72t197 198t72.5 279t-70 279t-192.5 198
t-270.5 72t-270.5 -72t-192 -198t-69.5 -279q0 -154 67 -279.5t187 -197.5t268 -72zM623 307v819h288q306 0 306 -270q0 -191 -142 -248l139 -301h-194l-111 279h-102v-279h-184zM807 750h104q60 0 86.5 25t26.5 81q0 57 -26.5 82t-86.5 25h-104v-213z" />
    <glyph glyph-name="macron" unicode="&#xaf;" 
d="M51 1276v172h717v-172h-717z" />
    <glyph glyph-name="degree" unicode="&#xb0;" horiz-adv-x="778" 
d="M389 856q-134 3 -216 84.5t-85 214.5q3 132 85 213t216 84q134 -3 216 -84t85 -213q-3 -133 -85 -214.5t-216 -84.5zM391 1030q53 0 86 34t33 91q0 55 -33 89t-86 34q-55 0 -89 -34t-34 -89q0 -57 33.5 -91t89.5 -34z" />
    <glyph glyph-name="plusminus" unicode="&#xb1;" horiz-adv-x="1187" 
d="M440 492v266h-379v307h379v266h308v-266h378v-307h-378v-266h-308zM61 123v307h1065v-307h-1065z" />
    <glyph glyph-name="twosuperior" unicode="&#xb2;" 
d="M66 573v185q210 159 292 246.5t82 160.5q0 95 -118 95q-109 0 -232 -52v201q152 49 316 49q168 0 253.5 -68.5t85.5 -179.5q0 -57 -23 -113.5t-69 -111.5t-93 -100.5t-116 -102.5h297v-209h-675z" />
    <glyph glyph-name="threesuperior" unicode="&#xb3;" 
d="M311 549q-158 0 -262 29v217q106 -50 236 -50q26 0 52 3t58.5 11.5t52.5 28t19 48.5q-2 79 -162 79h-104v172h112q67 0 103.5 25t36.5 66q0 84 -160 84q-121 -3 -213 -45v204q118 37 285 37q370 0 370 -229q0 -78 -45 -131.5t-129 -73.5v-4q193 -31 193 -195
q0 -74 -38.5 -129.5t-104 -86.5t-140.5 -45.5t-160 -14.5z" />
    <glyph glyph-name="acute" unicode="&#xb4;" 
d="M274 1208l140 328h381l-263 -328h-258z" />
    <glyph glyph-name="uni00B5" unicode="&#xb5;" horiz-adv-x="1228" 
d="M117 -430v1509h389v-551q0 -104 22 -155t74 -51q32 0 54.5 12.5t35.5 33t20 57t9 74t2 95.5v485h389v-1079h-356v207h-4q-20 -92 -71.5 -153.5t-137.5 -61.5q-19 0 -29 2l-4 -4v-420h-393z" />
    <glyph glyph-name="paragraph" unicode="&#xb6;" horiz-adv-x="1372" 
d="M324 -287v1004h-43q-136 0 -232 105t-96 253q0 149 96 254t232 105h962v-1721h-389v1434h-141v-1434h-389z" />
    <glyph glyph-name="periodcentered" unicode="&#xb7;" horiz-adv-x="573" 
d="M115 557v332h344v-332h-344z" />
    <glyph glyph-name="cedilla" unicode="&#xb8;" 
d="M395 -401q-95 0 -166 53l45 104q43 -37 93 -37q33 0 53 16.5t20 43.5t-21.5 43t-62.5 16q-24 0 -55 -8l51 190h127l-22 -94q53 -2 94 -40t41 -109q0 -78 -53.5 -128t-143.5 -50z" />
    <glyph glyph-name="onesuperior" unicode="&#xb9;" 
d="M100 782h191v381l-154 -84l-106 181l284 174h232v-652h162v-209h-609v209z" />
    <glyph glyph-name="ordmasculine" unicode="&#xba;" 
d="M410 549q-363 0 -369 450q6 459 369 459q362 0 368 -459q-6 -450 -368 -450zM410 764q47 0 69.5 56.5t22.5 178.5q0 126 -22.5 186.5t-69.5 63.5q-93 -6 -93 -250q0 -122 22.5 -178.5t70.5 -56.5z" />
    <glyph glyph-name="guillemotright" unicode="&#xbb;" horiz-adv-x="1136" 
d="M604 614l-244 -419h-303l226 419l-226 418h303zM1092 614l-244 -419h-303l225 419l-225 418h303z" />
    <glyph glyph-name="onequarter" unicode="&#xbc;" horiz-adv-x="1843" 
d="M291 573v590l-154 -84l-106 181l284 174h232v-861h-256zM1470 -6v143h-421v209l346 508h334v-532h77v-185h-77v-143h-259zM1268 322h202v294h-4zM301 0l991 1434h262l-991 -1434h-262z" />
    <glyph glyph-name="onehalf" unicode="&#xbd;" horiz-adv-x="1843" 
d="M291 573v590l-154 -84l-106 181l284 174h232v-861h-256zM227 0l992 1434h262l-992 -1434h-262zM1106 -4v184q210 159 292.5 247t82.5 161q0 94 -119 94q-111 0 -232 -51v200q155 50 316 50q168 0 254 -68.5t86 -179.5q0 -57 -23 -113.5t-69 -111.5t-93 -100.5
t-116 -102.5h297v-209h-676z" />
    <glyph glyph-name="threequarters" unicode="&#xbe;" horiz-adv-x="1843" 
d="M311 549q-158 0 -262 29v217q106 -50 236 -50q26 0 52 3t58.5 11.5t52.5 28t19 48.5q-2 79 -162 79h-104v172h112q67 0 103.5 25t36.5 66q0 84 -160 84q-121 -3 -213 -45v204q118 37 285 37q370 0 370 -229q0 -78 -45 -131.5t-129 -73.5v-4q193 -31 193 -195
q0 -74 -38.5 -129.5t-104 -86.5t-140.5 -45.5t-160 -14.5zM1470 -6v143h-421v209l346 508h334v-532h77v-185h-77v-143h-259zM1268 322h202v294h-4zM371 0l991 1434h262l-991 -1434h-262z" />
    <glyph glyph-name="questiondown" unicode="&#xbf;" horiz-adv-x="1024" 
d="M670 580q1 -71 -22.5 -137t-57 -117t-67.5 -98.5t-57.5 -100t-23.5 -102.5q0 -146 189 -146q129 0 248 80v-291q-174 -59 -349 -59q-102 0 -180.5 16t-142.5 53.5t-98.5 105t-34.5 163.5q0 82 28 150.5t69 119.5t83 100.5t75.5 117t41.5 145.5h299zM692 1067v-332h-344
v332h344z" />
    <glyph glyph-name="Agrave" unicode="&#xc0;" horiz-adv-x="1413" 
d="M10 0l461 1434h471l461 -1434h-428l-76 270h-407l-74 -270h-408zM696 1001l-127 -454h254zM592 1520l-246 282h381l123 -282h-258z" />
    <glyph glyph-name="Aacute" unicode="&#xc1;" horiz-adv-x="1413" 
d="M10 0l461 1434h471l461 -1434h-428l-76 270h-407l-74 -270h-408zM696 1001l-127 -454h254zM584 1520l123 282h380l-245 -282h-258z" />
    <glyph glyph-name="Acircumflex" unicode="&#xc2;" horiz-adv-x="1413" 
d="M10 0l461 1434h471l461 -1434h-428l-76 270h-407l-74 -270h-408zM696 1001l-127 -454h254zM293 1516l244 286h348l235 -286h-282l-127 165l-138 -165h-280z" />
    <glyph glyph-name="Atilde" unicode="&#xc3;" horiz-adv-x="1413" 
d="M10 0l461 1434h471l461 -1434h-428l-76 270h-407l-74 -270h-408zM696 1001l-127 -454h254zM289 1520q13 122 83 198t187 76q57 0 160 -40t147 -40q8 0 17 2t24 8.5t26.5 23.5t14.5 42h176q-12 -128 -84 -203.5t-190 -75.5q-53 0 -158 42t-147 42q-36 0 -56.5 -21
t-23.5 -54h-176z" />
    <glyph glyph-name="Adieresis" unicode="&#xc4;" horiz-adv-x="1413" 
d="M10 0l461 1434h471l461 -1434h-428l-76 270h-407l-74 -270h-408zM696 1001l-127 -454h254zM307 1516v286h307v-286h-307zM799 1516v286h307v-286h-307z" />
    <glyph glyph-name="Aring" unicode="&#xc5;" horiz-adv-x="1413" 
d="M10 0l461 1434h471l461 -1434h-428l-76 270h-407l-74 -270h-408zM696 1001l-127 -454h254zM707 1454q-101 0 -166.5 64.5t-65.5 164.5t65.5 165t166.5 65t166 -65t65 -165t-65 -164.5t-166 -64.5zM707 1579q42 0 71 30.5t29 73.5t-29 74t-71 31t-71.5 -31t-29.5 -74
t29.5 -73.5t71.5 -30.5z" />
    <glyph glyph-name="AE" unicode="&#xc6;" horiz-adv-x="1832" 
d="M-20 0l696 1434h1063v-328h-475l8 -209h418v-328h-404l12 -241h453v-328h-823l-10 270h-369l-121 -270h-448zM885 1026l-213 -479h235l-18 479h-4z" />
    <glyph glyph-name="Ccedilla" unicode="&#xc7;" horiz-adv-x="1290" 
d="M743 -455q-110 0 -188 60l51 116q49 -40 105 -40q38 0 60 18.5t22 48.5q0 31 -24 49.5t-71 18.5q-27 0 -61 -11l49 185q-153 24 -270 89t-190 161t-109.5 215.5t-36.5 259.5q0 186 58 329.5t162.5 233t244 135t309.5 45.5q86 0 170 -14t125 -28l41 -15v-326
q-145 68 -309 68q-177 0 -283 -106.5t-106 -325.5q0 -112 30.5 -194.5t86.5 -130.5t128 -70.5t162 -22.5q150 0 291 43v-303q-168 -58 -313 -58q-36 0 -52 2l-14 -63q61 -2 107.5 -45t46.5 -123q0 -89 -60.5 -145t-161.5 -56z" />
    <glyph glyph-name="Egrave" unicode="&#xc8;" horiz-adv-x="1105" 
d="M129 0v1434h881v-328h-488v-209h441v-328h-441v-241h502v-328h-895zM471 1520l-246 282h381l123 -282h-258z" />
    <glyph glyph-name="Eacute" unicode="&#xc9;" horiz-adv-x="1105" 
d="M129 0v1434h881v-328h-488v-209h441v-328h-441v-241h502v-328h-895zM463 1520l123 282h381l-246 -282h-258z" />
    <glyph glyph-name="Ecircumflex" unicode="&#xca;" horiz-adv-x="1105" 
d="M129 0v1434h881v-328h-488v-209h441v-328h-441v-241h502v-328h-895zM172 1516l244 286h348l235 -286h-282l-127 165l-137 -165h-281z" />
    <glyph glyph-name="Edieresis" unicode="&#xcb;" horiz-adv-x="1105" 
d="M129 0v1434h881v-328h-488v-209h441v-328h-441v-241h502v-328h-895zM186 1516v286h308v-286h-308zM678 1516v286h307v-286h-307z" />
    <glyph glyph-name="Igrave" unicode="&#xcc;" horiz-adv-x="634" 
d="M119 0v1434h397v-1434h-397zM203 1520l-246 282h381l123 -282h-258z" />
    <glyph glyph-name="Iacute" unicode="&#xcd;" horiz-adv-x="634" 
d="M119 0v1434h397v-1434h-397zM195 1520l122 282h381l-245 -282h-258z" />
    <glyph glyph-name="Icircumflex" unicode="&#xce;" horiz-adv-x="634" 
d="M119 0v1434h397v-1434h-397zM-35 1516l182 286h349l174 -286h-271l-77 151l-86 -151h-271z" />
    <glyph glyph-name="Idieresis" unicode="&#xcf;" horiz-adv-x="634" 
d="M119 0v1434h397v-1434h-397zM-10 1516v286h276v-286h-276zM369 1516v286h276v-286h-276z" />
    <glyph glyph-name="Eth" unicode="&#xd0;" horiz-adv-x="1474" 
d="M129 0v631h-109v213h109v590h514q141 0 254 -22.5t207.5 -74.5t157.5 -133.5t98 -202.5t35 -278q0 -192 -54.5 -333.5t-156 -225.5t-236 -124t-305.5 -40h-514zM526 287h125q159 0 244.5 108.5t85.5 321.5q0 211 -86.5 320.5t-243.5 109.5h-125v-303h330v-213h-330v-344z
" />
    <glyph glyph-name="Ntilde" unicode="&#xd1;" horiz-adv-x="1495" 
d="M129 0v1434h498l383 -914h4l-6 170v744h358v-1434h-465l-416 942h-4l6 -166v-776h-358zM375 1520q13 122 83 198t187 76q57 0 160 -40t147 -40q8 0 17 2t24 8.5t26.5 23.5t14.5 42h176q-12 -128 -84 -203.5t-190 -75.5q-53 0 -158 42t-147 42q-36 0 -56.5 -21t-23.5 -54
h-176z" />
    <glyph glyph-name="Ograve" unicode="&#xd2;" horiz-adv-x="1536" 
d="M768 -25q-335 0 -511.5 194.5t-176.5 547.5q0 355 178 548t510 193q335 0 511.5 -194t176.5 -547q0 -355 -178 -548.5t-510 -193.5zM768 283q72 0 126 34t85.5 95t47 137.5t15.5 167.5q0 94 -16 171t-48.5 137t-86 93t-123.5 33q-72 0 -126 -34t-85.5 -95t-47 -137.5
t-15.5 -167.5q0 -94 16 -171t48.5 -137t86 -93t123.5 -33zM653 1520l-245 282h380l123 -282h-258z" />
    <glyph glyph-name="Oacute" unicode="&#xd3;" horiz-adv-x="1536" 
d="M768 -25q-335 0 -511.5 194.5t-176.5 547.5q0 355 178 548t510 193q335 0 511.5 -194t176.5 -547q0 -355 -178 -548.5t-510 -193.5zM768 283q72 0 126 34t85.5 95t47 137.5t15.5 167.5q0 94 -16 171t-48.5 137t-86 93t-123.5 33q-72 0 -126 -34t-85.5 -95t-47 -137.5
t-15.5 -167.5q0 -94 16 -171t48.5 -137t86 -93t123.5 -33zM645 1520l123 282h381l-246 -282h-258z" />
    <glyph glyph-name="Ocircumflex" unicode="&#xd4;" horiz-adv-x="1536" 
d="M768 -25q-335 0 -511.5 194.5t-176.5 547.5q0 355 178 548t510 193q335 0 511.5 -194t176.5 -547q0 -355 -178 -548.5t-510 -193.5zM768 283q72 0 126 34t85.5 95t47 137.5t15.5 167.5q0 94 -16 171t-48.5 137t-86 93t-123.5 33q-72 0 -126 -34t-85.5 -95t-47 -137.5
t-15.5 -167.5q0 -94 16 -171t48.5 -137t86 -93t123.5 -33zM354 1516l244 286h348l236 -286h-283l-127 165l-137 -165h-281z" />
    <glyph glyph-name="Otilde" unicode="&#xd5;" horiz-adv-x="1536" 
d="M768 -25q-335 0 -511.5 194.5t-176.5 547.5q0 355 178 548t510 193q335 0 511.5 -194t176.5 -547q0 -355 -178 -548.5t-510 -193.5zM768 283q72 0 126 34t85.5 95t47 137.5t15.5 167.5q0 94 -16 171t-48.5 137t-86 93t-123.5 33q-72 0 -126 -34t-85.5 -95t-47 -137.5
t-15.5 -167.5q0 -94 16 -171t48.5 -137t86 -93t123.5 -33zM350 1520q13 122 83.5 198t187.5 76q57 0 160 -40t147 -40q8 0 17 2t24 8.5t26.5 23.5t14.5 42h176q-12 -128 -84.5 -203.5t-190.5 -75.5q-53 0 -158 42t-147 42q-36 0 -56.5 -21t-23.5 -54h-176z" />
    <glyph glyph-name="Odieresis" unicode="&#xd6;" horiz-adv-x="1536" 
d="M768 -25q-335 0 -511.5 194.5t-176.5 547.5q0 355 178 548t510 193q335 0 511.5 -194t176.5 -547q0 -355 -178 -548.5t-510 -193.5zM768 283q72 0 126 34t85.5 95t47 137.5t15.5 167.5q0 94 -16 171t-48.5 137t-86 93t-123.5 33q-72 0 -126 -34t-85.5 -95t-47 -137.5
t-15.5 -167.5q0 -94 16 -171t48.5 -137t86 -93t123.5 -33zM369 1516v286h307v-286h-307zM860 1516v286h307v-286h-307z" />
    <glyph glyph-name="multiply" unicode="&#xd7;" horiz-adv-x="1187" 
d="M268 188l-202 203l321 322l-321 321l210 211l322 -321l322 321l202 -203l-321 -321l321 -322l-211 -211l-321 322z" />
    <glyph glyph-name="Oslash" unicode="&#xd8;" horiz-adv-x="1536" 
d="M768 -25q-281 0 -451 138l-167 -179l-119 113l174 186q-125 187 -125 484q0 355 178 548t510 193q276 0 449 -137l167 178l121 -113l-176 -188q127 -186 127 -481q0 -355 -178 -548.5t-510 -193.5zM494 717q0 -87 12 -160l457 490q-68 104 -195 104q-72 0 -126 -34
t-85.5 -95t-47 -137.5t-15.5 -167.5zM768 283q72 0 126 34t85.5 95t47 137.5t15.5 167.5q0 88 -14 157l-457 -489q73 -102 197 -102z" />
    <glyph glyph-name="Ugrave" unicode="&#xd9;" horiz-adv-x="1474" 
d="M737 -25q-288 0 -450 143t-162 427v889h397v-826q0 -71 10 -126t33 -102t66.5 -72t105.5 -25q63 0 107 26t66.5 74.5t32 102t9.5 122.5v826h398v-889q0 -285 -162.5 -427.5t-450.5 -142.5zM623 1520l-246 282h381l123 -282h-258z" />
    <glyph glyph-name="Uacute" unicode="&#xda;" horiz-adv-x="1474" 
d="M737 -25q-288 0 -450 143t-162 427v889h397v-826q0 -71 10 -126t33 -102t66.5 -72t105.5 -25q63 0 107 26t66.5 74.5t32 102t9.5 122.5v826h398v-889q0 -285 -162.5 -427.5t-450.5 -142.5zM614 1520l123 282h381l-246 -282h-258z" />
    <glyph glyph-name="Ucircumflex" unicode="&#xdb;" horiz-adv-x="1474" 
d="M737 -25q-288 0 -450 143t-162 427v889h397v-826q0 -71 10 -126t33 -102t66.5 -72t105.5 -25q63 0 107 26t66.5 74.5t32 102t9.5 122.5v826h398v-889q0 -285 -162.5 -427.5t-450.5 -142.5zM324 1516l243 286h348l236 -286h-283l-127 165l-137 -165h-280z" />
    <glyph glyph-name="Udieresis" unicode="&#xdc;" horiz-adv-x="1474" 
d="M737 -25q-288 0 -450 143t-162 427v889h397v-826q0 -71 10 -126t33 -102t66.5 -72t105.5 -25q63 0 107 26t66.5 74.5t32 102t9.5 122.5v826h398v-889q0 -285 -162.5 -427.5t-450.5 -142.5zM338 1516v286h307v-286h-307zM829 1516v286h308v-286h-308z" />
    <glyph glyph-name="Yacute" unicode="&#xdd;" horiz-adv-x="1331" 
d="M-6 1434h432l238 -543h2l239 543h432l-473 -924v-510h-397v510zM543 1520l123 282h381l-246 -282h-258z" />
    <glyph glyph-name="Thorn" unicode="&#xde;" horiz-adv-x="1228" 
d="M129 0v1434h397v-201h84q289 0 430.5 -117t141.5 -373q0 -238 -135 -368.5t-408 -130.5h-113v-244h-397zM526 530h90q84 0 127 50t43 165q0 111 -40.5 156t-129.5 45h-90v-416z" />
    <glyph glyph-name="germandbls" unicode="&#xdf;" horiz-adv-x="1280" 
d="M756 -25q-73 0 -162 13v270q56 -12 96 -12q79 0 128.5 55.5t49.5 169.5q-4 108 -51 155.5t-133 47.5q-29 0 -45 -2v248h16q154 0 154 196q0 96 -40.5 142.5t-111.5 46.5q-40 0 -69.5 -14.5t-46.5 -38t-27.5 -59.5t-14 -72t-3.5 -83v-1038h-379v1012q0 276 133.5 413.5
t411.5 137.5q109 0 200 -24t163.5 -72.5t113.5 -131.5t41 -192q0 -126 -60 -208t-180 -130v-4q146 -44 220.5 -136.5t74.5 -242.5q0 -218 -129.5 -332.5t-349.5 -114.5z" />
    <glyph glyph-name="agrave" unicode="&#xe0;" horiz-adv-x="1142" 
d="M371 -25q-65 0 -122.5 20t-103.5 59.5t-73 104.5t-27 148q0 85 28.5 149t75 102.5t114.5 62.5t137 32.5t153 8.5h115v14q0 151 -207 151q-150 0 -318 -43v269q198 45 392 45q113 0 204 -23t162.5 -71.5t110.5 -132.5t39 -199v-672h-357v168h-6q-47 -91 -131.5 -142
t-185.5 -51zM518 219q59 0 104.5 70.5t45.5 150.5v35h-76q-73 0 -118.5 -39.5t-45.5 -107.5q0 -53 27 -81t63 -28zM453 1208l-207 328h381l84 -328h-258z" />
    <glyph glyph-name="aacute" unicode="&#xe1;" horiz-adv-x="1142" 
d="M371 -25q-65 0 -122.5 20t-103.5 59.5t-73 104.5t-27 148q0 85 28.5 149t75 102.5t114.5 62.5t137 32.5t153 8.5h115v14q0 151 -207 151q-150 0 -318 -43v269q198 45 392 45q113 0 204 -23t162.5 -71.5t110.5 -132.5t39 -199v-672h-357v168h-6q-47 -91 -131.5 -142
t-185.5 -51zM518 219q59 0 104.5 70.5t45.5 150.5v35h-76q-73 0 -118.5 -39.5t-45.5 -107.5q0 -53 27 -81t63 -28zM432 1208l139 328h381l-262 -328h-258z" />
    <glyph glyph-name="acircumflex" unicode="&#xe2;" horiz-adv-x="1142" 
d="M371 -25q-65 0 -122.5 20t-103.5 59.5t-73 104.5t-27 148q0 85 28.5 149t75 102.5t114.5 62.5t137 32.5t153 8.5h115v14q0 151 -207 151q-150 0 -318 -43v269q198 45 392 45q113 0 204 -23t162.5 -71.5t110.5 -132.5t39 -199v-672h-357v168h-6q-47 -91 -131.5 -142
t-185.5 -51zM518 219q59 0 104.5 70.5t45.5 150.5v35h-76q-73 0 -118.5 -39.5t-45.5 -107.5q0 -53 27 -81t63 -28zM174 1208l232 328h331l224 -328h-252l-138 185l-147 -185h-250z" />
    <glyph glyph-name="atilde" unicode="&#xe3;" horiz-adv-x="1142" 
d="M371 -25q-65 0 -122.5 20t-103.5 59.5t-73 104.5t-27 148q0 85 28.5 149t75 102.5t114.5 62.5t137 32.5t153 8.5h115v14q0 151 -207 151q-150 0 -318 -43v269q198 45 392 45q113 0 204 -23t162.5 -71.5t110.5 -132.5t39 -199v-672h-357v168h-6q-47 -91 -131.5 -142
t-185.5 -51zM518 219q59 0 104.5 70.5t45.5 150.5v35h-76q-73 0 -118.5 -39.5t-45.5 -107.5q0 -53 27 -81t63 -28zM166 1241q13 128 79 210.5t177 82.5q69 0 166 -41q2 -1 32 -13.5t52 -18t47 -5.5q88 0 102 80h148q-11 -129 -79 -211t-181 -82q-46 0 -148 37
q-12 5 -33.5 13t-32 11.5t-26 8t-28.5 6.5t-27 2q-43 0 -68.5 -22t-30.5 -58h-149z" />
    <glyph glyph-name="adieresis" unicode="&#xe4;" horiz-adv-x="1142" 
d="M371 -25q-65 0 -122.5 20t-103.5 59.5t-73 104.5t-27 148q0 85 28.5 149t75 102.5t114.5 62.5t137 32.5t153 8.5h115v14q0 151 -207 151q-150 0 -318 -43v269q198 45 392 45q113 0 204 -23t162.5 -71.5t110.5 -132.5t39 -199v-672h-357v168h-6q-47 -91 -131.5 -142
t-185.5 -51zM518 219q59 0 104.5 70.5t45.5 150.5v35h-76q-73 0 -118.5 -39.5t-45.5 -107.5q0 -53 27 -81t63 -28zM653 1241v270h295v-270h-295zM186 1241v270h295v-270h-295z" />
    <glyph glyph-name="aring" unicode="&#xe5;" horiz-adv-x="1142" 
d="M371 -25q-65 0 -122.5 20t-103.5 59.5t-73 104.5t-27 148q0 85 28.5 149t75 102.5t114.5 62.5t137 32.5t153 8.5h115v14q0 151 -207 151q-150 0 -318 -43v269q198 45 392 45q113 0 204 -23t162.5 -71.5t110.5 -132.5t39 -199v-672h-357v168h-6q-47 -91 -131.5 -142
t-185.5 -51zM518 219q59 0 104.5 70.5t45.5 150.5v35h-76q-73 0 -118.5 -39.5t-45.5 -107.5q0 -53 27 -81t63 -28zM567 1159q-100 0 -164.5 65t-64.5 165t64.5 164.5t164.5 64.5t165 -64.5t65 -164.5t-65 -165t-165 -65zM567 1290q41 0 70 29t29 70t-29 69.5t-70 28.5
t-69.5 -28.5t-28.5 -69.5t28.5 -70t69.5 -29z" />
    <glyph glyph-name="ae" unicode="&#xe6;" horiz-adv-x="1812" 
d="M498 1098q133 0 228.5 -30.5t166.5 -102.5h8q127 133 342 133q244 0 369 -158t125 -432v-64h-645q15 -104 77 -154t185 -50q117 0 321 39v-254q-64 -19 -166.5 -34.5t-195.5 -15.5q-157 0 -278 52t-187 147h-8q-65 -76 -145.5 -123t-144 -61.5t-128.5 -14.5
q-76 0 -142.5 20t-119.5 59.5t-84 104.5t-31 148q0 82 30.5 144t79 99t119.5 60t142 31t157 8h127v27q0 46 -24.5 78.5t-65 48t-80 22t-81.5 6.5q-138 0 -306 -53v266q186 54 355 54zM526 211q65 0 119.5 56t54.5 163v14h-86q-52 0 -95 -11t-74 -41.5t-31 -76.5
q0 -53 34.5 -78.5t77.5 -25.5zM1245 860q-128 0 -155 -211h292q5 92 -31.5 151.5t-105.5 59.5z" />
    <glyph glyph-name="ccedilla" unicode="&#xe7;" horiz-adv-x="993" 
d="M545 -401q-95 0 -166 53l45 104q43 -37 92 -37q33 0 53.5 16.5t20.5 43.5t-21.5 43t-62.5 16q-24 0 -55 -8l43 162q-202 38 -315 180t-113 360q0 255 150.5 410.5t422.5 155.5q164 0 262 -29v-281q-116 27 -182 27q-131 0 -194.5 -64.5t-63.5 -209.5q0 -81 21.5 -137.5
t61.5 -87t87.5 -43.5t109.5 -13q63 0 170 29v-285q-128 -29 -262 -29h-31l-12 -49q53 -2 94 -40t41 -109q0 -78 -53 -128t-143 -50z" />
    <glyph glyph-name="egrave" unicode="&#xe8;" horiz-adv-x="1177" 
d="M1102 426h-639q21 -101 80.5 -143.5t167.5 -42.5q125 0 329 39v-254q-64 -19 -166.5 -34.5t-199.5 -15.5q-290 0 -449 151.5t-159 412.5q0 257 146.5 408t393.5 151t371.5 -160t124.5 -444v-68zM608 854q-131 0 -153 -219h293q5 96 -32.5 157.5t-107.5 61.5zM481 1208
l-207 328h381l84 -328h-258z" />
    <glyph glyph-name="eacute" unicode="&#xe9;" horiz-adv-x="1177" 
d="M1102 426h-639q21 -101 80.5 -143.5t167.5 -42.5q125 0 329 39v-254q-64 -19 -166.5 -34.5t-199.5 -15.5q-290 0 -449 151.5t-159 412.5q0 257 146.5 408t393.5 151t371.5 -160t124.5 -444v-68zM608 854q-131 0 -153 -219h293q5 96 -32.5 157.5t-107.5 61.5zM461 1208
l139 328h381l-262 -328h-258z" />
    <glyph glyph-name="ecircumflex" unicode="&#xea;" horiz-adv-x="1177" 
d="M1102 426h-639q21 -101 80.5 -143.5t167.5 -42.5q125 0 329 39v-254q-64 -19 -166.5 -34.5t-199.5 -15.5q-290 0 -449 151.5t-159 412.5q0 257 146.5 408t393.5 151t371.5 -160t124.5 -444v-68zM608 854q-131 0 -153 -219h293q5 96 -32.5 157.5t-107.5 61.5zM203 1208
l231 328h332l223 -328h-252l-137 185l-147 -185h-250z" />
    <glyph glyph-name="edieresis" unicode="&#xeb;" horiz-adv-x="1177" 
d="M1102 426h-639q21 -101 80.5 -143.5t167.5 -42.5q125 0 329 39v-254q-64 -19 -166.5 -34.5t-199.5 -15.5q-290 0 -449 151.5t-159 412.5q0 257 146.5 408t393.5 151t371.5 -160t124.5 -444v-68zM608 854q-131 0 -153 -219h293q5 96 -32.5 157.5t-107.5 61.5zM682 1241
v270h295v-270h-295zM215 1241v270h295v-270h-295z" />
    <glyph glyph-name="igrave" unicode="&#xec;" horiz-adv-x="593" 
d="M102 0v1079h390v-1079h-390zM182 1208l-207 328h381l84 -328h-258z" />
    <glyph glyph-name="iacute" unicode="&#xed;" horiz-adv-x="593" 
d="M102 0v1079h390v-1079h-390zM162 1208l139 328h381l-262 -328h-258z" />
    <glyph glyph-name="icircumflex" unicode="&#xee;" horiz-adv-x="593" 
d="M102 0v1079h390v-1079h-390zM-39 1208l174 328h332l166 -328h-246l-86 185l-94 -185h-246z" />
    <glyph glyph-name="idieresis" unicode="&#xef;" horiz-adv-x="593" 
d="M102 0v1079h390v-1079h-390zM336 1241v270h244v-270h-244zM14 1241v270h244v-270h-244z" />
    <glyph glyph-name="eth" unicode="&#xf0;" horiz-adv-x="1269" 
d="M618 -25q-120 0 -220 36t-174.5 104.5t-116 175t-41.5 241.5q0 79 17.5 155t54 145.5t88.5 122t126.5 83.5t161.5 31q94 0 185 -45.5t157 -153.5v45q0 127 -60.5 206.5t-179.5 127.5l-38 -145l-140 35l41 155q-59 15 -180 37l57 293q93 -10 205 -35l47 176l140 -34
l-50 -179q116 -39 202 -96t144 -128.5t94 -165.5t51 -198.5t15 -234.5q0 -142 -18.5 -256t-61.5 -208.5t-110 -157.5t-167 -97.5t-229 -34.5zM633 262q68 0 109.5 69t41.5 185q0 119 -43.5 192.5t-109.5 73.5q-76 0 -122 -72t-46 -192q0 -117 46 -186.5t124 -69.5z" />
    <glyph glyph-name="ntilde" unicode="&#xf1;" horiz-adv-x="1249" 
d="M117 0v1079h356v-188h4q143 207 342 207q163 0 250.5 -120t87.5 -319v-659h-389v551q0 104 -27 155.5t-92 51.5q-75 0 -109 -69.5t-34 -203.5v-485h-389zM213 1241q13 128 79 210.5t177 82.5q69 0 166 -41q2 -1 32 -13.5t52 -18t47 -5.5q88 0 102 80h148
q-11 -129 -79 -211t-181 -82q-46 0 -148 37q-12 5 -33.5 13t-32 11.5t-26 8t-28.5 6.5t-27 2q-43 0 -68.5 -22t-30.5 -58h-149z" />
    <glyph glyph-name="ograve" unicode="&#xf2;" horiz-adv-x="1269" 
d="M635 -25q-257 0 -413 151t-156 406q0 259 159 412.5t410 153.5q253 0 411 -154.5t158 -411.5q0 -258 -156.5 -407.5t-412.5 -149.5zM635 242q84 0 128 80.5t44 209.5q0 135 -45 217t-127 82q-84 0 -128 -83.5t-44 -215.5t44.5 -211t127.5 -79zM520 1208l-207 328h381
l84 -328h-258z" />
    <glyph glyph-name="oacute" unicode="&#xf3;" horiz-adv-x="1269" 
d="M635 -25q-257 0 -413 151t-156 406q0 259 159 412.5t410 153.5q253 0 411 -154.5t158 -411.5q0 -258 -156.5 -407.5t-412.5 -149.5zM635 242q84 0 128 80.5t44 209.5q0 135 -45 217t-127 82q-84 0 -128 -83.5t-44 -215.5t44.5 -211t127.5 -79zM500 1208l139 328h381
l-262 -328h-258z" />
    <glyph glyph-name="ocircumflex" unicode="&#xf4;" horiz-adv-x="1269" 
d="M635 -25q-257 0 -413 151t-156 406q0 259 159 412.5t410 153.5q253 0 411 -154.5t158 -411.5q0 -258 -156.5 -407.5t-412.5 -149.5zM635 242q84 0 128 80.5t44 209.5q0 135 -45 217t-127 82q-84 0 -128 -83.5t-44 -215.5t44.5 -211t127.5 -79zM242 1208l231 328h332
l223 -328h-252l-137 185l-147 -185h-250z" />
    <glyph glyph-name="otilde" unicode="&#xf5;" horiz-adv-x="1269" 
d="M635 -25q-257 0 -413 151t-156 406q0 259 159 412.5t410 153.5q253 0 411 -154.5t158 -411.5q0 -258 -156.5 -407.5t-412.5 -149.5zM635 242q84 0 128 80.5t44 209.5q0 135 -45 217t-127 82q-84 0 -128 -83.5t-44 -215.5t44.5 -211t127.5 -79zM233 1241q13 128 79 210.5
t177 82.5q69 0 166 -41q2 -1 32 -13.5t52 -18t47 -5.5q89 0 103 80h147q-11 -129 -79 -211t-181 -82q-45 0 -147 37q-12 4 -34 12.5t-32 12t-26 8.5t-29 6.5t-27 1.5q-43 0 -68 -21.5t-30 -58.5h-150z" />
    <glyph glyph-name="odieresis" unicode="&#xf6;" horiz-adv-x="1269" 
d="M635 -25q-257 0 -413 151t-156 406q0 259 159 412.5t410 153.5q253 0 411 -154.5t158 -411.5q0 -258 -156.5 -407.5t-412.5 -149.5zM635 242q84 0 128 80.5t44 209.5q0 135 -45 217t-127 82q-84 0 -128 -83.5t-44 -215.5t44.5 -211t127.5 -79zM721 1241v270h295v-270
h-295zM254 1241v270h295v-270h-295z" />
    <glyph glyph-name="divide" unicode="&#xf7;" horiz-adv-x="1187" 
d="M61 563v307h1065v-307h-1065zM594 96q-78 0 -134.5 56.5t-56.5 134.5t56.5 134t134.5 56t134 -56t56 -134t-56 -134.5t-134 -56.5zM594 956q-78 0 -134.5 56.5t-56.5 134.5t56.5 134t134.5 56t134 -56t56 -134t-56 -134.5t-134 -56.5z" />
    <glyph glyph-name="oslash" unicode="&#xf8;" horiz-adv-x="1269" 
d="M635 -25q-199 0 -342 95l-160 -172l-100 92l157 170q-124 146 -124 372q0 259 159 412.5t410 153.5q194 0 336 -94l164 178l102 -95l-162 -176q129 -151 129 -379q0 -258 -156.5 -407.5t-412.5 -149.5zM635 242q84 0 128 80.5t44 209.5q0 46 -6 86l-287 -309
q45 -67 121 -67zM463 532q0 -50 4 -73l285 307q-46 65 -117 65q-84 0 -128 -83.5t-44 -215.5z" />
    <glyph glyph-name="ugrave" unicode="&#xf9;" horiz-adv-x="1249" 
d="M1133 1079v-1079h-357v178h-4q-31 -44 -59.5 -76t-68 -63t-88.5 -47.5t-105 -16.5q-169 0 -264 122t-95 323v659h389v-551q0 -104 26.5 -155t90.5 -51q77 0 111 69t34 203v485h390zM500 1208l-207 328h381l84 -328h-258z" />
    <glyph glyph-name="uacute" unicode="&#xfa;" horiz-adv-x="1249" 
d="M1133 1079v-1079h-357v178h-4q-31 -44 -59.5 -76t-68 -63t-88.5 -47.5t-105 -16.5q-169 0 -264 122t-95 323v659h389v-551q0 -104 26.5 -155t90.5 -51q77 0 111 69t34 203v485h390zM479 1208l139 328h381l-262 -328h-258z" />
    <glyph glyph-name="ucircumflex" unicode="&#xfb;" horiz-adv-x="1249" 
d="M1133 1079v-1079h-357v178h-4q-31 -44 -59.5 -76t-68 -63t-88.5 -47.5t-105 -16.5q-169 0 -264 122t-95 323v659h389v-551q0 -104 26.5 -155t90.5 -51q77 0 111 69t34 203v485h390zM221 1208l232 328h331l224 -328h-252l-138 185l-147 -185h-250z" />
    <glyph glyph-name="udieresis" unicode="&#xfc;" horiz-adv-x="1249" 
d="M1133 1079v-1079h-357v178h-4q-31 -44 -59.5 -76t-68 -63t-88.5 -47.5t-105 -16.5q-169 0 -264 122t-95 323v659h389v-551q0 -104 26.5 -155t90.5 -51q77 0 111 69t34 203v485h390zM700 1241v270h295v-270h-295zM233 1241v270h295v-270h-295z" />
    <glyph glyph-name="yacute" unicode="&#xfd;" horiz-adv-x="1126" 
d="M297 -461q-67 0 -195 23v305q94 -12 113 -12q55 0 88.5 19.5t52.5 70.5l11 28l-353 1106h412l147 -659h2l154 659h383l-356 -1142q-65 -204 -176 -301t-283 -97zM436 1208l139 328h381l-262 -328h-258z" />
    <glyph glyph-name="thorn" unicode="&#xfe;" horiz-adv-x="1290" 
d="M506 -430h-389v1966h389v-608q51 75 128 122.5t177 47.5q128 0 223.5 -77.5t143 -202.5t47.5 -277q0 -253 -125 -409.5t-318 -156.5q-164 0 -272 121h-4v-526zM657 262q74 0 123 73.5t49 196.5q0 124 -49 198.5t-123 74.5t-121 -74.5t-47 -200.5q0 -123 47 -195.5
t121 -72.5z" />
    <glyph glyph-name="ydieresis" unicode="&#xff;" horiz-adv-x="1126" 
d="M297 -461q-67 0 -195 23v305q94 -12 113 -12q55 0 88.5 19.5t52.5 70.5l11 28l-353 1106h412l147 -659h2l154 659h383l-356 -1142q-65 -204 -176 -301t-283 -97zM657 1241v270h295v-270h-295zM190 1241v270h295v-270h-295z" />
    <glyph glyph-name="Amacron" unicode="&#x100;" horiz-adv-x="1413" 
d="M10 0l461 1434h471l461 -1434h-428l-76 270h-407l-74 -270h-408zM696 1001l-127 -454h254zM348 1591v172h717v-172h-717z" />
    <glyph glyph-name="amacron" unicode="&#x101;" horiz-adv-x="1142" 
d="M371 -25q-65 0 -122.5 20t-103.5 59.5t-73 104.5t-27 148q0 85 28.5 149t75 102.5t114.5 62.5t137 32.5t153 8.5h115v14q0 151 -207 151q-150 0 -318 -43v269q198 45 392 45q113 0 204 -23t162.5 -71.5t110.5 -132.5t39 -199v-672h-357v168h-6q-47 -91 -131.5 -142
t-185.5 -51zM518 219q59 0 104.5 70.5t45.5 150.5v35h-76q-73 0 -118.5 -39.5t-45.5 -107.5q0 -53 27 -81t63 -28zM209 1276v172h717v-172h-717z" />
    <glyph glyph-name="Abreve" unicode="&#x102;" horiz-adv-x="1413" 
d="M10 0l461 1434h471l461 -1434h-428l-76 270h-407l-74 -270h-408zM696 1001l-127 -454h254zM707 1505q-177 0 -289 73.5t-125 223.5h196q14 -69 66.5 -91.5t151.5 -22.5q100 0 152 24t65 90h196q-13 -151 -125.5 -224t-287.5 -73z" />
    <glyph glyph-name="abreve" unicode="&#x103;" horiz-adv-x="1142" 
d="M371 -25q-65 0 -122.5 20t-103.5 59.5t-73 104.5t-27 148q0 85 28.5 149t75 102.5t114.5 62.5t137 32.5t153 8.5h115v14q0 151 -207 151q-150 0 -318 -43v269q198 45 392 45q113 0 204 -23t162.5 -71.5t110.5 -132.5t39 -199v-672h-357v168h-6q-47 -91 -131.5 -142
t-185.5 -51zM518 219q59 0 104.5 70.5t45.5 150.5v35h-76q-73 0 -118.5 -39.5t-45.5 -107.5q0 -53 27 -81t63 -28zM567 1198q-176 0 -278 90.5t-111 247.5h184q15 -73 70 -113.5t135 -40.5q85 0 138 41t67 113h184q-9 -159 -112 -248.5t-277 -89.5z" />
    <glyph glyph-name="Aogonek" unicode="&#x104;" horiz-adv-x="1413" 
d="M1212 -455q-95 0 -146.5 48t-51.5 131q0 154 174 276h-213l-76 270h-407l-74 -270h-408l461 1434h471l461 -1434q-205 -127 -205 -225q0 -66 74 -66q45 0 98 29l33 -141q-91 -52 -191 -52zM696 1001l-127 -454h254z" />
    <glyph glyph-name="aogonek" unicode="&#x105;" horiz-adv-x="1142" 
d="M860 -455q-95 0 -146.5 48t-51.5 131q0 154 174 276h-142v168h-6q-47 -91 -131.5 -142t-185.5 -51q-65 0 -122.5 20t-103.5 59.5t-73 104.5t-27 148q0 85 28.5 149t75 102.5t114.5 62.5t137 32.5t153 8.5h115v14q0 151 -207 151q-150 0 -318 -43v269q198 45 392 45
q113 0 204 -23t162.5 -71.5t110.5 -132.5t39 -199v-672q-205 -127 -205 -225q0 -66 74 -66q45 0 98 29l33 -141q-91 -52 -191 -52zM518 219q59 0 104.5 70.5t45.5 150.5v35h-76q-73 0 -118.5 -39.5t-45.5 -107.5q0 -53 27 -81t63 -28z" />
    <glyph glyph-name="Cacute" unicode="&#x106;" horiz-adv-x="1290" 
d="M877 -25q-201 0 -355.5 56.5t-250 157.5t-143.5 233.5t-48 292.5q0 186 58 329.5t162.5 233t244 135t309.5 45.5q86 0 170 -14t125 -28l41 -15v-326q-145 68 -309 68q-177 0 -283 -106.5t-106 -325.5q0 -112 30.5 -194.5t86.5 -130.5t128 -70.5t162 -22.5q150 0 291 43
v-303q-168 -58 -313 -58zM666 1520l122 282h381l-245 -282h-258z" />
    <glyph glyph-name="cacute" unicode="&#x107;" horiz-adv-x="993" 
d="M649 -25q-270 0 -426.5 149.5t-156.5 407.5q0 255 150.5 410.5t422.5 155.5q164 0 262 -29v-281q-116 27 -182 27q-131 0 -194.5 -64.5t-63.5 -209.5q0 -81 21.5 -137.5t61.5 -87t87.5 -43.5t109.5 -13q63 0 170 29v-285q-128 -29 -262 -29zM408 1208l139 328h381
l-262 -328h-258z" />
    <glyph glyph-name="Ccircumflex" unicode="&#x108;" horiz-adv-x="1290" 
d="M877 -25q-201 0 -355.5 56.5t-250 157.5t-143.5 233.5t-48 292.5q0 186 58 329.5t162.5 233t244 135t309.5 45.5q86 0 170 -14t125 -28l41 -15v-326q-145 68 -309 68q-177 0 -283 -106.5t-106 -325.5q0 -112 30.5 -194.5t86.5 -130.5t128 -70.5t162 -22.5q150 0 291 43
v-303q-168 -58 -313 -58zM375 1516l243 286h349l235 -286h-282l-127 165l-138 -165h-280z" />
    <glyph glyph-name="ccircumflex" unicode="&#x109;" horiz-adv-x="993" 
d="M649 -25q-270 0 -426.5 149.5t-156.5 407.5q0 255 150.5 410.5t422.5 155.5q164 0 262 -29v-281q-116 27 -182 27q-131 0 -194.5 -64.5t-63.5 -209.5q0 -81 21.5 -137.5t61.5 -87t87.5 -43.5t109.5 -13q63 0 170 29v-285q-128 -29 -262 -29zM150 1208l231 328h332
l223 -328h-252l-137 185l-148 -185h-249z" />
    <glyph glyph-name="Cdotaccent" unicode="&#x10a;" horiz-adv-x="1290" 
d="M877 -25q-201 0 -355.5 56.5t-250 157.5t-143.5 233.5t-48 292.5q0 186 58 329.5t162.5 233t244 135t309.5 45.5q86 0 170 -14t125 -28l41 -15v-326q-145 68 -309 68q-177 0 -283 -106.5t-106 -325.5q0 -112 30.5 -194.5t86.5 -130.5t128 -70.5t162 -22.5q150 0 291 43
v-303q-168 -58 -313 -58zM598 1516v286h381v-286h-381z" />
    <glyph glyph-name="cdotaccent" unicode="&#x10b;" horiz-adv-x="993" 
d="M649 -25q-270 0 -426.5 149.5t-156.5 407.5q0 255 150.5 410.5t422.5 155.5q164 0 262 -29v-281q-116 27 -182 27q-131 0 -194.5 -64.5t-63.5 -209.5q0 -81 21.5 -137.5t61.5 -87t87.5 -43.5t109.5 -13q63 0 170 29v-285q-128 -29 -262 -29zM352 1241v270h381v-270h-381z
" />
    <glyph glyph-name="Ccaron" unicode="&#x10c;" horiz-adv-x="1290" 
d="M877 -25q-201 0 -355.5 56.5t-250 157.5t-143.5 233.5t-48 292.5q0 186 58 329.5t162.5 233t244 135t309.5 45.5q86 0 170 -14t125 -28l41 -15v-326q-145 68 -309 68q-177 0 -283 -106.5t-106 -325.5q0 -112 30.5 -194.5t86.5 -130.5t128 -70.5t162 -22.5q150 0 291 43
v-303q-168 -58 -313 -58zM610 1516l-235 286h291l118 -172l127 172h291l-244 -286h-348z" />
    <glyph glyph-name="ccaron" unicode="&#x10d;" horiz-adv-x="993" 
d="M649 -25q-270 0 -426.5 149.5t-156.5 407.5q0 255 150.5 410.5t422.5 155.5q164 0 262 -29v-281q-116 27 -182 27q-131 0 -194.5 -64.5t-63.5 -209.5q0 -81 21.5 -137.5t61.5 -87t87.5 -43.5t109.5 -13q63 0 170 29v-285q-128 -29 -262 -29zM373 1208l-223 328h245
l144 -184l151 184h246l-231 -328h-332z" />
    <glyph glyph-name="Dcaron" unicode="&#x10e;" horiz-adv-x="1474" 
d="M129 0v1434h514q141 0 254 -22.5t207.5 -74.5t157.5 -133.5t98 -202.5t35 -278q0 -192 -54.5 -333.5t-156 -225.5t-236 -124t-305.5 -40h-514zM526 287h125q159 0 244.5 108.5t85.5 321.5q0 211 -86.5 320.5t-243.5 109.5h-125v-860zM559 1516l-235 286h290l119 -172
l127 172h291l-244 -286h-348z" />
    <glyph glyph-name="dcaron" unicode="&#x10f;" horiz-adv-x="1310" 
d="M522 -25q-106 0 -193.5 45.5t-144 124t-87.5 180.5t-31 216q0 79 16.5 157t52.5 150.5t87 128t126 88.5t164 33q157 0 272 -115v553h390v-1536h-359v131q-100 -156 -293 -156zM629 262q76 0 125 72.5t49 195.5q0 125 -49.5 200t-124.5 75q-74 0 -120 -73.5t-46 -199.5
q0 -124 46 -197t120 -73zM1231 1147l94 389h348l-155 -389h-287z" />
    <glyph glyph-name="Dcroat" unicode="&#x110;" horiz-adv-x="1474" 
d="M129 0v631h-109v213h109v590h514q141 0 254 -22.5t207.5 -74.5t157.5 -133.5t98 -202.5t35 -278q0 -192 -54.5 -333.5t-156 -225.5t-236 -124t-305.5 -40h-514zM526 287h125q159 0 244.5 108.5t85.5 321.5q0 211 -86.5 320.5t-243.5 109.5h-125v-303h330v-213h-330v-344z
" />
    <glyph glyph-name="dcroat" unicode="&#x111;" horiz-adv-x="1290" 
d="M539 1237v156h245v143h390v-143h153v-156h-153v-1237h-359v131q-100 -156 -293 -156q-106 0 -193.5 45.5t-144 124t-87.5 180.5t-31 216q0 79 16.5 157t52.5 150.5t87 128t126 88.5t164 33q157 0 272 -115v254h-245zM629 262q76 0 125 72.5t49 195.5q0 125 -49.5 200
t-124.5 75q-74 0 -120 -73.5t-46 -199.5q0 -124 46 -197t120 -73z" />
    <glyph glyph-name="Emacron" unicode="&#x112;" horiz-adv-x="1105" 
d="M129 0v1434h881v-328h-488v-209h441v-328h-441v-241h502v-328h-895zM227 1591v172h717v-172h-717z" />
    <glyph glyph-name="emacron" unicode="&#x113;" horiz-adv-x="1177" 
d="M1102 426h-639q21 -101 80.5 -143.5t167.5 -42.5q125 0 329 39v-254q-64 -19 -166.5 -34.5t-199.5 -15.5q-290 0 -449 151.5t-159 412.5q0 257 146.5 408t393.5 151t371.5 -160t124.5 -444v-68zM608 854q-131 0 -153 -219h293q5 96 -32.5 157.5t-107.5 61.5zM238 1276
v172h716v-172h-716z" />
    <glyph glyph-name="Edotaccent" unicode="&#x116;" horiz-adv-x="1105" 
d="M129 0v1434h881v-328h-488v-209h441v-328h-441v-241h502v-328h-895zM395 1516v286h381v-286h-381z" />
    <glyph glyph-name="edotaccent" unicode="&#x117;" horiz-adv-x="1177" 
d="M1102 426h-639q21 -101 80.5 -143.5t167.5 -42.5q125 0 329 39v-254q-64 -19 -166.5 -34.5t-199.5 -15.5q-290 0 -449 151.5t-159 412.5q0 257 146.5 408t393.5 151t371.5 -160t124.5 -444v-68zM608 854q-131 0 -153 -219h293q5 96 -32.5 157.5t-107.5 61.5zM406 1241
v270h380v-270h-380z" />
    <glyph glyph-name="Eogonek" unicode="&#x118;" horiz-adv-x="1105" 
d="M129 0v1434h881v-328h-488v-209h441v-328h-441v-241h502v-328q-205 -127 -205 -225q0 -66 74 -66q45 0 98 29l33 -141q-91 -52 -190 -52q-95 0 -147 48t-52 131q0 154 174 276h-680z" />
    <glyph glyph-name="eogonek" unicode="&#x119;" horiz-adv-x="1177" 
d="M66 539q0 257 146.5 408t393.5 151t371.5 -160t124.5 -444v-68h-639q21 -101 80.5 -143.5t167.5 -42.5q125 0 329 39v-244q-204 -148 -204 -258q0 -68 73 -68q46 0 99 29l32 -141q-91 -52 -190 -52q-95 0 -147 48t-52 131q0 139 154 260q-65 -9 -131 -9
q-290 0 -449 151.5t-159 412.5zM457 635h291q5 98 -31 160.5t-105 62.5q-70 0 -107.5 -62t-47.5 -161z" />
    <glyph glyph-name="Ecaron" unicode="&#x11a;" horiz-adv-x="1105" 
d="M129 0v1434h881v-328h-488v-209h441v-328h-441v-241h502v-328h-895zM408 1516l-236 286h291l119 -172l127 172h290l-243 -286h-348z" />
    <glyph glyph-name="ecaron" unicode="&#x11b;" horiz-adv-x="1177" 
d="M1102 426h-639q21 -101 80.5 -143.5t167.5 -42.5q125 0 329 39v-254q-64 -19 -166.5 -34.5t-199.5 -15.5q-290 0 -449 151.5t-159 412.5q0 257 146.5 408t393.5 151t371.5 -160t124.5 -444v-68zM608 854q-131 0 -153 -219h293q5 96 -32.5 157.5t-107.5 61.5zM426 1208
l-223 328h246l143 -184l151 184h246l-231 -328h-332z" />
    <glyph glyph-name="Gcircumflex" unicode="&#x11c;" horiz-adv-x="1464" 
d="M850 -25q-357 0 -563.5 196t-206.5 556q0 183 58.5 323.5t166 229t253 133.5t325.5 45q247 0 436 -53v-318q-189 50 -391 50q-439 0 -439 -426q0 -199 107 -317t281 -118q65 0 120 15l7 264h-218v283h572v-797q-259 -66 -508 -66zM406 1516l243 286h348l236 -286h-283
l-127 165l-137 -165h-280z" />
    <glyph glyph-name="gcircumflex" unicode="&#x11d;" horiz-adv-x="1290" 
d="M586 -455q-221 0 -412 56v299q196 -78 371 -78q139 0 202.5 72t63.5 231v8h-4q-118 -133 -301 -133q-109 0 -195 46t-138.5 124t-79.5 175t-27 206q0 150 49.5 272.5t151 198.5t239.5 76q185 0 305 -160h4v141h359v-954q0 -308 -143 -444t-445 -136zM625 287
q76 0 122 71.5t46 192.5q0 115 -46.5 184.5t-121.5 69.5t-119.5 -68.5t-44.5 -185.5q0 -121 44 -192.5t120 -71.5zM227 1208l232 328h332l223 -328h-252l-137 185l-148 -185h-250z" />
    <glyph glyph-name="Gbreve" unicode="&#x11e;" horiz-adv-x="1464" 
d="M850 -25q-357 0 -563.5 196t-206.5 556q0 183 58.5 323.5t166 229t253 133.5t325.5 45q247 0 436 -53v-318q-189 50 -391 50q-439 0 -439 -426q0 -199 107 -317t281 -118q65 0 120 15l7 264h-218v283h572v-797q-259 -66 -508 -66zM819 1505q-177 0 -288.5 73.5
t-124.5 223.5h196q14 -69 66 -91.5t151 -22.5q100 0 152 24t65 90h197q-7 -77 -41.5 -135t-90.5 -93t-127 -52t-155 -17z" />
    <glyph glyph-name="gbreve" unicode="&#x11f;" horiz-adv-x="1290" 
d="M586 -455q-221 0 -412 56v299q196 -78 371 -78q139 0 202.5 72t63.5 231v8h-4q-118 -133 -301 -133q-109 0 -195 46t-138.5 124t-79.5 175t-27 206q0 150 49.5 272.5t151 198.5t239.5 76q185 0 305 -160h4v141h359v-954q0 -308 -143 -444t-445 -136zM625 287
q76 0 122 71.5t46 192.5q0 115 -46.5 184.5t-121.5 69.5t-119.5 -68.5t-44.5 -185.5q0 -121 44 -192.5t120 -71.5zM621 1198q-176 0 -278.5 90.5t-111.5 247.5h185q15 -73 70 -113.5t135 -40.5q85 0 137.5 41t66.5 113h185q-9 -159 -112 -248.5t-277 -89.5z" />
    <glyph glyph-name="Gdotaccent" unicode="&#x120;" horiz-adv-x="1464" 
d="M850 -25q-357 0 -563.5 196t-206.5 556q0 183 58.5 323.5t166 229t253 133.5t325.5 45q247 0 436 -53v-318q-189 50 -391 50q-439 0 -439 -426q0 -199 107 -317t281 -118q65 0 120 15l7 264h-218v283h572v-797q-259 -66 -508 -66zM629 1516v286h381v-286h-381z" />
    <glyph glyph-name="gdotaccent" unicode="&#x121;" horiz-adv-x="1290" 
d="M586 -455q-221 0 -412 56v299q196 -78 371 -78q139 0 202.5 72t63.5 231v8h-4q-118 -133 -301 -133q-109 0 -195 46t-138.5 124t-79.5 175t-27 206q0 150 49.5 272.5t151 198.5t239.5 76q185 0 305 -160h4v141h359v-954q0 -308 -143 -444t-445 -136zM625 287
q76 0 122 71.5t46 192.5q0 115 -46.5 184.5t-121.5 69.5t-119.5 -68.5t-44.5 -185.5q0 -121 44 -192.5t120 -71.5zM430 1241v270h381v-270h-381z" />
    <glyph glyph-name="uni0122" unicode="&#x122;" horiz-adv-x="1464" 
d="M850 -25q-357 0 -563.5 196t-206.5 556q0 183 58.5 323.5t166 229t253 133.5t325.5 45q247 0 436 -53v-318q-189 50 -391 50q-439 0 -439 -426q0 -199 107 -317t281 -118q65 0 120 15l7 264h-218v283h572v-797q-259 -66 -508 -66zM481 -512l94 410h349l-156 -410h-287z
" />
    <glyph glyph-name="uni0123" unicode="&#x123;" horiz-adv-x="1290" 
d="M586 -455q-221 0 -412 56v299q196 -78 371 -78q139 0 202.5 72t63.5 231v8h-4q-118 -133 -301 -133q-109 0 -195 46t-138.5 124t-79.5 175t-27 206q0 150 49.5 272.5t151 198.5t239.5 76q185 0 305 -160h4v141h359v-954q0 -308 -143 -444t-445 -136zM625 287
q76 0 122 71.5t46 192.5q0 115 -46.5 184.5t-121.5 69.5t-119.5 -68.5t-44.5 -185.5q0 -121 44 -192.5t120 -71.5zM481 1208l176 400h273l-80 -400h-369z" />
    <glyph glyph-name="Hcircumflex" unicode="&#x124;" horiz-adv-x="1474" 
d="M129 0v1434h397v-533h422v533h398v-1434h-398v573h-422v-573h-397zM324 1516l243 286h348l236 -286h-283l-127 165l-137 -165h-280z" />
    <glyph glyph-name="hcircumflex" unicode="&#x125;" horiz-adv-x="1249" 
d="M117 0v1536h389v-457l-2 -188h6q131 207 319 207q158 0 243 -119.5t85 -319.5v-659h-389v551q0 104 -27.5 155.5t-91.5 51.5q-143 0 -143 -273v-485h-389zM-86 1638l231 328h332l223 -328h-251l-138 185l-147 -185h-250z" />
    <glyph glyph-name="Hbar" unicode="&#x126;" horiz-adv-x="1495" 
d="M139 0v1044h-104v213h104v177h398v-177h421v177h398v-177h104v-213h-104v-1044h-398v573h-421v-573h-398zM537 901h421v143h-421v-143z" />
    <glyph glyph-name="hbar" unicode="&#x127;" horiz-adv-x="1249" 
d="M-18 1237v156h135v143h389v-143h303v-156h-303v-158l-2 -188h6q131 207 319 207q158 0 243 -119.5t85 -319.5v-659h-389v551q0 104 -27.5 155.5t-91.5 51.5q-143 0 -143 -273v-485h-389v1237h-135z" />
    <glyph glyph-name="Imacron" unicode="&#x12a;" horiz-adv-x="634" 
d="M119 0v1434h397v-1434h-397zM20 1591v172h594v-172h-594z" />
    <glyph glyph-name="imacron" unicode="&#x12b;" horiz-adv-x="593" 
d="M102 0v1079h390v-1079h-390zM20 1276v172h553v-172h-553z" />
    <glyph glyph-name="Iogonek" unicode="&#x12e;" horiz-adv-x="634" 
d="M119 0v1434h397v-1434q-205 -127 -205 -225q0 -66 74 -66q45 0 98 29l33 -141q-91 -52 -190 -52q-95 0 -147 48t-52 131q0 154 174 276h-182z" />
    <glyph glyph-name="iogonek" unicode="&#x12f;" horiz-adv-x="593" 
d="M102 0v1079h390v-1079q-205 -127 -205 -225q0 -66 73 -66q46 0 99 29l33 -141q-91 -52 -191 -52q-95 0 -147 48t-52 131q0 154 174 276h-174zM106 1241v270h381v-270h-381z" />
    <glyph glyph-name="Idotaccent" unicode="&#x130;" horiz-adv-x="634" 
d="M119 0v1434h397v-1434h-397zM127 1516v286h381v-286h-381z" />
    <glyph glyph-name="dotlessi" unicode="&#x131;" horiz-adv-x="593" 
d="M102 0v1079h390v-1079h-390z" />
    <glyph glyph-name="Jcircumflex" unicode="&#x134;" horiz-adv-x="778" 
d="M203 -25q-77 0 -162 25v322q40 -15 82 -15q30 0 52.5 10.5t36.5 32.5t23.5 47t13.5 63t5.5 70.5t1.5 79.5v824h397v-938q0 -255 -116 -388t-334 -133zM37 1516l244 286h348l235 -286h-282l-127 165l-138 -165h-280z" />
    <glyph glyph-name="jcircumflex" unicode="&#x135;" horiz-adv-x="593" 
d="M98 -455q-51 0 -151 19v289q56 -7 69 -7q52 0 69 38t17 116v1079h390v-1089q0 -227 -96.5 -336t-297.5 -109zM-39 1208l174 328h332l166 -328h-246l-86 185l-94 -185h-246z" />
    <glyph glyph-name="uni0136" unicode="&#x136;" horiz-adv-x="1320" 
d="M129 0v1434h397v-598h15l338 598h432l-404 -680l414 -754h-451l-327 657h-17v-657h-397zM424 -512l94 410h348l-155 -410h-287z" />
    <glyph glyph-name="uni0137" unicode="&#x137;" horiz-adv-x="1136" 
d="M117 0v1536h379v-874l239 417h412l-305 -438l305 -641h-414l-182 430l-55 -82v-348h-379zM352 -512l94 410h349l-156 -410h-287z" />
    <glyph glyph-name="Lacute" unicode="&#x139;" horiz-adv-x="1064" 
d="M129 0v1434h397v-1106h506v-328h-903zM209 1520l123 282h381l-246 -282h-258z" />
    <glyph glyph-name="lacute" unicode="&#x13a;" horiz-adv-x="593" 
d="M102 0v1536h390v-1536h-390zM162 1618l139 328h381l-262 -328h-258z" />
    <glyph glyph-name="uni013B" unicode="&#x13b;" horiz-adv-x="1064" 
d="M129 0v1434h397v-1106h506v-328h-903zM281 -512l94 410h348l-156 -410h-286z" />
    <glyph glyph-name="uni013C" unicode="&#x13c;" horiz-adv-x="593" 
d="M102 0v1536h390v-1536h-390zM39 -512l94 410h348l-155 -410h-287z" />
    <glyph glyph-name="Lcaron" unicode="&#x13d;" horiz-adv-x="1064" 
d="M653 922l123 512h348l-184 -512h-287zM129 0v1434h397v-1106h506v-328h-903z" />
    <glyph glyph-name="lcaron" unicode="&#x13e;" horiz-adv-x="593" 
d="M102 0v1536h390v-1536h-390zM524 1147l94 389h349l-156 -389h-287z" />
    <glyph glyph-name="Ldot" unicode="&#x13f;" horiz-adv-x="1064" 
d="M682 608v353h354v-353h-354zM129 0v1434h397v-1106h506v-328h-903z" />
    <glyph glyph-name="ldot" unicode="&#x140;" horiz-adv-x="921" 
d="M584 608v353h348v-353h-348zM102 0v1536h390v-1536h-390z" />
    <glyph glyph-name="Lslash" unicode="&#x141;" horiz-adv-x="1064" 
d="M129 0v473l-129 -76v228l129 75v734h397v-500l310 182v-227l-310 -182v-379h506v-328h-903z" />
    <glyph glyph-name="lslash" unicode="&#x142;" horiz-adv-x="614" 
d="M113 0v537l-109 -66v225l109 66v774h389v-539l108 68v-225l-108 -68v-772h-389z" />
    <glyph glyph-name="Nacute" unicode="&#x143;" horiz-adv-x="1495" 
d="M129 0v1434h498l383 -914h4l-6 170v744h358v-1434h-465l-416 942h-4l6 -166v-776h-358zM670 1520l123 282h381l-246 -282h-258z" />
    <glyph glyph-name="nacute" unicode="&#x144;" horiz-adv-x="1249" 
d="M117 0v1079h356v-188h4q143 207 342 207q163 0 250.5 -120t87.5 -319v-659h-389v551q0 104 -27 155.5t-92 51.5q-75 0 -109 -69.5t-34 -203.5v-485h-389zM479 1208l139 328h381l-262 -328h-258z" />
    <glyph glyph-name="uni0145" unicode="&#x145;" horiz-adv-x="1495" 
d="M129 0v1434h498l383 -914h4l-6 170v744h358v-1434h-465l-416 942h-4l6 -166v-776h-358zM496 -512l94 410h348l-156 -410h-286z" />
    <glyph glyph-name="uni0146" unicode="&#x146;" horiz-adv-x="1249" 
d="M117 0v1079h356v-188h4q143 207 342 207q163 0 250.5 -120t87.5 -319v-659h-389v551q0 104 -27 155.5t-92 51.5q-75 0 -109 -69.5t-34 -203.5v-485h-389zM362 -512l95 410h348l-156 -410h-287z" />
    <glyph glyph-name="Ncaron" unicode="&#x147;" horiz-adv-x="1495" 
d="M129 0v1434h498l383 -914h4l-6 170v744h358v-1434h-465l-416 942h-4l6 -166v-776h-358zM614 1516l-235 286h291l118 -172l127 172h291l-243 -286h-349z" />
    <glyph glyph-name="ncaron" unicode="&#x148;" horiz-adv-x="1249" 
d="M117 0v1079h356v-188h4q143 207 342 207q163 0 250.5 -120t87.5 -319v-659h-389v551q0 104 -27 155.5t-92 51.5q-75 0 -109 -69.5t-34 -203.5v-485h-389zM444 1208l-223 328h246l143 -184l152 184h246l-232 -328h-332z" />
    <glyph glyph-name="Omacron" unicode="&#x14c;" horiz-adv-x="1536" 
d="M768 -25q-335 0 -511.5 194.5t-176.5 547.5q0 355 178 548t510 193q335 0 511.5 -194t176.5 -547q0 -355 -178 -548.5t-510 -193.5zM768 283q72 0 126 34t85.5 95t47 137.5t15.5 167.5q0 94 -16 171t-48.5 137t-86 93t-123.5 33q-72 0 -126 -34t-85.5 -95t-47 -137.5
t-15.5 -167.5q0 -94 16 -171t48.5 -137t86 -93t123.5 -33zM410 1591v172h716v-172h-716z" />
    <glyph glyph-name="omacron" unicode="&#x14d;" horiz-adv-x="1269" 
d="M635 -25q-257 0 -413 151t-156 406q0 259 159 412.5t410 153.5q253 0 411 -154.5t158 -411.5q0 -258 -156.5 -407.5t-412.5 -149.5zM635 242q84 0 128 80.5t44 209.5q0 135 -45 217t-127 82q-84 0 -128 -83.5t-44 -215.5t44.5 -211t127.5 -79zM276 1276v172h717v-172
h-717z" />
    <glyph glyph-name="Obreve" unicode="&#x14e;" horiz-adv-x="1536" 
d="M768 -25q-335 0 -511.5 194.5t-176.5 547.5q0 355 178 548t510 193q335 0 511.5 -194t176.5 -547q0 -355 -178 -548.5t-510 -193.5zM768 283q72 0 126 34t85.5 95t47 137.5t15.5 167.5q0 94 -16 171t-48.5 137t-86 93t-123.5 33q-72 0 -126 -34t-85.5 -95t-47 -137.5
t-15.5 -167.5q0 -94 16 -171t48.5 -137t86 -93t123.5 -33zM768 1505q-177 0 -289 73.5t-125 223.5h197q14 -69 66 -91.5t151 -22.5q100 0 152 24t65 90h197q-7 -77 -41.5 -135t-90.5 -93t-127 -52t-155 -17z" />
    <glyph glyph-name="obreve" unicode="&#x14f;" horiz-adv-x="1269" 
d="M635 -25q-257 0 -413 151t-156 406q0 259 159 412.5t410 153.5q253 0 411 -154.5t158 -411.5q0 -258 -156.5 -407.5t-412.5 -149.5zM635 242q84 0 128 80.5t44 209.5q0 135 -45 217t-127 82q-84 0 -128 -83.5t-44 -215.5t44.5 -211t127.5 -79zM635 1198q-176 0 -278 90.5
t-111 247.5h184q15 -73 70 -113.5t135 -40.5q85 0 138 41t67 113h184q-9 -159 -112 -248.5t-277 -89.5z" />
    <glyph glyph-name="Ohungarumlaut" unicode="&#x150;" horiz-adv-x="1536" 
d="M768 -25q-335 0 -511.5 194.5t-176.5 547.5q0 355 178 548t510 193q335 0 511.5 -194t176.5 -547q0 -355 -178 -548.5t-510 -193.5zM768 283q72 0 126 34t85.5 95t47 137.5t15.5 167.5q0 94 -16 171t-48.5 137t-86 93t-123.5 33q-72 0 -126 -34t-85.5 -95t-47 -137.5
t-15.5 -167.5q0 -94 16 -171t48.5 -137t86 -93t123.5 -33zM862 1516l133 286h361l-269 -286h-225zM375 1516l133 286h360l-268 -286h-225z" />
    <glyph glyph-name="ohungarumlaut" unicode="&#x151;" horiz-adv-x="1269" 
d="M635 -25q-257 0 -413 151t-156 406q0 259 159 412.5t410 153.5q253 0 411 -154.5t158 -411.5q0 -258 -156.5 -407.5t-412.5 -149.5zM635 242q84 0 128 80.5t44 209.5q0 135 -45 217t-127 82q-84 0 -128 -83.5t-44 -215.5t44.5 -211t127.5 -79zM750 1208l133 328h360
l-268 -328h-225zM262 1208l133 328h361l-269 -328h-225z" />
    <glyph glyph-name="OE" unicode="&#x152;" horiz-adv-x="1925" 
d="M776 -16q-344 0 -520 187.5t-176 545.5q0 359 180 546t535 187q62 0 225.5 -8t320.5 -8h488v-328h-481v-209h434v-328h-434v-241h495v-328h-737q-69 0 -173 -8t-157 -8zM856 297q27 0 51.5 2t35.5 4l11 2v823q-69 9 -135 9q-77 0 -135.5 -21.5t-95 -58.5t-59 -92
t-31.5 -115t-9 -135q0 -193 92 -305.5t275 -112.5z" />
    <glyph glyph-name="oe" unicode="&#x153;" horiz-adv-x="1925" 
d="M1425 -25q-137 0 -247.5 39.5t-180.5 114.5h-2q-142 -154 -377 -154q-251 0 -401.5 150.5t-150.5 406.5q0 262 154 414t398 152q114 0 211.5 -41t165.5 -115h4q125 156 357 156q244 0 368.5 -160.5t124.5 -443.5v-68h-641q19 -95 80 -140.5t178 -45.5q118 0 322 39v-254
q-64 -19 -167 -34.5t-196 -15.5zM463 532q0 -132 44.5 -211t127.5 -79q84 0 128 80.5t44 209.5q0 134 -44.5 213.5t-127.5 79.5q-84 0 -128 -81t-44 -212zM1358 858q-68 0 -106.5 -59t-49.5 -164h293q5 99 -31 161t-106 62z" />
    <glyph glyph-name="Racute" unicode="&#x154;" horiz-adv-x="1280" 
d="M827 0l-198 496h-103v-496h-397v1434h489q287 0 430.5 -123t143.5 -342q0 -283 -215 -394l289 -575h-439zM526 778h107q76 0 119 53t43 140q0 83 -42.5 131.5t-119.5 48.5h-107v-373zM518 1520l123 282h381l-246 -282h-258z" />
    <glyph glyph-name="racute" unicode="&#x155;" horiz-adv-x="829" 
d="M117 0v1079h348v-182h6q9 25 14.5 37.5t17.5 37.5t22.5 39t28.5 33t37.5 29t46.5 17.5t58 7.5q62 0 92 -13v-317q-4 0 -44 3t-58 3q-47 0 -80 -14.5t-52.5 -38.5t-30 -67t-14 -88t-3.5 -113v-453h-389zM285 1208l139 328h381l-262 -328h-258z" />
    <glyph glyph-name="uni0156" unicode="&#x156;" horiz-adv-x="1280" 
d="M827 0l-198 496h-103v-496h-397v1434h489q287 0 430.5 -123t143.5 -342q0 -283 -215 -394l289 -575h-439zM526 778h107q76 0 119 53t43 140q0 83 -42.5 131.5t-119.5 48.5h-107v-373zM440 -512l95 410h348l-156 -410h-287z" />
    <glyph glyph-name="uni0157" unicode="&#x157;" horiz-adv-x="829" 
d="M117 0v1079h348v-182h6q9 25 14.5 37.5t17.5 37.5t22.5 39t28.5 33t37.5 29t46.5 17.5t58 7.5q62 0 92 -13v-317q-4 0 -44 3t-58 3q-47 0 -80 -14.5t-52.5 -38.5t-30 -67t-14 -88t-3.5 -113v-453h-389zM55 -512l95 410h348l-156 -410h-287z" />
    <glyph glyph-name="Rcaron" unicode="&#x158;" horiz-adv-x="1280" 
d="M827 0l-198 496h-103v-496h-397v1434h489q287 0 430.5 -123t143.5 -342q0 -283 -215 -394l289 -575h-439zM526 778h107q76 0 119 53t43 140q0 83 -42.5 131.5t-119.5 48.5h-107v-373zM463 1516l-236 286h291l119 -172l127 172h291l-244 -286h-348z" />
    <glyph glyph-name="rcaron" unicode="&#x159;" horiz-adv-x="829" 
d="M117 0v1079h348v-182h6q9 25 14.5 37.5t17.5 37.5t22.5 39t28.5 33t37.5 29t46.5 17.5t58 7.5q62 0 92 -13v-317q-4 0 -44 3t-58 3q-47 0 -80 -14.5t-52.5 -38.5t-30 -67t-14 -88t-3.5 -113v-453h-389zM250 1208l-223 328h245l144 -184l151 184h246l-231 -328h-332z" />
    <glyph glyph-name="Sacute" unicode="&#x15a;" horiz-adv-x="1085" 
d="M453 -25q-191 0 -392 62v315q185 -84 383 -84q96 0 142.5 31t46.5 96q0 25 -6.5 46t-23.5 39.5t-31.5 30.5t-46 28t-50 24t-59.5 25q-46 19 -74 31.5t-72 36.5t-71 45t-59 54.5t-50 69.5t-30.5 84.5t-12.5 104.5q0 115 45 202.5t124.5 139t181 77t223.5 25.5
q176 0 340 -53v-289q-134 49 -308 49q-45 0 -77.5 -4.5t-60.5 -16.5t-42 -35t-14 -58q0 -27 11 -50.5t25.5 -39.5t46 -34t53.5 -28.5t67 -30.5q8 -3 23 -10q37 -16 56.5 -24.5t55 -26t55.5 -30.5t49.5 -35t46.5 -42t37.5 -48.5t31 -58t18 -67.5t7.5 -80q0 -124 -43.5 -216.5
t-123.5 -147t-185 -81t-237 -26.5zM420 1520l123 282h381l-246 -282h-258z" />
    <glyph glyph-name="sacute" unicode="&#x15b;" horiz-adv-x="962" 
d="M430 -25q-189 0 -356 52v274q213 -70 321 -70q105 0 105 70q0 11 -2 20.5t-8 18.5t-11 15.5t-16.5 14.5t-19.5 13.5t-24.5 14t-26.5 13.5t-31 15t-33 16q-7 3 -33.5 15.5t-36.5 17.5t-34.5 18.5t-35.5 22.5t-31.5 25.5t-30.5 31t-23.5 35.5t-20 43t-11.5 50t-5 59
q0 92 36 159.5t99 105.5t139 55.5t166 17.5q177 0 328 -68v-262q-160 68 -283 68q-109 0 -109 -64q0 -16 7 -28t23 -22.5t31 -17.5t42.5 -19t46.5 -21q16 -8 50.5 -24t53.5 -25.5t50 -27.5t49 -33.5t40 -40.5t33.5 -51.5t20 -62.5t8.5 -77q0 -347 -467 -347zM346 1208
l139 328h381l-262 -328h-258z" />
    <glyph glyph-name="Scircumflex" unicode="&#x15c;" horiz-adv-x="1085" 
d="M453 -25q-191 0 -392 62v315q185 -84 383 -84q96 0 142.5 31t46.5 96q0 25 -6.5 46t-23.5 39.5t-31.5 30.5t-46 28t-50 24t-59.5 25q-46 19 -74 31.5t-72 36.5t-71 45t-59 54.5t-50 69.5t-30.5 84.5t-12.5 104.5q0 115 45 202.5t124.5 139t181 77t223.5 25.5
q176 0 340 -53v-289q-134 49 -308 49q-45 0 -77.5 -4.5t-60.5 -16.5t-42 -35t-14 -58q0 -27 11 -50.5t25.5 -39.5t46 -34t53.5 -28.5t67 -30.5q8 -3 23 -10q37 -16 56.5 -24.5t55 -26t55.5 -30.5t49.5 -35t46.5 -42t37.5 -48.5t31 -58t18 -67.5t7.5 -80q0 -124 -43.5 -216.5
t-123.5 -147t-185 -81t-237 -26.5zM129 1516l244 286h348l235 -286h-282l-127 165l-137 -165h-281z" />
    <glyph glyph-name="scircumflex" unicode="&#x15d;" horiz-adv-x="962" 
d="M430 -25q-189 0 -356 52v274q213 -70 321 -70q105 0 105 70q0 11 -2 20.5t-8 18.5t-11 15.5t-16.5 14.5t-19.5 13.5t-24.5 14t-26.5 13.5t-31 15t-33 16q-7 3 -33.5 15.5t-36.5 17.5t-34.5 18.5t-35.5 22.5t-31.5 25.5t-30.5 31t-23.5 35.5t-20 43t-11.5 50t-5 59
q0 92 36 159.5t99 105.5t139 55.5t166 17.5q177 0 328 -68v-262q-160 68 -283 68q-109 0 -109 -64q0 -16 7 -28t23 -22.5t31 -17.5t42.5 -19t46.5 -21q16 -8 50.5 -24t53.5 -25.5t50 -27.5t49 -33.5t40 -40.5t33.5 -51.5t20 -62.5t8.5 -77q0 -347 -467 -347zM88 1208
l231 328h332l223 -328h-251l-138 185l-147 -185h-250z" />
    <glyph glyph-name="Scedilla" unicode="&#x15e;" horiz-adv-x="1085" 
d="M510 -455q-110 0 -188 60l51 116q49 -40 104 -40q38 0 60 18.5t22 48.5q0 31 -23.5 49.5t-70.5 18.5q-28 0 -62 -11l46 170q-181 0 -388 62v315q185 -84 383 -84q96 0 142.5 31t46.5 96q0 25 -6.5 46t-23.5 39.5t-31.5 30.5t-46 28t-50 24t-59.5 25q-46 19 -74 31.5
t-72 36.5t-71 45t-59 54.5t-50 69.5t-30.5 84.5t-12.5 104.5q0 115 45 202.5t124.5 139t181 77t223.5 25.5q176 0 340 -53v-289q-134 49 -308 49q-45 0 -77.5 -4.5t-60.5 -16.5t-42 -35t-14 -58q0 -27 11 -50.5t25.5 -39.5t46 -34t53.5 -28.5t67 -30.5q8 -3 23 -10
q37 -16 56.5 -24.5t55 -26t55.5 -30.5t49.5 -35t46.5 -42t37.5 -48.5t31 -58t18 -67.5t7.5 -80q0 -209 -119 -322.5t-329 -139.5l-16 -70q61 -2 107 -45t46 -123q0 -89 -60 -145t-161 -56z" />
    <glyph glyph-name="scedilla" unicode="&#x15f;" horiz-adv-x="962" 
d="M459 -401q-95 0 -166 53l45 104q43 -37 92 -37q33 0 53.5 16.5t20.5 43.5t-21.5 43t-62.5 16q-24 0 -55 -8l38 145q-174 3 -329 52v274q213 -70 321 -70q105 0 105 70q0 11 -2 20.5t-8 18.5t-11 15.5t-16.5 14.5t-19.5 13.5t-24.5 14t-26.5 13.5t-31 15t-33 16
q-7 3 -33.5 15.5t-36.5 17.5t-34.5 18.5t-35.5 22.5t-31.5 25.5t-30.5 31t-23.5 35.5t-20 43t-11.5 50t-5 59q0 92 36 159.5t99 105.5t139 55.5t166 17.5q177 0 328 -68v-262q-160 68 -283 68q-109 0 -109 -64q0 -16 7 -28t23 -22.5t31 -17.5t42.5 -19t46.5 -21
q16 -8 50.5 -24t53.5 -25.5t50 -27.5t49 -33.5t40 -40.5t33.5 -51.5t20 -62.5t8.5 -77q0 -306 -365 -342l-12 -54q53 -2 94 -40t41 -109q0 -78 -53 -128t-143 -50z" />
    <glyph glyph-name="Scaron" unicode="&#x160;" horiz-adv-x="1085" 
d="M453 -25q-191 0 -392 62v315q185 -84 383 -84q96 0 142.5 31t46.5 96q0 25 -6.5 46t-23.5 39.5t-31.5 30.5t-46 28t-50 24t-59.5 25q-46 19 -74 31.5t-72 36.5t-71 45t-59 54.5t-50 69.5t-30.5 84.5t-12.5 104.5q0 115 45 202.5t124.5 139t181 77t223.5 25.5
q176 0 340 -53v-289q-134 49 -308 49q-45 0 -77.5 -4.5t-60.5 -16.5t-42 -35t-14 -58q0 -27 11 -50.5t25.5 -39.5t46 -34t53.5 -28.5t67 -30.5q8 -3 23 -10q37 -16 56.5 -24.5t55 -26t55.5 -30.5t49.5 -35t46.5 -42t37.5 -48.5t31 -58t18 -67.5t7.5 -80q0 -124 -43.5 -216.5
t-123.5 -147t-185 -81t-237 -26.5zM365 1516l-236 286h291l119 -172l127 172h290l-243 -286h-348z" />
    <glyph glyph-name="scaron" unicode="&#x161;" horiz-adv-x="962" 
d="M430 -25q-189 0 -356 52v274q213 -70 321 -70q105 0 105 70q0 11 -2 20.5t-8 18.5t-11 15.5t-16.5 14.5t-19.5 13.5t-24.5 14t-26.5 13.5t-31 15t-33 16q-7 3 -33.5 15.5t-36.5 17.5t-34.5 18.5t-35.5 22.5t-31.5 25.5t-30.5 31t-23.5 35.5t-20 43t-11.5 50t-5 59
q0 92 36 159.5t99 105.5t139 55.5t166 17.5q177 0 328 -68v-262q-160 68 -283 68q-109 0 -109 -64q0 -16 7 -28t23 -22.5t31 -17.5t42.5 -19t46.5 -21q16 -8 50.5 -24t53.5 -25.5t50 -27.5t49 -33.5t40 -40.5t33.5 -51.5t20 -62.5t8.5 -77q0 -347 -467 -347zM311 1208
l-223 328h246l143 -184l152 184h245l-231 -328h-332z" />
    <glyph glyph-name="uni0162" unicode="&#x162;" horiz-adv-x="1146" 
d="M375 0v1106h-346v328h1089v-328h-346v-1106h-127l-20 -86q61 -2 107 -45t46 -123q0 -89 -60 -145t-161 -56q-110 0 -188 60l51 116q49 -40 104 -40q38 0 60 18.5t22 48.5q0 31 -23.5 49.5t-70.5 18.5q-27 0 -61 -11l51 195h-127z" />
    <glyph glyph-name="uni0163" unicode="&#x163;" horiz-adv-x="778" 
d="M399 -401q-95 0 -166 53l46 104q43 -37 92 -37q33 0 53 16.5t20 43.5t-21.5 43t-62.5 16q-24 0 -55 -8l47 178q-194 82 -194 346v455h-121v270h121v213l385 105v-318h157v-270h-157v-350q0 -104 28.5 -146.5t81.5 -42.5q13 0 58 9v-287q-117 -17 -162 -17q-13 0 -76 5
l-12 -54q53 -2 94 -40t41 -109q0 -78 -53.5 -128t-143.5 -50z" />
    <glyph glyph-name="Tcaron" unicode="&#x164;" horiz-adv-x="1146" 
d="M375 0v1106h-346v328h1089v-328h-346v-1106h-397zM395 1516l-235 286h291l118 -172l127 172h291l-244 -286h-348z" />
    <glyph glyph-name="tcaron" unicode="&#x165;" horiz-adv-x="778" 
d="M700 1079v-270h-157v-350q0 -104 28.5 -146.5t81.5 -42.5q13 0 58 9v-287q-117 -17 -162 -17q-185 0 -288 92t-103 287v455h-121v270h121v213l385 105v-318h157zM598 1147l94 389h348l-155 -389h-287z" />
    <glyph glyph-name="Umacron" unicode="&#x16a;" horiz-adv-x="1474" 
d="M737 -25q-288 0 -450 143t-162 427v889h397v-826q0 -71 10 -126t33 -102t66.5 -72t105.5 -25q63 0 107 26t66.5 74.5t32 102t9.5 122.5v826h398v-889q0 -285 -162.5 -427.5t-450.5 -142.5zM379 1591v172h717v-172h-717z" />
    <glyph glyph-name="umacron" unicode="&#x16b;" horiz-adv-x="1249" 
d="M1133 1079v-1079h-357v178h-4q-31 -44 -59.5 -76t-68 -63t-88.5 -47.5t-105 -16.5q-169 0 -264 122t-95 323v659h389v-551q0 -104 26.5 -155t90.5 -51q77 0 111 69t34 203v485h390zM256 1276v172h717v-172h-717z" />
    <glyph glyph-name="Ubreve" unicode="&#x16c;" horiz-adv-x="1474" 
d="M737 -25q-288 0 -450 143t-162 427v889h397v-826q0 -71 10 -126t33 -102t66.5 -72t105.5 -25q63 0 107 26t66.5 74.5t32 102t9.5 122.5v826h398v-889q0 -285 -162.5 -427.5t-450.5 -142.5zM737 1505q-177 0 -288.5 73.5t-124.5 223.5h196q14 -69 66 -91.5t151 -22.5
q100 0 152 24t65 90h197q-7 -77 -41.5 -135t-90.5 -93t-127 -52t-155 -17z" />
    <glyph glyph-name="ubreve" unicode="&#x16d;" horiz-adv-x="1249" 
d="M1133 1079v-1079h-357v178h-4q-31 -44 -59.5 -76t-68 -63t-88.5 -47.5t-105 -16.5q-169 0 -264 122t-95 323v659h389v-551q0 -104 26.5 -155t90.5 -51q77 0 111 69t34 203v485h390zM614 1198q-176 0 -278 90.5t-111 247.5h185q15 -73 69.5 -113.5t134.5 -40.5
q85 0 138 41t67 113h185q-9 -159 -112.5 -248.5t-277.5 -89.5z" />
    <glyph glyph-name="Uring" unicode="&#x16e;" horiz-adv-x="1474" 
d="M737 -25q-288 0 -450 143t-162 427v889h397v-826q0 -71 10 -126t33 -102t66.5 -72t105.5 -25q63 0 107 26t66.5 74.5t32 102t9.5 122.5v826h398v-889q0 -285 -162.5 -427.5t-450.5 -142.5zM737 1454q-101 0 -166 64.5t-65 164.5t65 165t166 65t166.5 -65t65.5 -165
t-65.5 -164.5t-166.5 -64.5zM737 1579q42 0 71.5 30.5t29.5 73.5t-29.5 74t-71.5 31t-71 -31t-29 -74t29 -73.5t71 -30.5z" />
    <glyph glyph-name="uring" unicode="&#x16f;" horiz-adv-x="1249" 
d="M1133 1079v-1079h-357v178h-4q-31 -44 -59.5 -76t-68 -63t-88.5 -47.5t-105 -16.5q-169 0 -264 122t-95 323v659h389v-551q0 -104 26.5 -155t90.5 -51q77 0 111 69t34 203v485h390zM614 1159q-100 0 -164.5 65t-64.5 165t64.5 164.5t164.5 64.5t165 -64.5t65 -164.5
t-65 -165t-165 -65zM614 1290q41 0 70 29t29 70t-29 69.5t-70 28.5t-69.5 -28.5t-28.5 -69.5t28.5 -70t69.5 -29z" />
    <glyph glyph-name="Uhungarumlaut" unicode="&#x170;" horiz-adv-x="1474" 
d="M737 -25q-288 0 -450 143t-162 427v889h397v-826q0 -71 10 -126t33 -102t66.5 -72t105.5 -25q63 0 107 26t66.5 74.5t32 102t9.5 122.5v826h398v-889q0 -285 -162.5 -427.5t-450.5 -142.5zM831 1516l134 286h360l-268 -286h-226zM344 1516l133 286h361l-269 -286h-225z
" />
    <glyph glyph-name="uhungarumlaut" unicode="&#x171;" horiz-adv-x="1249" 
d="M1133 1079v-1079h-357v178h-4q-31 -44 -59.5 -76t-68 -63t-88.5 -47.5t-105 -16.5q-169 0 -264 122t-95 323v659h389v-551q0 -104 26.5 -155t90.5 -51q77 0 111 69t34 203v485h390zM729 1208l133 328h361l-269 -328h-225zM242 1208l133 328h360l-268 -328h-225z" />
    <glyph glyph-name="Uogonek" unicode="&#x172;" horiz-adv-x="1474" 
d="M815 -455q-95 0 -147 48t-52 131q0 137 144 251h-23q-288 0 -450 143t-162 427v889h397v-826q0 -71 10 -126t33 -102t66.5 -72t105.5 -25q63 0 107 26t66.5 74.5t32 102t9.5 122.5v826h398v-889q0 -99 -20 -179.5t-49 -133t-76.5 -97t-87.5 -70t-97 -53.5
q-219 -110 -219 -231q0 -72 73 -72q46 0 99 29l33 -141q-91 -52 -191 -52z" />
    <glyph glyph-name="uogonek" unicode="&#x173;" horiz-adv-x="1249" 
d="M942 -455q-95 0 -147 48t-52 131q0 153 175 276h-142v178h-4q-31 -44 -59.5 -76t-68 -63t-88.5 -47.5t-105 -16.5q-169 0 -264 122t-95 323v659h389v-551q0 -104 26.5 -155t90.5 -51q77 0 111 69t34 203v485h390v-1079q-205 -127 -205 -225q0 -66 73 -66q46 0 99 29
l33 -141q-91 -52 -191 -52z" />
    <glyph glyph-name="Ydieresis" unicode="&#x178;" horiz-adv-x="1331" 
d="M-6 1434h432l238 -543h2l239 543h432l-473 -924v-510h-397v510zM266 1516v286h307v-286h-307zM758 1516v286h307v-286h-307z" />
    <glyph glyph-name="Zacute" unicode="&#x179;" horiz-adv-x="1187" 
d="M86 0v297l573 829h-555v308h994v-295l-590 -832h594v-307h-1016zM471 1520l123 282h381l-246 -282h-258z" />
    <glyph glyph-name="zacute" unicode="&#x17a;" horiz-adv-x="1024" 
d="M76 0v274l420 531h-410v274h854v-274l-424 -531h432v-274h-872zM377 1208l139 328h381l-262 -328h-258z" />
    <glyph glyph-name="Zdotaccent" unicode="&#x17b;" horiz-adv-x="1187" 
d="M86 0v297l573 829h-555v308h994v-295l-590 -832h594v-307h-1016zM403 1516v286h381v-286h-381z" />
    <glyph glyph-name="zdotaccent" unicode="&#x17c;" horiz-adv-x="1024" 
d="M76 0v274l420 531h-410v274h854v-274l-424 -531h432v-274h-872zM322 1241v270h380v-270h-380z" />
    <glyph glyph-name="Zcaron" unicode="&#x17d;" horiz-adv-x="1187" 
d="M86 0v297l573 829h-555v308h994v-295l-590 -832h594v-307h-1016zM416 1516l-236 286h291l119 -172l127 172h291l-244 -286h-348z" />
    <glyph glyph-name="zcaron" unicode="&#x17e;" horiz-adv-x="1024" 
d="M76 0v274l420 531h-410v274h854v-274l-424 -531h432v-274h-872zM342 1208l-223 328h246l143 -184l151 184h246l-231 -328h-332z" />
    <glyph glyph-name="uni018F" unicode="&#x18f;" horiz-adv-x="1474" 
d="M80 717q0 41 6 100h891q-12 172 -87.5 251t-244.5 79q-210 0 -397 -80v311q203 80 434 80q357 0 535 -187.5t178 -553.5q0 -355 -170.5 -548.5t-487.5 -193.5q-320 0 -488.5 194.5t-168.5 547.5zM737 283q101 0 159.5 82.5t76.5 222.5h-471q18 -142 76.5 -223.5
t158.5 -81.5z" />
    <glyph glyph-name="florin" unicode="&#x192;" horiz-adv-x="1187" 
d="M174 666l37 225h190l29 168q32 181 143 290t283 109q65 0 133.5 -13.5t97.5 -25.5v-280q-108 10 -114 10q-77 0 -117 -29.5t-51 -91.5l-27 -137h191l-35 -225h-197l-127 -697q-40 -220 -146.5 -322t-275.5 -102q-63 0 -135 10.5t-112 34.5v271q76 -37 143 -37
q68 0 108.5 43.5t51.5 114.5l118 684h-188z" />
    <glyph glyph-name="uni01CF" unicode="&#x1cf;" horiz-adv-x="634" 
d="M119 0v1434h397v-1434h-397zM139 1516l-194 286h270l98 -151l107 151h270l-203 -286h-348z" />
    <glyph glyph-name="uni01D0" unicode="&#x1d0;" horiz-adv-x="593" 
d="M102 0v1079h390v-1079h-390zM119 1208l-158 328h246l86 -184l94 184h246l-166 -328h-348z" />
    <glyph glyph-name="uni01DD" unicode="&#x1dd;" horiz-adv-x="1177" 
d="M76 565v68h641q-17 109 -74 155t-168 46q-126 0 -330 -39v254q63 19 166.5 34t200.5 15q289 0 444.5 -150.5t155.5 -412.5q0 -257 -147 -408.5t-394 -151.5t-371 156.5t-124 433.5zM569 219q75 0 110.5 48.5t43.5 156.5h-293q-5 -92 32 -148.5t107 -56.5z" />
    <glyph glyph-name="Gcaron" unicode="&#x1e6;" horiz-adv-x="1464" 
d="M850 -25q-357 0 -563.5 196t-206.5 556q0 183 58.5 323.5t166 229t253 133.5t325.5 45q247 0 436 -53v-318q-189 50 -391 50q-439 0 -439 -426q0 -199 107 -317t281 -118q65 0 120 15l7 264h-218v283h572v-797q-259 -66 -508 -66zM641 1516l-235 286h290l119 -172
l127 172h291l-244 -286h-348z" />
    <glyph glyph-name="gcaron" unicode="&#x1e7;" horiz-adv-x="1290" 
d="M586 -455q-221 0 -412 56v299q196 -78 371 -78q139 0 202.5 72t63.5 231v8h-4q-118 -133 -301 -133q-109 0 -195 46t-138.5 124t-79.5 175t-27 206q0 150 49.5 272.5t151 198.5t239.5 76q185 0 305 -160h4v141h359v-954q0 -308 -143 -444t-445 -136zM625 287
q76 0 122 71.5t46 192.5q0 115 -46.5 184.5t-121.5 69.5t-119.5 -68.5t-44.5 -185.5q0 -121 44 -192.5t120 -71.5zM451 1208l-224 328h246l143 -184l152 184h246l-232 -328h-331z" />
    <glyph glyph-name="uni0218" unicode="&#x218;" horiz-adv-x="1085" 
d="M453 -25q-191 0 -392 62v315q185 -84 383 -84q96 0 142.5 31t46.5 96q0 25 -6.5 46t-23.5 39.5t-31.5 30.5t-46 28t-50 24t-59.5 25q-46 19 -74 31.5t-72 36.5t-71 45t-59 54.5t-50 69.5t-30.5 84.5t-12.5 104.5q0 115 45 202.5t124.5 139t181 77t223.5 25.5
q176 0 340 -53v-289q-134 49 -308 49q-45 0 -77.5 -4.5t-60.5 -16.5t-42 -35t-14 -58q0 -27 11 -50.5t25.5 -39.5t46 -34t53.5 -28.5t67 -30.5q8 -3 23 -10q37 -16 56.5 -24.5t55 -26t55.5 -30.5t49.5 -35t46.5 -42t37.5 -48.5t31 -58t18 -67.5t7.5 -80q0 -124 -43.5 -216.5
t-123.5 -147t-185 -81t-237 -26.5zM274 -512l95 410h348l-156 -410h-287z" />
    <glyph glyph-name="uni0219" unicode="&#x219;" horiz-adv-x="962" 
d="M430 -25q-189 0 -356 52v274q213 -70 321 -70q105 0 105 70q0 11 -2 20.5t-8 18.5t-11 15.5t-16.5 14.5t-19.5 13.5t-24.5 14t-26.5 13.5t-31 15t-33 16q-7 3 -33.5 15.5t-36.5 17.5t-34.5 18.5t-35.5 22.5t-31.5 25.5t-30.5 31t-23.5 35.5t-20 43t-11.5 50t-5 59
q0 92 36 159.5t99 105.5t139 55.5t166 17.5q177 0 328 -68v-262q-160 68 -283 68q-109 0 -109 -64q0 -16 7 -28t23 -22.5t31 -17.5t42.5 -19t46.5 -21q16 -8 50.5 -24t53.5 -25.5t50 -27.5t49 -33.5t40 -40.5t33.5 -51.5t20 -62.5t8.5 -77q0 -347 -467 -347zM221 -512
l94 410h349l-156 -410h-287z" />
    <glyph glyph-name="uni021A" unicode="&#x21a;" horiz-adv-x="1146" 
d="M375 0v1106h-346v328h1089v-328h-346v-1106h-397zM322 -512l94 410h348l-156 -410h-286z" />
    <glyph glyph-name="uni021B" unicode="&#x21b;" horiz-adv-x="778" 
d="M700 1079v-270h-157v-350q0 -104 28.5 -146.5t81.5 -42.5q13 0 58 9v-287q-117 -17 -162 -17q-185 0 -288 92t-103 287v455h-121v270h121v213l385 105v-318h157zM162 -512l94 410h348l-155 -410h-287z" />
    <glyph glyph-name="uni0237" unicode="&#x237;" horiz-adv-x="593" 
d="M98 -455q-51 0 -151 19v289q56 -7 69 -7q52 0 69 38t17 116v1079h390v-1089q0 -227 -96.5 -336t-297.5 -109z" />
    <glyph glyph-name="uni0259" unicode="&#x259;" horiz-adv-x="1177" 
d="M76 565v68h641q-17 109 -74 155t-168 46q-126 0 -330 -39v254q63 19 166.5 34t200.5 15q289 0 444.5 -150.5t155.5 -412.5q0 -257 -147 -408.5t-394 -151.5t-371 156.5t-124 433.5zM569 219q75 0 110.5 48.5t43.5 156.5h-293q-5 -92 32 -148.5t107 -56.5z" />
    <glyph glyph-name="uni02BC" unicode="&#x2bc;" horiz-adv-x="614" 
d="M96 1147l94 389h349l-156 -389h-287z" />
    <glyph glyph-name="circumflex" unicode="&#x2c6;" 
d="M16 1208l232 328h332l223 -328h-252l-137 185l-148 -185h-250z" />
    <glyph glyph-name="caron" unicode="&#x2c7;" 
d="M240 1208l-224 328h246l144 -184l151 184h246l-232 -328h-331z" />
    <glyph glyph-name="uni02C9" unicode="&#x2c9;" 
d="M49 1591v172h717v-172h-717z" />
    <glyph glyph-name="breve" unicode="&#x2d8;" 
d="M410 1198q-176 0 -278.5 90.5t-111.5 247.5h185q15 -73 70 -113.5t135 -40.5q85 0 137.5 41t66.5 113h185q-9 -159 -112 -248.5t-277 -89.5z" />
    <glyph glyph-name="dotaccent" unicode="&#x2d9;" 
d="M219 1241v270h381v-270h-381z" />
    <glyph glyph-name="ring" unicode="&#x2da;" 
d="M410 1159q-100 0 -165 65t-65 165t65 164.5t165 64.5t164.5 -64.5t64.5 -164.5t-64.5 -165t-164.5 -65zM410 1290q41 0 69.5 29t28.5 70t-28.5 69.5t-69.5 28.5t-70 -28.5t-29 -69.5t29 -70t70 -29z" />
    <glyph glyph-name="ogonek" unicode="&#x2db;" 
d="M362 -455q-95 0 -146.5 48t-51.5 131q0 167 209 299l180 -23q-205 -127 -205 -225q0 -66 74 -66q45 0 98 29l33 -141q-91 -52 -191 -52z" />
    <glyph glyph-name="tilde" unicode="&#x2dc;" 
d="M8 1241q13 128 79 210.5t177 82.5q69 0 166 -41q2 -1 32 -13.5t52 -18t47 -5.5q89 0 103 80h147q-11 -129 -79 -211t-181 -82q-46 0 -148 37q-12 5 -33.5 13t-32 11.5t-26 8t-28.5 6.5t-27 2q-43 0 -68 -21.5t-30 -58.5h-150z" />
    <glyph glyph-name="hungarumlaut" unicode="&#x2dd;" 
d="M524 1208l133 328h361l-268 -328h-226zM37 1208l133 328h360l-268 -328h-225z" />
    <glyph glyph-name="gravecomb" unicode="&#x300;" horiz-adv-x="0" 
d="M-729 1208l-207 328h381l84 -328h-258z" />
    <glyph glyph-name="acutecomb" unicode="&#x301;" horiz-adv-x="0" 
d="M-750 1208l140 328h381l-263 -328h-258z" />
    <glyph glyph-name="uni0302" unicode="&#x302;" 
d="M16 1208l232 328h332l223 -328h-252l-137 185l-148 -185h-250z" />
    <glyph glyph-name="tildecomb" unicode="&#x303;" 
d="M8 1241q13 128 79 210.5t177 82.5q69 0 166 -41q2 -1 32 -13.5t52 -18t47 -5.5q89 0 103 80h147q-11 -129 -79 -211t-181 -82q-46 0 -148 37q-12 5 -33.5 13t-32 11.5t-26 8t-28.5 6.5t-27 2q-43 0 -68 -21.5t-30 -58.5h-150z" />
    <glyph glyph-name="uni0307" unicode="&#x307;" 
d="M219 1241v270h381v-270h-381z" />
    <glyph glyph-name="uni0308" unicode="&#x308;" 
d="M496 1241v270h295v-270h-295zM29 1241v270h295v-270h-295z" />
    <glyph glyph-name="uni030A" unicode="&#x30a;" 
d="M410 1159q-100 0 -165 65t-65 165t65 164.5t165 64.5t164.5 -64.5t64.5 -164.5t-64.5 -165t-164.5 -65zM410 1290q41 0 69.5 29t28.5 70t-28.5 69.5t-69.5 28.5t-70 -28.5t-29 -69.5t29 -70t70 -29z" />
    <glyph glyph-name="uni0326" unicode="&#x326;" 
d="M158 -512l94 410h348l-156 -410h-286z" />
    <glyph glyph-name="uni0327" unicode="&#x327;" 
d="M395 -401q-95 0 -166 53l45 104q43 -37 93 -37q33 0 53 16.5t20 43.5t-21.5 43t-62.5 16q-24 0 -55 -8l51 190h127l-22 -94q53 -2 94 -40t41 -109q0 -78 -53.5 -128t-143.5 -50z" />
    <glyph glyph-name="uni0394" unicode="&#x394;" horiz-adv-x="1433" 
d="M20 0l494 1434h408l491 -1434h-1393zM442 270h461l-229 791z" />
    <glyph glyph-name="uni03A9" unicode="&#x3a9;" horiz-adv-x="1556" 
d="M82 0v270h356v47q-58 23 -104 49.5t-95 70.5t-82 97t-54 131.5t-21 172.5q0 294 183 466.5t513 172.5t513.5 -172.5t183.5 -466.5q0 -94 -21.5 -172.5t-54.5 -131.5t-82.5 -97t-95.5 -70t-103 -50v-47h357v-270h-615v498q73 15 123.5 65t73 115t22.5 141q0 167 -78 271
t-223 104t-223 -104t-78 -271q0 -76 22.5 -141t73 -115t123.5 -65v-498h-614z" />
    <glyph glyph-name="mu" unicode="&#x3bc;" horiz-adv-x="1228" 
d="M117 -430v1509h389v-551q0 -104 22 -155t74 -51q32 0 54.5 12.5t35.5 33t20 57t9 74t2 95.5v485h389v-1079h-356v207h-4q-20 -92 -71.5 -153.5t-137.5 -61.5q-19 0 -29 2l-4 -4v-420h-393z" />
    <glyph glyph-name="pi" unicode="&#x3c0;" horiz-adv-x="1341" 
d="M1143 -25q-189 0 -283 85t-94 270v463h-203v-793h-389v784h-4q-24 0 -56 -15t-53 -38l-120 230q59 59 160.5 88.5t193.5 29.5h995v-286h-135v-359q0 -60 8.5 -97t28 -52.5t38 -19.5t50.5 -3v-270q-83 -17 -137 -17z" />
    <glyph glyph-name="uni0401" unicode="&#x401;" horiz-adv-x="1105" 
d="M129 0v1434h881v-328h-488v-209h441v-328h-441v-241h502v-328h-895zM186 1516v286h308v-286h-308zM678 1516v286h307v-286h-307z" />
    <glyph glyph-name="uni0402" unicode="&#x402;" horiz-adv-x="1454" 
d="M1077 1434v-328h-407v-246q140 55 272 55q111 0 197 -36.5t139 -101.5t79.5 -150t26.5 -187q0 -206 -101.5 -429t-281.5 -392l-270 227q112 108 177 263t65 299q0 96 -39 148t-113 52q-70 0 -151 -49v-559h-398v1106h-247v328h1052z" />
    <glyph glyph-name="uni0403" unicode="&#x403;" horiz-adv-x="1064" 
d="M129 0v1434h885v-328h-488v-1106h-397zM410 1520l122 282h381l-245 -282h-258z" />
    <glyph glyph-name="uni0404" unicode="&#x404;" horiz-adv-x="1310" 
d="M930 303q164 0 299 41v-317q-169 -52 -340 -52q-390 0 -599.5 197.5t-209.5 542.5q0 347 205.5 545t582.5 198q198 0 363 -67v-324q-151 68 -330 68q-325 0 -389 -263h518v-262h-528q54 -307 428 -307z" />
    <glyph glyph-name="uni0405" unicode="&#x405;" horiz-adv-x="1085" 
d="M453 -25q-191 0 -392 62v315q185 -84 383 -84q96 0 142.5 31t46.5 96q0 25 -6.5 46t-23.5 39.5t-31.5 30.5t-46 28t-50 24t-59.5 25q-46 19 -74 31.5t-72 36.5t-71 45t-59 54.5t-50 69.5t-30.5 84.5t-12.5 104.5q0 115 45 202.5t124.5 139t181 77t223.5 25.5
q176 0 340 -53v-289q-134 49 -308 49q-45 0 -77.5 -4.5t-60.5 -16.5t-42 -35t-14 -58q0 -27 11 -50.5t25.5 -39.5t46 -34t53.5 -28.5t67 -30.5q8 -3 23 -10q37 -16 56.5 -24.5t55 -26t55.5 -30.5t49.5 -35t46.5 -42t37.5 -48.5t31 -58t18 -67.5t7.5 -80q0 -124 -43.5 -216.5
t-123.5 -147t-185 -81t-237 -26.5z" />
    <glyph glyph-name="uni0406" unicode="&#x406;" horiz-adv-x="634" 
d="M119 0v1434h397v-1434h-397z" />
    <glyph glyph-name="uni0407" unicode="&#x407;" horiz-adv-x="634" 
d="M119 0v1434h397v-1434h-397zM0 1516v286h266v-286h-266zM369 1516v286h266v-286h-266z" />
    <glyph glyph-name="uni0408" unicode="&#x408;" horiz-adv-x="778" 
d="M203 -25q-77 0 -162 25v322q40 -15 82 -15q30 0 52.5 10.5t36.5 32.5t23.5 47t13.5 63t5.5 70.5t1.5 79.5v824h397v-938q0 -255 -116 -388t-334 -133z" />
    <glyph glyph-name="uni0409" unicode="&#x409;" horiz-adv-x="1945" 
d="M20 -8v315q15 -6 31 -6q110 0 149 160q28 115 27 410v68v85v410h1037v-471h102q262 0 400.5 -127t138.5 -365q0 -229 -138.5 -350t-400.5 -121h-500v1106h-264v-123q0 -149 -4 -257.5t-15 -220t-31.5 -188t-54 -145.5t-80.5 -109.5t-112.5 -64t-150.5 -23.5
q-47 0 -134 17zM1264 287h82q161 0 161 184q0 164 -161 164h-82v-348z" />
    <glyph glyph-name="uni040A" unicode="&#x40a;" horiz-adv-x="1945" 
d="M129 0v1434h397v-512h351v512h397v-512h112q252 0 385.5 -121t133.5 -350q0 -220 -133.5 -335.5t-385.5 -115.5h-509v594h-351v-594h-397zM1274 287h106q61 0 94 43t33 121q0 70 -32.5 106.5t-94.5 36.5h-106v-307z" />
    <glyph glyph-name="uni040B" unicode="&#x40b;" horiz-adv-x="1495" 
d="M1077 1434v-328h-407v-227q104 36 239 36q244 0 369 -105.5t125 -334.5v-475h-397v406q0 114 -38.5 160t-138.5 46q-79 0 -159 -26v-586h-398v1106h-247v328h1052z" />
    <glyph glyph-name="uni040C" unicode="&#x40c;" horiz-adv-x="1320" 
d="M129 0v1434h397v-598h15l338 598h432l-404 -680l414 -754h-451l-327 657h-17v-657h-397zM555 1520l123 282h381l-246 -282h-258z" />
    <glyph glyph-name="uni040E" unicode="&#x40e;" horiz-adv-x="1269" 
d="M180 313q79 -28 137 -28q105 0 156 86l-461 1063h424l217 -615h9l184 615h411l-430 -1098q-76 -194 -177 -277.5t-265 -83.5q-103 0 -205 45v293zM635 1487q-167 0 -268 87.5t-111 262.5h256q7 -125 123 -125t123 125h256q-10 -175 -111 -262.5t-268 -87.5z" />
    <glyph glyph-name="uni040F" unicode="&#x40f;" horiz-adv-x="1443" 
d="M539 -334v334h-410v1434h397v-1164h392v1164h397v-1434h-408v-334h-368z" />
    <glyph glyph-name="uni0410" unicode="&#x410;" horiz-adv-x="1413" 
d="M10 0l461 1434h471l461 -1434h-428l-76 270h-407l-74 -270h-408zM696 1001l-127 -454h254z" />
    <glyph glyph-name="uni0411" unicode="&#x411;" horiz-adv-x="1249" 
d="M129 0v1434h965v-316h-568v-225h88q114 0 200 -12.5t159.5 -44t120 -83.5t72.5 -132.5t26 -188.5q0 -115 -36.5 -200t-102.5 -135t-151.5 -73.5t-190.5 -23.5h-582zM526 274h111q158 0 158 166q0 98 -43 133t-127 35h-99v-334z" />
    <glyph glyph-name="uni0412" unicode="&#x412;" horiz-adv-x="1249" 
d="M129 0v1434h569q97 0 178 -21t144.5 -64t99 -114.5t35.5 -165.5q0 -129 -71 -214t-197 -120v-4q42 -6 80.5 -17.5t82 -36.5t74.5 -59t51.5 -89t20.5 -123q0 -106 -42 -185.5t-118.5 -127t-174.5 -70.5t-218 -23h-514zM526 270h88q83 0 131 38.5t48 133.5t-47 130.5
t-144 35.5h-76v-338zM526 866h66q74 0 117 34.5t43 123.5q0 78 -33.5 108.5t-100.5 30.5h-92v-297z" />
    <glyph glyph-name="uni0413" unicode="&#x413;" horiz-adv-x="1064" 
d="M129 0v1434h885v-328h-488v-1106h-397z" />
    <glyph glyph-name="uni0414" unicode="&#x414;" horiz-adv-x="1525" 
d="M10 -334v662h156q73 169 90.5 313t17.5 418v375h1069v-1106h164v-662h-368v334h-760v-334h-369zM647 989q0 -125 -2.5 -192t-12.5 -158.5t-34.5 -166.5t-65.5 -153h414v787h-299v-117z" />
    <glyph glyph-name="uni0415" unicode="&#x415;" horiz-adv-x="1105" 
d="M129 0v1434h881v-328h-488v-209h441v-328h-441v-241h502v-328h-895z" />
    <glyph glyph-name="uni0416" unicode="&#x416;" horiz-adv-x="1925" 
d="M1464 0l-301 657h-12v-657h-377v657h-14l-299 -657h-451l387 754l-377 680h433l309 -598h12v598h377v-598h10l312 598h432l-379 -680l389 -754h-451z" />
    <glyph glyph-name="uni0417" unicode="&#x417;" horiz-adv-x="1105" 
d="M434 -25q-177 0 -383 72v322q202 -84 355 -84q253 0 253 157q0 68 -60.5 105t-205.5 37h-155v313h155q236 0 236 127q0 63 -47 95t-154 32q-182 0 -322 -70v314q183 63 375 63q276 0 411.5 -106t135.5 -285q0 -119 -69.5 -205t-190.5 -117v-4q131 -21 214 -109.5
t83 -221.5q0 -92 -38 -169.5t-113 -137.5t-198 -94t-282 -34z" />
    <glyph glyph-name="uni0418" unicode="&#x418;" horiz-adv-x="1515" 
d="M129 0v1434h381v-615l-12 -352h12l88 203l332 764h456v-1434h-380v614l12 353h-12l-105 -240l-315 -727h-457z" />
    <glyph glyph-name="uni0419" unicode="&#x419;" horiz-adv-x="1515" 
d="M129 0v1434h381v-615l-12 -352h12l88 203l332 764h456v-1434h-380v614l12 353h-12l-105 -240l-315 -727h-457zM758 1487q-167 0 -268 87.5t-111 262.5h256q7 -125 123 -125t123 125h256q-10 -175 -111 -262.5t-268 -87.5z" />
    <glyph glyph-name="uni041A" unicode="&#x41a;" horiz-adv-x="1320" 
d="M129 0v1434h397v-598h15l338 598h432l-404 -680l414 -754h-451l-327 657h-17v-657h-397z" />
    <glyph glyph-name="uni041B" unicode="&#x41b;" horiz-adv-x="1474" 
d="M156 -25q-49 0 -136 17v315q15 -6 37 -6q109 0 147 162q28 117 27 415v65v81v410h1115v-1434h-398v1106h-342v-123q0 -129 -3 -227t-11.5 -198.5t-23.5 -174t-38 -142.5t-57 -115.5t-79 -82t-104.5 -52t-133.5 -16.5z" />
    <glyph glyph-name="uni041C" unicode="&#x41c;" horiz-adv-x="1761" 
d="M129 0v1434h508l254 -691l254 691h487v-1434h-377v973h-6l-254 -662h-250l-239 658v-969h-377z" />
    <glyph glyph-name="uni041D" unicode="&#x41d;" horiz-adv-x="1474" 
d="M129 0v1434h397v-533h422v533h398v-1434h-398v573h-422v-573h-397z" />
    <glyph glyph-name="uni041E" unicode="&#x41e;" horiz-adv-x="1536" 
d="M768 -25q-335 0 -511.5 194.5t-176.5 547.5q0 355 178 548t510 193q335 0 511.5 -194t176.5 -547q0 -355 -178 -548.5t-510 -193.5zM768 283q72 0 126 34t85.5 95t47 137.5t15.5 167.5q0 94 -16 171t-48.5 137t-86 93t-123.5 33q-72 0 -126 -34t-85.5 -95t-47 -137.5
t-15.5 -167.5q0 -94 16 -171t48.5 -137t86 -93t123.5 -33z" />
    <glyph glyph-name="uni041F" unicode="&#x41f;" horiz-adv-x="1454" 
d="M129 0v1434h1196v-1434h-397v1106h-402v-1106h-397z" />
    <glyph glyph-name="uni0420" unicode="&#x420;" horiz-adv-x="1228" 
d="M129 0v1434h498q278 0 416.5 -126t138.5 -352q0 -233 -134 -363t-421 -130h-101v-463h-397zM526 750h86q172 0 172 202q0 195 -172 195h-86v-397z" />
    <glyph glyph-name="uni0421" unicode="&#x421;" horiz-adv-x="1290" 
d="M877 -25q-201 0 -355.5 56.5t-250 157.5t-143.5 233.5t-48 292.5q0 186 58 329.5t162.5 233t244 135t309.5 45.5q86 0 170 -14t125 -28l41 -15v-326q-145 68 -309 68q-177 0 -283 -106.5t-106 -325.5q0 -112 30.5 -194.5t86.5 -130.5t128 -70.5t162 -22.5q150 0 291 43
v-303q-168 -58 -313 -58z" />
    <glyph glyph-name="uni0422" unicode="&#x422;" horiz-adv-x="1146" 
d="M375 0v1106h-346v328h1089v-328h-346v-1106h-397z" />
    <glyph glyph-name="uni0423" unicode="&#x423;" horiz-adv-x="1269" 
d="M180 313q79 -28 137 -28q105 0 156 86l-461 1063h424l217 -615h9l184 615h411l-430 -1098q-76 -194 -177 -277.5t-265 -83.5q-103 0 -205 45v293z" />
    <glyph glyph-name="uni0424" unicode="&#x424;" horiz-adv-x="1781" 
d="M692 -25v164h-41q-271 0 -431.5 161.5t-160.5 436.5q0 276 160 437t436 161h37v164h398v-164h38q275 0 434.5 -161t159.5 -437q0 -275 -160.5 -436.5t-431.5 -161.5h-40v-164h-398zM655 442h45v590h-45q-87 0 -136.5 -71t-49.5 -224t49.5 -224t136.5 -71zM1081 442h47
q87 0 136 71t49 224t-49 224t-136 71h-47v-590z" />
    <glyph glyph-name="uni0425" unicode="&#x425;" horiz-adv-x="1413" 
d="M940 0l-246 471l-243 -471h-433l453 754l-403 680h444l209 -416l215 416h418l-408 -680l449 -754h-455z" />
    <glyph glyph-name="uni0426" unicode="&#x426;" horiz-adv-x="1505" 
d="M1118 -334v334h-989v1434h397v-1106h402v1106h397v-1106h162v-662h-369z" />
    <glyph glyph-name="uni0427" unicode="&#x427;" horiz-adv-x="1331" 
d="M805 0v498q-103 -23 -211 -23q-251 0 -376.5 105t-125.5 335v519h397v-449q0 -115 38.5 -161t142.5 -46q62 0 135 17v639h397v-1434h-397z" />
    <glyph glyph-name="uni0428" unicode="&#x428;" horiz-adv-x="1974" 
d="M129 0v1434h397v-1106h271v1106h381v-1106h270v1106h397v-1434h-1716z" />
    <glyph glyph-name="uni0429" unicode="&#x429;" horiz-adv-x="2027" 
d="M129 0v1434h397v-1106h271v1106h381v-1106h270v1106h397v-1106h164v-662h-369v334h-1511z" />
    <glyph glyph-name="uni042A" unicode="&#x42a;" horiz-adv-x="1351" 
d="M272 0v1102h-247v332h645v-476h82q294 0 426.5 -119t132.5 -360q0 -224 -140.5 -351.5t-418.5 -127.5h-480zM670 287h82q78 0 119.5 50t41.5 142q0 93 -41.5 143t-119.5 50h-82v-385z" />
    <glyph glyph-name="uni042B" unicode="&#x42b;" horiz-adv-x="1792" 
d="M129 0v1434h397v-476h78q281 0 409 -119.5t128 -359.5q0 -224 -134.5 -351.5t-402.5 -127.5h-475zM526 287h78q67 0 103 50t36 142q0 93 -36 143t-103 50h-78v-385zM1266 0v1434h397v-1434h-397z" />
    <glyph glyph-name="uni042C" unicode="&#x42c;" horiz-adv-x="1208" 
d="M129 0v1434h397v-476h82q294 0 426.5 -119t132.5 -360q0 -224 -140.5 -351.5t-418.5 -127.5h-479zM526 287h82q78 0 120 50t42 142t-42 142.5t-120 50.5h-82v-385z" />
    <glyph glyph-name="uni042D" unicode="&#x42d;" horiz-adv-x="1310" 
d="M381 303q374 0 428 307h-528v262h518q-64 263 -389 263q-179 0 -330 -68v324q165 67 362 67q377 0 583 -198t206 -545q0 -345 -209.5 -542.5t-599.5 -197.5q-171 0 -340 52v317q135 -41 299 -41z" />
    <glyph glyph-name="uni042E" unicode="&#x42e;" horiz-adv-x="2037" 
d="M1300 -25q-279 0 -439.5 164t-192.5 443h-142v-582h-397v1434h397v-545h144q38 277 204 423t426 146q320 0 489 -196t169 -545t-169 -545.5t-489 -196.5zM1300 283q66 0 114.5 36t76 99t40.5 137.5t13 161.5q0 125 -23.5 219t-79.5 154.5t-141 60.5q-65 0 -113.5 -34.5
t-76 -96.5t-40.5 -137.5t-13 -165.5q0 -92 13.5 -168t41 -137t75.5 -95t113 -34z" />
    <glyph glyph-name="uni042F" unicode="&#x42f;" horiz-adv-x="1290" 
d="M14 0l289 575q-219 123 -219 386q0 220 141 346.5t414 126.5h522v-1434h-397v471h-119l-194 -471h-437zM653 760h111v393h-111q-81 0 -126.5 -52t-45.5 -143q0 -93 45.5 -145.5t126.5 -52.5z" />
    <glyph glyph-name="uni0430" unicode="&#x430;" horiz-adv-x="1142" 
d="M371 -25q-65 0 -122.5 20t-103.5 59.5t-73 104.5t-27 148q0 85 28.5 149t75 102.5t114.5 62.5t137 32.5t153 8.5h115v14q0 151 -207 151q-150 0 -318 -43v269q198 45 392 45q113 0 204 -23t162.5 -71.5t110.5 -132.5t39 -199v-672h-357v168h-6q-47 -91 -131.5 -142
t-185.5 -51zM518 219q59 0 104.5 70.5t45.5 150.5v35h-76q-73 0 -118.5 -39.5t-45.5 -107.5q0 -53 27 -81t63 -28z" />
    <glyph glyph-name="uni0431" unicode="&#x431;" horiz-adv-x="1269" 
d="M662 -25q-132 0 -233 34.5t-169.5 97.5t-112 158t-62.5 208.5t-19 255.5q0 169 18 292t60 223t113.5 164t177 102.5t251.5 50.5q55 5 138 9.5t121 8t96.5 14.5t119.5 31v-326q-42 -14 -80.5 -23t-84.5 -14t-70 -7t-82.5 -5t-75.5 -4q-102 -5 -167 -23.5t-108.5 -59.5
t-61 -105t-17.5 -164v-25q122 201 352 201q86 0 158.5 -30.5t123.5 -83t86.5 -121.5t52.5 -145.5t17 -156.5q0 -179 -71.5 -306.5t-192 -189t-278.5 -61.5zM647 262q73 0 116.5 70.5t43.5 189.5q0 118 -44 189t-116 71q-73 0 -117.5 -71.5t-44.5 -190.5q0 -118 44.5 -188
t117.5 -70z" />
    <glyph glyph-name="uni0432" unicode="&#x432;" horiz-adv-x="1120" 
d="M1055 817q0 -97 -64.5 -159.5t-161.5 -90.5v-4q120 -28 187 -85.5t67 -168.5q0 -146 -105.5 -227.5t-272.5 -81.5h-588v1079h588q153 0 251.5 -70t98.5 -192zM498 215h67q119 0 119 123q0 73 -32.5 99t-88.5 26h-65v-248zM498 657h63q45 0 74 28t29 81q0 98 -103 98h-63
v-207z" />
    <glyph glyph-name="uni0433" unicode="&#x433;" horiz-adv-x="890" 
d="M117 0v1079h721v-286h-332v-793h-389z" />
    <glyph glyph-name="uni0434" unicode="&#x434;" horiz-adv-x="1218" 
d="M8 287h98q61 114 77 237t16 332v223h880v-792h119v-588h-358v301h-473v-301h-359v588zM539 702q0 -141 -17 -246t-61 -190h239v527h-161v-91z" />
    <glyph glyph-name="uni0435" unicode="&#x435;" horiz-adv-x="1177" 
d="M1102 426h-639q21 -101 80.5 -143.5t167.5 -42.5q125 0 329 39v-254q-64 -19 -166.5 -34.5t-199.5 -15.5q-290 0 -449 151.5t-159 412.5q0 257 146.5 408t393.5 151t371.5 -160t124.5 -444v-68zM608 854q-131 0 -153 -219h293q5 96 -32.5 157.5t-107.5 61.5z" />
    <glyph glyph-name="uni0436" unicode="&#x436;" horiz-adv-x="1679" 
d="M1251 0l-221 438h-6v-438h-369v438h-6l-221 -438h-444l327 559l-303 520h416l225 -426h6v426h369v-426h6l225 426h416l-303 -520l328 -559h-445z" />
    <glyph glyph-name="uni0437" unicode="&#x437;" horiz-adv-x="983" 
d="M401 -25q-198 0 -335 48v280q125 -61 278 -61q199 0 199 98q0 100 -217 100h-117v211h131q174 0 174 90q0 94 -174 93h-6q-130 0 -256 -46v267q136 43 366 43q66 0 126.5 -7.5t124 -27.5t109.5 -52t75.5 -85.5t29.5 -122.5q0 -169 -196 -248v-4q221 -53 221 -248
q0 -76 -35 -135.5t-88.5 -95t-127 -58.5t-142 -31t-140.5 -8z" />
    <glyph glyph-name="uni0438" unicode="&#x438;" horiz-adv-x="1259" 
d="M117 0v1079h379v-567h4l301 567h342v-1079h-379v565h-4l-314 -565h-329z" />
    <glyph glyph-name="uni0439" unicode="&#x439;" horiz-adv-x="1259" 
d="M117 0v1079h379v-567h4l301 567h342v-1079h-379v565h-4l-314 -565h-329zM631 1192q-155 0 -252.5 81.5t-104.5 242.5h244q3 -53 28 -80t85 -27q58 0 82.5 27t27.5 80h246q-7 -161 -104 -242.5t-252 -81.5z" />
    <glyph glyph-name="uni043A" unicode="&#x43a;" horiz-adv-x="1157" 
d="M117 0v1079h389v-422h8l223 422h416l-303 -518l324 -561h-441l-219 434h-8v-434h-389z" />
    <glyph glyph-name="uni043B" unicode="&#x43b;" horiz-adv-x="1208" 
d="M158 -27q-52 0 -125 13v282q20 -4 28 -4q93 0 114.5 105.5t21.5 381.5v7v321h899v-1079h-389v793h-168v-35q0 -105 -3 -184.5t-10 -158.5t-20 -136t-33 -109.5t-48.5 -87t-67 -60t-88 -37.5t-111.5 -12z" />
    <glyph glyph-name="uni043C" unicode="&#x43c;" horiz-adv-x="1495" 
d="M117 0v1079h444l195 -473l190 473h432v-1079h-379v563h-8l-141 -350h-205l-141 350h-8v-563h-379z" />
    <glyph glyph-name="uni043D" unicode="&#x43d;" horiz-adv-x="1249" 
d="M117 0v1079h389v-383h237v383h390v-1079h-390v410h-237v-410h-389z" />
    <glyph glyph-name="uni043E" unicode="&#x43e;" horiz-adv-x="1269" 
d="M635 -25q-257 0 -413 151t-156 406q0 259 159 412.5t410 153.5q253 0 411 -154.5t158 -411.5q0 -258 -156.5 -407.5t-412.5 -149.5zM635 242q84 0 128 80.5t44 209.5q0 135 -45 217t-127 82q-84 0 -128 -83.5t-44 -215.5t44.5 -211t127.5 -79z" />
    <glyph glyph-name="uni043F" unicode="&#x43f;" horiz-adv-x="1228" 
d="M117 0v1079h995v-1079h-389v793h-217v-793h-389z" />
    <glyph glyph-name="uni0440" unicode="&#x440;" horiz-adv-x="1290" 
d="M506 96v-526h-389v1509h360v-151h4q125 170 324 170q101 0 182 -45t132 -122t78.5 -177t27.5 -213q0 -254 -123.5 -410t-317.5 -156q-166 0 -274 121h-4zM657 262q74 0 123 73.5t49 196.5q0 124 -49 198.5t-123 74.5t-121 -74.5t-47 -200.5q0 -123 47 -195.5t121 -72.5z
" />
    <glyph glyph-name="uni0441" unicode="&#x441;" horiz-adv-x="993" 
d="M649 -25q-270 0 -426.5 149.5t-156.5 407.5q0 255 150.5 410.5t422.5 155.5q164 0 262 -29v-281q-116 27 -182 27q-131 0 -194.5 -64.5t-63.5 -209.5q0 -81 21.5 -137.5t61.5 -87t87.5 -43.5t109.5 -13q63 0 170 29v-285q-128 -29 -262 -29z" />
    <glyph glyph-name="uni0442" unicode="&#x442;" horiz-adv-x="983" 
d="M297 0v793h-268v286h925v-286h-268v-793h-389z" />
    <glyph glyph-name="uni0443" unicode="&#x443;" horiz-adv-x="1126" 
d="M297 -461q-67 0 -195 23v305q94 -12 113 -12q55 0 88.5 19.5t52.5 70.5l11 28l-353 1106h412l147 -659h2l154 659h383l-356 -1142q-65 -204 -176 -301t-283 -97z" />
    <glyph glyph-name="uni0444" unicode="&#x444;" horiz-adv-x="1617" 
d="M614 -430v405q-266 3 -407 149t-141 402q0 270 140.5 419.5t407.5 152.5v438h390v-438q265 -3 406.5 -153t141.5 -419q0 -255 -142 -401.5t-406 -149.5v-405h-390zM449 526q0 -143 43 -206.5t131 -63.5h8v561h-8q-88 0 -131 -68.5t-43 -222.5zM995 817h-8v-561h8
q87 0 130.5 63.5t43.5 206.5q0 153 -43.5 222t-130.5 69z" />
    <glyph glyph-name="uni0445" unicode="&#x445;" horiz-adv-x="1105" 
d="M-12 0l315 571l-276 508h448l105 -321l102 321h414l-277 -508l299 -571h-446l-125 344l-144 -344h-415z" />
    <glyph glyph-name="uni0446" unicode="&#x446;" horiz-adv-x="1228" 
d="M881 -301v301h-764v1079h389v-792h182v792h389v-792h131v-588h-327z" />
    <glyph glyph-name="uni0447" unicode="&#x447;" horiz-adv-x="1157" 
d="M651 0v354q-81 -18 -190 -18q-213 0 -299 87.5t-86 289.5v366h389v-313q0 -88 26.5 -121t94.5 -33q42 0 65 4v463h389v-1079h-389z" />
    <glyph glyph-name="uni0448" unicode="&#x448;" horiz-adv-x="1761" 
d="M117 0v1079h389v-792h190v792h369v-792h190v792h390v-1079h-1528z" />
    <glyph glyph-name="uni0449" unicode="&#x449;" horiz-adv-x="1781" 
d="M117 0v1079h389v-792h184v792h367v-792h184v792h389v-792h131v-588h-327v301h-1317z" />
    <glyph glyph-name="uni044A" unicode="&#x44a;" horiz-adv-x="1167" 
d="M199 0v793h-166v286h555v-321h110q222 0 336.5 -100.5t114.5 -266.5q0 -173 -115 -282t-336 -109h-499zM625 512h-37v-266h37q116 0 116 133t-116 133z" />
    <glyph glyph-name="uni044B" unicode="&#x44b;" horiz-adv-x="1587" 
d="M117 0v1079h389v-295h84q114 0 198.5 -30t134.5 -85.5t73.5 -126t23.5 -157.5q0 -177 -97.5 -281t-306.5 -104h-499zM500 254h37q104 0 104 137q0 65 -26.5 102t-77.5 37h-37v-276zM1081 0v1079h389v-1079h-389z" />
    <glyph glyph-name="uni044C" unicode="&#x44c;" horiz-adv-x="1085" 
d="M117 0v1079h389v-321h110q222 0 336.5 -100.5t114.5 -266.5q0 -173 -115 -282t-336 -109h-499zM543 512h-37v-266h37q116 0 116 133t-116 133z" />
    <glyph glyph-name="uni044D" unicode="&#x44d;" horiz-adv-x="1024" 
d="M301 248q220 0 268 192h-372v213h372q-49 176 -254 176q-104 0 -221 -26v266q134 29 258 29q98 0 185 -19t165 -62.5t134 -107t89 -158t33 -210.5q0 -265 -159 -415.5t-441 -150.5q-124 0 -276 37v267q102 -31 219 -31z" />
    <glyph glyph-name="uni044E" unicode="&#x44e;" horiz-adv-x="1716" 
d="M117 0v1079h389v-395h123q42 196 179.5 305t324.5 109q110 0 204 -37.5t164 -108t110 -178.5t40 -242q0 -131 -39.5 -237.5t-109.5 -176t-164.5 -106.5t-204.5 -37q-200 0 -338.5 115t-171.5 324h-117v-414h-389zM1133 246q63 0 93.5 71.5t30.5 221.5q0 154 -31 221
t-93 67q-64 0 -94.5 -69t-30.5 -219q0 -293 125 -293z" />
    <glyph glyph-name="uni044F" unicode="&#x44f;" horiz-adv-x="1146" 
d="M12 0l226 422q-168 101 -168 297q0 168 126.5 264t383.5 96h450v-1079h-389v332h-68l-139 -332h-422zM612 555h35v309h-35q-74 0 -111.5 -38.5t-37.5 -110.5q0 -76 37.5 -118t111.5 -42z" />
    <glyph glyph-name="uni0451" unicode="&#x451;" horiz-adv-x="1177" 
d="M1102 426h-639q21 -101 80.5 -143.5t167.5 -42.5q125 0 329 39v-254q-64 -19 -166.5 -34.5t-199.5 -15.5q-290 0 -449 151.5t-159 412.5q0 257 146.5 408t393.5 151t371.5 -160t124.5 -444v-68zM608 854q-131 0 -153 -219h293q5 96 -32.5 157.5t-107.5 61.5zM215 1235
v270h295v-270h-295zM682 1235v270h295v-270h-295z" />
    <glyph glyph-name="uni0452" unicode="&#x452;" horiz-adv-x="1249" 
d="M-18 1237v156h135v143h389v-143h303v-156h-303v-158l-2 -188h6q131 207 319 207q158 0 243 -119.5t85 -319.5v-669q0 -230 -93.5 -337.5t-303.5 -107.5q-48 0 -148 19v289q56 -7 76 -7q47 0 63.5 39t16.5 115v551q0 104 -27.5 155.5t-91.5 51.5q-143 0 -143 -273v-485
h-389v1237h-135z" />
    <glyph glyph-name="uni0453" unicode="&#x453;" horiz-adv-x="890" 
d="M117 0v1079h721v-286h-332v-793h-389zM311 1208l140 328h380l-262 -328h-258z" />
    <glyph glyph-name="uni0454" unicode="&#x454;" horiz-adv-x="1024" 
d="M723 248q117 0 219 31v-267q-152 -37 -276 -37q-282 0 -441 150.5t-159 415.5q0 116 33 210.5t89 158t134 107t165 62.5t185 19q124 0 258 -29v-266q-117 26 -221 26q-205 0 -254 -176h372v-213h-372q48 -192 268 -192z" />
    <glyph glyph-name="uni0455" unicode="&#x455;" horiz-adv-x="962" 
d="M430 -25q-189 0 -356 52v274q213 -70 321 -70q105 0 105 70q0 11 -2 20.5t-8 18.5t-11 15.5t-16.5 14.5t-19.5 13.5t-24.5 14t-26.5 13.5t-31 15t-33 16q-7 3 -33.5 15.5t-36.5 17.5t-34.5 18.5t-35.5 22.5t-31.5 25.5t-30.5 31t-23.5 35.5t-20 43t-11.5 50t-5 59
q0 92 36 159.5t99 105.5t139 55.5t166 17.5q177 0 328 -68v-262q-160 68 -283 68q-109 0 -109 -64q0 -16 7 -28t23 -22.5t31 -17.5t42.5 -19t46.5 -21q16 -8 50.5 -24t53.5 -25.5t50 -27.5t49 -33.5t40 -40.5t33.5 -51.5t20 -62.5t8.5 -77q0 -347 -467 -347z" />
    <glyph glyph-name="uni0456" unicode="&#x456;" horiz-adv-x="593" 
d="M102 0v1079h390v-1079h-390zM106 1241v270h381v-270h-381z" />
    <glyph glyph-name="uni0457" unicode="&#x457;" horiz-adv-x="593" 
d="M102 0v1079h390v-1079h-390zM18 1241v270h234v-270h-234zM342 1241v270h233v-270h-233z" />
    <glyph glyph-name="uni0458" unicode="&#x458;" horiz-adv-x="593" 
d="M98 -455q-51 0 -151 19v289q56 -7 69 -7q52 0 69 38t17 116v1079h390v-1089q0 -227 -96.5 -336t-297.5 -109zM106 1241v270h381v-270h-381z" />
    <glyph glyph-name="uni0459" unicode="&#x459;" horiz-adv-x="1689" 
d="M33 -14v282q20 -4 28 -4q93 0 114.5 105.5t21.5 381.5v7v321h909v-344h90q234 0 354.5 -101.5t120.5 -266.5q0 -163 -121 -265t-354 -102h-479v793h-178v-35q0 -105 -3 -185t-10.5 -158.5t-20.5 -135.5t-33 -109.5t-48.5 -87t-66.5 -60t-87.5 -37.5t-111.5 -12
q-52 0 -125 13zM1106 246h49q125 0 125 121q0 122 -125 122h-49v-243z" />
    <glyph glyph-name="uni045A" unicode="&#x45a;" horiz-adv-x="1689" 
d="M117 0v1079h389v-383h219v383h389v-383h80q234 0 355.5 -96.5t121.5 -251.5t-121.5 -251.5t-355.5 -96.5h-469v451h-219v-451h-389zM1112 246h41q127 0 127 102q0 103 -127 103h-41v-205z" />
    <glyph glyph-name="uni045B" unicode="&#x45b;" horiz-adv-x="1249" 
d="M-18 1237v156h135v143h389v-143h303v-156h-303v-158l-2 -188h6q131 207 319 207q158 0 243 -119.5t85 -319.5v-659h-389v551q0 104 -27.5 155.5t-91.5 51.5q-143 0 -143 -273v-485h-389v1237h-135z" />
    <glyph glyph-name="uni045C" unicode="&#x45c;" horiz-adv-x="1157" 
d="M117 0v1079h389v-422h8l223 422h416l-303 -518l324 -561h-441l-219 434h-8v-434h-389zM444 1208l140 328h381l-263 -328h-258z" />
    <glyph glyph-name="uni045E" unicode="&#x45e;" horiz-adv-x="1126" 
d="M297 -461q-67 0 -195 23v305q94 -12 113 -12q55 0 88.5 19.5t52.5 70.5l11 28l-353 1106h412l147 -659h2l154 659h383l-356 -1142q-65 -204 -176 -301t-283 -97zM571 1192q-155 0 -252 81.5t-104 242.5h244q3 -53 27.5 -80t84.5 -27q58 0 83 27t28 80h246
q-7 -161 -104.5 -242.5t-252.5 -81.5z" />
    <glyph glyph-name="uni045F" unicode="&#x45f;" horiz-adv-x="1218" 
d="M444 -301v301h-327v1079h389v-792h207v792h389v-1079h-328v-301h-330z" />
    <glyph glyph-name="uni0462" unicode="&#x462;" horiz-adv-x="1290" 
d="M16 1065v205h195v164h397v-164h346v-205h-346v-147h86q292 0 423.5 -113t131.5 -342q0 -216 -139.5 -339.5t-415.5 -123.5h-483v1065h-195zM608 287h86q76 0 117 44.5t41 127.5t-41 127.5t-117 44.5h-86v-344z" />
    <glyph glyph-name="uni0463" unicode="&#x463;" horiz-adv-x="1167" 
d="M33 793v286h166v457h389v-457h342v-286h-342v-117h110q222 0 336.5 -90t114.5 -236q0 -156 -115 -253t-336 -97h-499v793h-166zM588 246h37q116 0 116 92t-116 92h-37v-184z" />
    <glyph glyph-name="uni0472" unicode="&#x472;" horiz-adv-x="1536" 
d="M768 -25q-335 0 -511.5 194.5t-176.5 547.5q0 355 178 548t510 193q335 0 511.5 -194t176.5 -547q0 -355 -178 -548.5t-510 -193.5zM768 283q119 0 185.5 89.5t82.5 239.5h-538q18 -153 85 -241t185 -88zM768 1151q-115 0 -181.5 -85t-86.5 -228h534q-20 144 -86 228.5
t-180 84.5z" />
    <glyph glyph-name="uni0473" unicode="&#x473;" horiz-adv-x="1269" 
d="M635 -25q-257 0 -413 151t-156 406q0 259 159 412.5t410 153.5q253 0 411 -154.5t158 -411.5q0 -258 -156.5 -407.5t-412.5 -149.5zM635 242q67 0 108.5 52t55.5 142h-330q14 -91 57 -142.5t109 -51.5zM635 831q-65 0 -106.5 -50t-57.5 -136h326q-15 87 -57 136.5
t-105 49.5z" />
    <glyph glyph-name="uni0474" unicode="&#x474;" horiz-adv-x="1372" 
d="M430 0l-444 1434h422l270 -1065h2l170 710q49 202 141 290.5t248 88.5q60 0 145 -20v-293q-42 10 -61 10q-32 0 -53 -20.5t-30.5 -45t-31.5 -94.5q-3 -8 -4 -12l-291 -983h-483z" />
    <glyph glyph-name="uni0475" unicode="&#x475;" horiz-adv-x="1136" 
d="M324 0l-312 1079h400l153 -676l66 299q27 121 56 196.5t71.5 120.5t93.5 62t127 17q50 0 162 -11v-333h-31q-30 0 -48 -3.5t-38 -16.5t-34.5 -41t-28.5 -75l-179 -618h-458z" />
    <glyph glyph-name="uni0490" unicode="&#x490;" horiz-adv-x="1064" 
d="M129 0v1434h547v333h368v-661h-518v-1106h-397z" />
    <glyph glyph-name="uni0491" unicode="&#x491;" horiz-adv-x="901" 
d="M117 0v1079h424v301h327v-587h-362v-793h-389z" />
    <glyph glyph-name="uni0492" unicode="&#x492;" horiz-adv-x="1105" 
d="M170 0v586h-147v225h147v623h885v-328h-488v-295h355v-225h-355v-586h-397z" />
    <glyph glyph-name="uni0493" unicode="&#x493;" horiz-adv-x="911" 
d="M137 0v367h-110v225h110v487h721v-286h-332v-201h207v-225h-207v-367h-389z" />
    <glyph glyph-name="uni0494" unicode="&#x494;" horiz-adv-x="1300" 
d="M788 -455q-80 0 -241 27v307q61 -14 135 -14q78 0 108.5 55t30.5 158v301q0 114 -35 160.5t-127 46.5q-55 0 -133 -19v-567h-397v1434h903v-328h-506v-250q128 33 246 33q222 0 334.5 -105.5t112.5 -334.5v-383q0 -255 -109 -388t-322 -133z" />
    <glyph glyph-name="uni0495" unicode="&#x495;" horiz-adv-x="1064" 
d="M117 0v1079h721v-286h-332v-179q89 17 184 17q322 0 322 -322v-319q0 -230 -94 -337.5t-304 -107.5q-40 0 -137 19v289q57 -5 60 -5q54 0 70 30.5t16 121.5v260q0 51 -18 72.5t-66 21.5q-21 0 -33 -2v-352h-389z" />
    <glyph glyph-name="uni0496" unicode="&#x496;" horiz-adv-x="1925" 
d="M1464 0l-301 657h-12v-657h-377v657h-14l-299 -657h-451l387 754l-377 680h433l309 -598h12v598h377v-598h10l312 598h432l-379 -680l219 -426h170v-662h-369v334h-82z" />
    <glyph glyph-name="uni0497" unicode="&#x497;" horiz-adv-x="1699" 
d="M1251 0l-219 434h-8v-434h-369v434h-8l-219 -434h-444l331 559l-307 520h416l223 -422h8v422h369v-422h8l223 422h416l-307 -520l162 -272h153v-588h-327v301h-101z" />
    <glyph glyph-name="uni0498" unicode="&#x498;" horiz-adv-x="1105" 
d="M682 -334h-348v316q-148 15 -283 65v322q202 -84 355 -84q253 0 253 157q0 68 -60.5 105t-205.5 37h-155v313h155q236 0 236 127q0 63 -47 95t-154 32q-182 0 -322 -70v314q183 63 375 63q276 0 411.5 -106t135.5 -285q0 -119 -69.5 -205t-190.5 -117v-4
q131 -21 214 -109.5t83 -221.5q0 -147 -96.5 -256.5t-286.5 -153.5v-334z" />
    <glyph glyph-name="uni0499" unicode="&#x499;" horiz-adv-x="983" 
d="M625 -287h-328v267q-136 10 -231 43v280q125 -61 278 -61q199 0 199 98q0 100 -217 100h-117v211h131q174 0 174 90q0 94 -174 93h-6q-130 0 -256 -46v267q136 43 366 43q66 0 126.5 -7.5t124 -27.5t109.5 -52t75.5 -85.5t29.5 -122.5q0 -169 -196 -248v-4
q221 -53 221 -248q0 -66 -25 -119t-69.5 -89t-97.5 -59.5t-117 -37.5v-285z" />
    <glyph glyph-name="uni049A" unicode="&#x49a;" horiz-adv-x="1320" 
d="M129 0v1434h397v-598h15l338 598h432l-404 -680l234 -426h180v-662h-369v334h-82l-327 657h-17v-657h-397z" />
    <glyph glyph-name="uni049B" unicode="&#x49b;" horiz-adv-x="1177" 
d="M117 0v1079h389v-422h8l223 422h416l-303 -518l158 -274h149v-588h-328v301h-96l-219 434h-8v-434h-389z" />
    <glyph glyph-name="uni049C" unicode="&#x49c;" horiz-adv-x="1454" 
d="M1004 0l-302 604h-24v-219h-103v219h-49v-604h-397v1434h397v-551h49v213h103v-213h22l312 551h432l-404 -680l414 -754h-450z" />
    <glyph glyph-name="uni049D" unicode="&#x49d;" horiz-adv-x="1280" 
d="M852 0l-213 440h-12v-198h-82v198h-39v-440h-389v1079h389v-411h39v196h82v-196h18l205 411h416l-281 -520l311 -559h-444z" />
    <glyph glyph-name="uni04A0" unicode="&#x4a0;" horiz-adv-x="1464" 
d="M272 0v1102h-247v332h645v-598h14l338 598h432l-403 -680l413 -754h-450l-328 657h-16v-657h-398z" />
    <glyph glyph-name="uni04A1" unicode="&#x4a1;" horiz-adv-x="1239" 
d="M199 0v793h-166v286h571l-16 -12v-410h8l223 422h416l-303 -518l323 -561h-440l-219 434h-8v-434h-389z" />
    <glyph glyph-name="uni04A2" unicode="&#x4a2;" horiz-adv-x="1525" 
d="M1139 -334v334h-191v573h-422v-573h-397v1434h397v-533h422v533h398v-1106h161v-662h-368z" />
    <glyph glyph-name="uni04A3" unicode="&#x4a3;" horiz-adv-x="1269" 
d="M891 -301v301h-148v410h-237v-410h-389v1079h389v-383h237v383h390v-792h116v-588h-358z" />
    <glyph glyph-name="uni04A4" unicode="&#x4a4;" horiz-adv-x="1884" 
d="M129 0v1434h397v-533h422v533h903v-328h-505v-1106h-398v573h-422v-573h-397z" />
    <glyph glyph-name="uni04A5" unicode="&#x4a5;" horiz-adv-x="1536" 
d="M117 0v1079h389v-383h256v383h721v-286h-332v-793h-389v410h-256v-410h-389z" />
    <glyph glyph-name="uni04AA" unicode="&#x4aa;" horiz-adv-x="1290" 
d="M924 -334h-349v348q-247 70 -371 256t-124 445q0 186 58 329.5t162.5 233t244 135t309.5 45.5q86 0 170 -14t125 -28l41 -15v-326q-145 68 -309 68q-177 0 -283 -106.5t-106 -325.5q0 -112 30.5 -194.5t86.5 -130.5t128 -70.5t162 -22.5q150 0 291 43v-303
q-148 -51 -266 -56v-311z" />
    <glyph glyph-name="uni04AB" unicode="&#x4ab;" horiz-adv-x="993" 
d="M719 -287h-328v307q-156 59 -240.5 191.5t-84.5 320.5q0 255 150.5 410.5t422.5 155.5q164 0 262 -29v-281q-116 27 -182 27q-131 0 -194.5 -64.5t-63.5 -209.5q0 -81 21.5 -137.5t61.5 -87t87.5 -43.5t109.5 -13q63 0 170 29v-285q-84 -19 -192 -27v-264z" />
    <glyph glyph-name="uni04AE" unicode="&#x4ae;" horiz-adv-x="1331" 
d="M-6 1434h432l238 -543h2l239 543h432l-473 -924v-510h-397v510z" />
    <glyph glyph-name="uni04AF" unicode="&#x4af;" horiz-adv-x="1105" 
d="M12 1079h402l149 -647h4l146 647h381l-346 -1149v-360h-390v360z" />
    <glyph glyph-name="uni04B0" unicode="&#x4b0;" horiz-adv-x="1331" 
d="M-6 1434h432l238 -543h2l239 543h432l-403 -787h192v-225h-262v-422h-397v422h-242v225h170z" />
    <glyph glyph-name="uni04B1" unicode="&#x4b1;" horiz-adv-x="1105" 
d="M12 1079h402l149 -647h4l146 647h381l-314 -1038h211v-209h-243v-262h-390v262h-243v209h209z" />
    <glyph glyph-name="uni04B2" unicode="&#x4b2;" horiz-adv-x="1413" 
d="M940 0l-246 471l-243 -471h-433l453 754l-403 680h444l209 -416l215 416h418l-408 -680l254 -426h195v-662h-369v334h-86z" />
    <glyph glyph-name="uni04B3" unicode="&#x4b3;" horiz-adv-x="1126" 
d="M-12 0l315 571l-276 508h448l105 -327l102 327h414l-277 -508l148 -284h139v-588h-358v301h-76l-123 350l-146 -350h-415z" />
    <glyph glyph-name="uni04B6" unicode="&#x4b6;" horiz-adv-x="1382" 
d="M805 0v498q-103 -23 -211 -23q-251 0 -376.5 105t-125.5 335v519h397v-449q0 -115 38.5 -161t142.5 -46q62 0 135 17v639h397v-1106h162v-662h-369v334h-190z" />
    <glyph glyph-name="uni04B7" unicode="&#x4b7;" horiz-adv-x="1177" 
d="M651 0v354q-81 -18 -190 -18q-213 0 -299 87.5t-86 289.5v366h389v-313q0 -88 26.5 -121t94.5 -33q42 0 65 4v463h389v-792h117v-588h-358v301h-148z" />
    <glyph glyph-name="uni04B8" unicode="&#x4b8;" horiz-adv-x="1351" 
d="M608 993h103v-215q50 5 114 19v637h398v-1434h-398v500q-64 -14 -114 -19v-198h-103v192h-14q-251 0 -376.5 105t-125.5 335v519h397v-449q0 -97 26 -144t93 -59v211z" />
    <glyph glyph-name="uni04B9" unicode="&#x4b9;" horiz-adv-x="1177" 
d="M532 825h82v-196q41 5 58 8v442h389v-1079h-389v377q-29 -9 -58 -12v-162h-82v151q-25 -2 -71 -2q-213 0 -299 87.5t-86 289.5v350h391v-297q0 -70 14.5 -103.5t50.5 -43.5v190z" />
    <glyph glyph-name="uni04BA" unicode="&#x4ba;" horiz-adv-x="1351" 
d="M526 1434v-555q104 36 240 36q244 0 369 -105.5t125 -334.5v-475h-398v406q0 114 -38 160t-138 46q-80 0 -160 -26v-586h-397v1434h397z" />
    <glyph glyph-name="uni04BB" unicode="&#x4bb;" horiz-adv-x="1249" 
d="M117 0v1536h389v-457l-2 -188h6q131 207 319 207q158 0 243 -119.5t85 -319.5v-659h-389v551q0 104 -27.5 155.5t-91.5 51.5q-143 0 -143 -273v-485h-389z" />
    <glyph glyph-name="uni04C0" unicode="&#x4c0;" horiz-adv-x="634" 
d="M119 0v1434h397v-1434h-397z" />
    <glyph glyph-name="uni04C3" unicode="&#x4c3;" horiz-adv-x="1320" 
d="M129 0v1434h397v-598h15l338 598h432l-400 -676q107 -90 184 -174.5t120.5 -151.5t69 -137t33 -122t7.5 -114q0 -229 -126 -371.5t-345 -142.5q-86 0 -221 27v324q55 -19 106 -19q82 0 130.5 49t48.5 127q0 108 -92.5 254.5t-276.5 304.5h-23v-612h-397z" />
    <glyph glyph-name="uni04C4" unicode="&#x4c4;" horiz-adv-x="1157" 
d="M117 0v1079h389v-411h4l229 411h416l-301 -501q279 -289 279 -592q0 -88 -24 -165.5t-72 -140t-127 -99t-181 -36.5q-27 0 -59 3.5t-50 6.5l-18 3v292q64 -4 94.5 29t30.5 94q0 94 -63.5 228t-157.5 237v-438h-389z" />
    <glyph glyph-name="uni04C7" unicode="&#x4c7;" horiz-adv-x="1474" 
d="M864 -455q-91 0 -200 29v305q38 -14 110 -14q48 0 81 16t51 40t27.5 69t12 84.5t2.5 105.5v393h-422v-573h-397v1434h397v-533h422v533h398v-1368q0 -255 -122 -388t-360 -133z" />
    <glyph glyph-name="uni04C8" unicode="&#x4c8;" horiz-adv-x="1249" 
d="M739 -455q-51 0 -151 19v289q56 -7 69 -7q52 0 69 38t17 116v410h-237v-410h-389v1079h389v-383h237v383h390v-1089q0 -227 -96.5 -336t-297.5 -109z" />
    <glyph glyph-name="uni04CF" unicode="&#x4cf;" horiz-adv-x="593" 
d="M102 0v1536h390v-1536h-390z" />
    <glyph glyph-name="uni04D0" unicode="&#x4d0;" horiz-adv-x="1413" 
d="M10 0l461 1434h471l461 -1434h-428l-76 270h-407l-74 -270h-408zM696 1001l-127 -454h254zM707 1487q-167 0 -268 87.5t-111 262.5h256q7 -125 123 -125q115 0 122 125h256q-10 -175 -110.5 -262.5t-267.5 -87.5z" />
    <glyph glyph-name="uni04D1" unicode="&#x4d1;" horiz-adv-x="1142" 
d="M371 -25q-65 0 -122.5 20t-103.5 59.5t-73 104.5t-27 148q0 85 28.5 149t75 102.5t114.5 62.5t137 32.5t153 8.5h115v14q0 151 -207 151q-150 0 -318 -43v269q198 45 392 45q113 0 204 -23t162.5 -71.5t110.5 -132.5t39 -199v-672h-357v168h-6q-47 -91 -131.5 -142
t-185.5 -51zM518 219q59 0 104.5 70.5t45.5 150.5v35h-76q-73 0 -118.5 -39.5t-45.5 -107.5q0 -53 27 -81t63 -28zM567 1192q-155 0 -252 81.5t-104 242.5h244q3 -53 27.5 -80t84.5 -27q58 0 83 27t28 80h246q-7 -161 -104.5 -242.5t-252.5 -81.5z" />
    <glyph glyph-name="uni04D2" unicode="&#x4d2;" horiz-adv-x="1413" 
d="M10 0l461 1434h471l461 -1434h-428l-76 270h-407l-74 -270h-408zM696 1001l-127 -454h254zM307 1516v286h307v-286h-307zM799 1516v286h307v-286h-307z" />
    <glyph glyph-name="uni04D3" unicode="&#x4d3;" horiz-adv-x="1142" 
d="M371 -25q-65 0 -122.5 20t-103.5 59.5t-73 104.5t-27 148q0 85 28.5 149t75 102.5t114.5 62.5t137 32.5t153 8.5h115v14q0 151 -207 151q-150 0 -318 -43v269q198 45 392 45q113 0 204 -23t162.5 -71.5t110.5 -132.5t39 -199v-672h-357v168h-6q-47 -91 -131.5 -142
t-185.5 -51zM518 219q59 0 104.5 70.5t45.5 150.5v35h-76q-73 0 -118.5 -39.5t-45.5 -107.5q0 -53 27 -81t63 -28zM186 1235v270h295v-270h-295zM653 1235v270h295v-270h-295z" />
    <glyph glyph-name="uni04D4" unicode="&#x4d4;" horiz-adv-x="1832" 
d="M-20 0l696 1434h1063v-328h-475l8 -209h418v-328h-404l12 -241h453v-328h-823l-10 270h-369l-121 -270h-448zM885 1026l-213 -479h235l-18 479h-4z" />
    <glyph glyph-name="uni04D5" unicode="&#x4d5;" horiz-adv-x="1812" 
d="M498 1098q133 0 228.5 -30.5t166.5 -102.5h8q127 133 342 133q244 0 369 -158t125 -432v-64h-645q15 -104 77 -154t185 -50q117 0 321 39v-254q-64 -19 -166.5 -34.5t-195.5 -15.5q-157 0 -278 52t-187 147h-8q-65 -76 -145.5 -123t-144 -61.5t-128.5 -14.5
q-76 0 -142.5 20t-119.5 59.5t-84 104.5t-31 148q0 82 30.5 144t79 99t119.5 60t142 31t157 8h127v27q0 46 -24.5 78.5t-65 48t-80 22t-81.5 6.5q-138 0 -306 -53v266q186 54 355 54zM526 211q65 0 119.5 56t54.5 163v14h-86q-52 0 -95 -11t-74 -41.5t-31 -76.5
q0 -53 34.5 -78.5t77.5 -25.5zM1245 860q-128 0 -155 -211h292q5 92 -31.5 151.5t-105.5 59.5z" />
    <glyph glyph-name="uni04D6" unicode="&#x4d6;" horiz-adv-x="1105" 
d="M129 0v1434h881v-328h-488v-209h441v-328h-441v-241h502v-328h-895zM586 1487q-167 0 -268 87.5t-111 262.5h256q7 -125 123 -125t123 125h256q-10 -175 -111 -262.5t-268 -87.5z" />
    <glyph glyph-name="uni04D7" unicode="&#x4d7;" horiz-adv-x="1177" 
d="M1102 426h-639q21 -101 80.5 -143.5t167.5 -42.5q125 0 329 39v-254q-64 -19 -166.5 -34.5t-199.5 -15.5q-290 0 -449 151.5t-159 412.5q0 257 146.5 408t393.5 151t371.5 -160t124.5 -444v-68zM608 854q-131 0 -153 -219h293q5 96 -32.5 157.5t-107.5 61.5zM596 1192
q-155 0 -252 81.5t-104 242.5h243q3 -53 28 -80t85 -27q58 0 83 27t28 80h245q-7 -161 -104 -242.5t-252 -81.5z" />
    <glyph glyph-name="uni04D8" unicode="&#x4d8;" horiz-adv-x="1474" 
d="M80 717q0 41 6 100h891q-12 172 -87.5 251t-244.5 79q-210 0 -397 -80v311q203 80 434 80q357 0 535 -187.5t178 -553.5q0 -355 -170.5 -548.5t-487.5 -193.5q-320 0 -488.5 194.5t-168.5 547.5zM737 283q101 0 159.5 82.5t76.5 222.5h-471q18 -142 76.5 -223.5
t158.5 -81.5z" />
    <glyph glyph-name="uni04D9" unicode="&#x4d9;" horiz-adv-x="1177" 
d="M76 565v68h641q-17 109 -74 155t-168 46q-126 0 -330 -39v254q63 19 166.5 34t200.5 15q289 0 444.5 -150.5t155.5 -412.5q0 -257 -147 -408.5t-394 -151.5t-371 156.5t-124 433.5zM569 219q75 0 110.5 48.5t43.5 156.5h-293q-5 -92 32 -148.5t107 -56.5z" />
    <glyph glyph-name="uni04DA" unicode="&#x4da;" horiz-adv-x="1474" 
d="M80 717q0 41 6 100h891q-12 172 -87.5 251t-244.5 79q-210 0 -397 -80v311q203 80 434 80q357 0 535 -187.5t178 -553.5q0 -355 -170.5 -548.5t-487.5 -193.5q-320 0 -488.5 194.5t-168.5 547.5zM737 283q101 0 159.5 82.5t76.5 222.5h-471q18 -142 76.5 -223.5
t158.5 -81.5zM338 1516v286h307v-286h-307zM829 1516v286h308v-286h-308z" />
    <glyph glyph-name="uni04DB" unicode="&#x4db;" horiz-adv-x="1177" 
d="M76 565v68h641q-17 109 -74 155t-168 46q-126 0 -330 -39v254q63 19 166.5 34t200.5 15q289 0 444.5 -150.5t155.5 -412.5q0 -257 -147 -408.5t-394 -151.5t-371 156.5t-124 433.5zM569 219q75 0 110.5 48.5t43.5 156.5h-293q-5 -92 32 -148.5t107 -56.5zM193 1235v270
h294v-270h-294zM659 1235v270h295v-270h-295z" />
    <glyph glyph-name="uni04DC" unicode="&#x4dc;" horiz-adv-x="1925" 
d="M1464 0l-301 657h-12v-657h-377v657h-14l-299 -657h-451l387 754l-377 680h433l309 -598h12v598h377v-598h10l312 598h432l-379 -680l389 -754h-451zM563 1516v286h307v-286h-307zM1055 1516v286h307v-286h-307z" />
    <glyph glyph-name="uni04DD" unicode="&#x4dd;" horiz-adv-x="1679" 
d="M1251 0l-221 438h-6v-438h-369v438h-6l-221 -438h-444l327 559l-303 520h416l225 -426h6v426h369v-426h6l225 426h416l-303 -520l328 -559h-445zM459 1235v270h295v-270h-295zM926 1235v270h295v-270h-295z" />
    <glyph glyph-name="uni04DE" unicode="&#x4de;" horiz-adv-x="1105" 
d="M434 -25q-177 0 -383 72v322q202 -84 355 -84q253 0 253 157q0 68 -60.5 105t-205.5 37h-155v313h155q236 0 236 127q0 63 -47 95t-154 32q-182 0 -322 -70v314q183 63 375 63q276 0 411.5 -106t135.5 -285q0 -119 -69.5 -205t-190.5 -117v-4q131 -21 214 -109.5
t83 -221.5q0 -92 -38 -169.5t-113 -137.5t-198 -94t-282 -34zM127 1516v286h307v-286h-307zM618 1516v286h308v-286h-308z" />
    <glyph glyph-name="uni04DF" unicode="&#x4df;" horiz-adv-x="983" 
d="M401 -25q-198 0 -335 48v280q125 -61 278 -61q199 0 199 98q0 100 -217 100h-117v211h131q174 0 174 90q0 94 -174 93h-6q-130 0 -256 -46v267q136 43 366 43q66 0 126.5 -7.5t124 -27.5t109.5 -52t75.5 -85.5t29.5 -122.5q0 -169 -196 -248v-4q221 -53 221 -248
q0 -76 -35 -135.5t-88.5 -95t-127 -58.5t-142 -31t-140.5 -8zM72 1235v270h295v-270h-295zM539 1235v270h295v-270h-295z" />
    <glyph glyph-name="uni04E2" unicode="&#x4e2;" horiz-adv-x="1515" 
d="M129 0v1434h381v-615l-12 -352h12l88 203l332 764h456v-1434h-380v614l12 353h-12l-105 -240l-315 -727h-457zM399 1591v172h717v-172h-717z" />
    <glyph glyph-name="uni04E3" unicode="&#x4e3;" horiz-adv-x="1259" 
d="M117 0v1079h379v-567h4l301 567h342v-1079h-379v565h-4l-314 -565h-329zM272 1276v172h717v-172h-717z" />
    <glyph glyph-name="uni04E4" unicode="&#x4e4;" horiz-adv-x="1515" 
d="M129 0v1434h381v-615l-12 -352h12l88 203l332 764h456v-1434h-380v614l12 353h-12l-105 -240l-315 -727h-457zM358 1516v286h308v-286h-308zM850 1516v286h307v-286h-307z" />
    <glyph glyph-name="uni04E5" unicode="&#x4e5;" horiz-adv-x="1259" 
d="M117 0v1079h379v-567h4l301 567h342v-1079h-379v565h-4l-314 -565h-329zM250 1235v270h295v-270h-295zM717 1235v270h295v-270h-295z" />
    <glyph glyph-name="uni04E6" unicode="&#x4e6;" horiz-adv-x="1536" 
d="M768 -25q-335 0 -511.5 194.5t-176.5 547.5q0 355 178 548t510 193q335 0 511.5 -194t176.5 -547q0 -355 -178 -548.5t-510 -193.5zM768 283q72 0 126 34t85.5 95t47 137.5t15.5 167.5q0 94 -16 171t-48.5 137t-86 93t-123.5 33q-72 0 -126 -34t-85.5 -95t-47 -137.5
t-15.5 -167.5q0 -94 16 -171t48.5 -137t86 -93t123.5 -33zM369 1516v286h307v-286h-307zM860 1516v286h307v-286h-307z" />
    <glyph glyph-name="uni04E7" unicode="&#x4e7;" horiz-adv-x="1269" 
d="M635 -25q-257 0 -413 151t-156 406q0 259 159 412.5t410 153.5q253 0 411 -154.5t158 -411.5q0 -258 -156.5 -407.5t-412.5 -149.5zM635 242q84 0 128 80.5t44 209.5q0 135 -45 217t-127 82q-84 0 -128 -83.5t-44 -215.5t44.5 -211t127.5 -79zM254 1235v270h295v-270
h-295zM721 1235v270h295v-270h-295z" />
    <glyph glyph-name="uni04E8" unicode="&#x4e8;" horiz-adv-x="1536" 
d="M768 -25q-335 0 -511.5 194.5t-176.5 547.5q0 355 178 548t510 193q335 0 511.5 -194t176.5 -547q0 -355 -178 -548.5t-510 -193.5zM768 283q119 0 185.5 89.5t82.5 239.5h-538q18 -153 85 -241t185 -88zM768 1151q-115 0 -181.5 -85t-86.5 -228h534q-20 144 -86 228.5
t-180 84.5z" />
    <glyph glyph-name="uni04E9" unicode="&#x4e9;" horiz-adv-x="1269" 
d="M635 -25q-257 0 -413 151t-156 406q0 259 159 412.5t410 153.5q253 0 411 -154.5t158 -411.5q0 -258 -156.5 -407.5t-412.5 -149.5zM635 242q67 0 108.5 52t55.5 142h-330q14 -91 57 -142.5t109 -51.5zM635 831q-65 0 -106.5 -50t-57.5 -136h326q-15 87 -57 136.5
t-105 49.5z" />
    <glyph glyph-name="uni04EA" unicode="&#x4ea;" horiz-adv-x="1536" 
d="M768 -25q-335 0 -511.5 194.5t-176.5 547.5q0 355 178 548t510 193q335 0 511.5 -194t176.5 -547q0 -355 -178 -548.5t-510 -193.5zM768 283q119 0 185.5 89.5t82.5 239.5h-538q18 -153 85 -241t185 -88zM768 1151q-115 0 -181.5 -85t-86.5 -228h534q-20 144 -86 228.5
t-180 84.5zM369 1516v286h307v-286h-307zM860 1516v286h307v-286h-307z" />
    <glyph glyph-name="uni04EB" unicode="&#x4eb;" horiz-adv-x="1269" 
d="M635 -25q-257 0 -413 151t-156 406q0 259 159 412.5t410 153.5q253 0 411 -154.5t158 -411.5q0 -258 -156.5 -407.5t-412.5 -149.5zM635 242q67 0 108.5 52t55.5 142h-330q14 -91 57 -142.5t109 -51.5zM635 831q-65 0 -106.5 -50t-57.5 -136h326q-15 87 -57 136.5
t-105 49.5zM721 1241v270h295v-270h-295zM254 1241v270h295v-270h-295z" />
    <glyph glyph-name="uni04EE" unicode="&#x4ee;" horiz-adv-x="1269" 
d="M180 313q79 -28 137 -28q105 0 156 86l-461 1063h424l217 -615h9l184 615h411l-430 -1098q-76 -194 -177 -277.5t-265 -83.5q-103 0 -205 45v293zM276 1591v172h717v-172h-717z" />
    <glyph glyph-name="uni04EF" unicode="&#x4ef;" horiz-adv-x="1126" 
d="M297 -461q-67 0 -195 23v305q94 -12 113 -12q55 0 88.5 19.5t52.5 70.5l11 28l-353 1106h412l147 -659h2l154 659h383l-356 -1142q-65 -204 -176 -301t-283 -97zM213 1276v172h717v-172h-717z" />
    <glyph glyph-name="uni04F0" unicode="&#x4f0;" horiz-adv-x="1269" 
d="M180 313q79 -28 137 -28q105 0 156 86l-461 1063h424l217 -615h9l184 615h411l-430 -1098q-76 -194 -177 -277.5t-265 -83.5q-103 0 -205 45v293zM236 1516v286h307v-286h-307zM727 1516v286h307v-286h-307z" />
    <glyph glyph-name="uni04F1" unicode="&#x4f1;" horiz-adv-x="1126" 
d="M297 -461q-67 0 -195 23v305q94 -12 113 -12q55 0 88.5 19.5t52.5 70.5l11 28l-353 1106h412l147 -659h2l154 659h383l-356 -1142q-65 -204 -176 -301t-283 -97zM190 1235v270h295v-270h-295zM657 1235v270h295v-270h-295z" />
    <glyph glyph-name="uni04F2" unicode="&#x4f2;" horiz-adv-x="1269" 
d="M180 313q79 -28 137 -28q105 0 156 86l-461 1063h424l217 -615h9l184 615h411l-430 -1098q-76 -194 -177 -277.5t-265 -83.5q-103 0 -205 45v293zM729 1516l133 286h361l-269 -286h-225zM242 1516l133 286h360l-268 -286h-225z" />
    <glyph glyph-name="uni04F3" unicode="&#x4f3;" horiz-adv-x="1126" 
d="M297 -461q-67 0 -195 23v305q94 -12 113 -12q55 0 88.5 19.5t52.5 70.5l11 28l-353 1106h412l147 -659h2l154 659h383l-356 -1142q-65 -204 -176 -301t-283 -97zM686 1208l133 328h361l-269 -328h-225zM199 1208l133 328h360l-268 -328h-225z" />
    <glyph glyph-name="uni04F4" unicode="&#x4f4;" horiz-adv-x="1331" 
d="M805 0v498q-103 -23 -211 -23q-251 0 -376.5 105t-125.5 335v519h397v-449q0 -115 38.5 -161t142.5 -46q62 0 135 17v639h397v-1434h-397zM266 1516v286h307v-286h-307zM758 1516v286h307v-286h-307z" />
    <glyph glyph-name="uni04F5" unicode="&#x4f5;" horiz-adv-x="1157" 
d="M651 0v354q-81 -18 -190 -18q-213 0 -299 87.5t-86 289.5v366h389v-313q0 -88 26.5 -121t94.5 -33q42 0 65 4v463h389v-1079h-389zM193 1235v270h294v-270h-294zM659 1235v270h295v-270h-295z" />
    <glyph glyph-name="uni04F8" unicode="&#x4f8;" horiz-adv-x="1792" 
d="M129 0v1434h397v-476h78q281 0 409 -119.5t128 -359.5q0 -224 -134.5 -351.5t-402.5 -127.5h-475zM526 287h78q67 0 103 50t36 142q0 93 -36 143t-103 50h-78v-385zM1266 0v1434h397v-1434h-397zM498 1516v286h307v-286h-307zM989 1516v286h307v-286h-307z" />
    <glyph glyph-name="uni04F9" unicode="&#x4f9;" horiz-adv-x="1587" 
d="M117 0v1079h389v-295h84q114 0 198.5 -30t134.5 -85.5t73.5 -126t23.5 -157.5q0 -177 -97.5 -281t-306.5 -104h-499zM500 254h37q104 0 104 137q0 65 -26.5 102t-77.5 37h-37v-276zM1081 0v1079h389v-1079h-389zM414 1235v270h295v-270h-295zM881 1235v270h295v-270h-295
z" />
    <glyph glyph-name="uni058D" unicode="&#x58d;" horiz-adv-x="1638" 
d="M821 -25q-110 0 -223 76q147 32 244.5 143t97.5 248q0 93 -61 215q128 -21 207 -117t79 -214q0 -137 -100.5 -244t-243.5 -107zM535 98q-71 0 -131 25.5t-101 69t-68 96t-40 112.5q51 -36 118 -59t127 -23q116 0 223 79.5t156 238.5q66 -109 66 -211q0 -62 -25 -121
t-69.5 -105t-111.5 -74t-144 -28zM432 375q-136 0 -243 103.5t-107 236.5q0 114 68 217q17 -63 51 -121.5t82.5 -106.5t114.5 -77t139 -29q117 0 227 64q-29 -123 -123.5 -205t-208.5 -82zM535 653q-133 0 -232.5 98.5t-99.5 254.5q0 69 26 128t70 99t95.5 66.5t107.5 39.5
q-32 -52 -54 -118t-22 -125q0 -54 18 -108t55 -107t101 -97.5t148 -70.5q-123 -60 -213 -60zM1145 88q72 132 72 248q0 54 -17.5 108t-54 106t-101 96t-149.5 69q117 63 215 63q130 0 228 -98t98 -254q0 -73 -24.5 -133.5t-67 -101t-92.5 -66.5t-107 -37zM766 774
q-127 28 -208 120.5t-81 211.5q0 89 43 169t124 131.5t181 51.5q104 0 215 -78q-152 -31 -246 -138.5t-94 -250.5q0 -106 66 -217zM1487 498q-15 69 -46.5 128.5t-79 108t-116 76t-149.5 27.5q-109 0 -219 -68q28 125 122 207t211 82q146 0 247.5 -103t101.5 -241
q0 -113 -72 -217zM817 788q-59 115 -59 218q0 131 98.5 229t253.5 98q70 0 129 -26t99 -70.5t66.5 -96t39.5 -108.5q-127 80 -240 80q-76 0 -147.5 -30t-138.5 -105.5t-101 -188.5z" />
    <glyph glyph-name="uni058E" unicode="&#x58e;" horiz-adv-x="2048" 
d="M1536 -27l-1546 541l620 604q21 21 21 47q0 17 -17 31l-65 41l242 219l311 -188q57 -34 57 -101q0 -57 -43 -94l-391 -375l811 -282v-443zM1309 596v149h735v-149h-735zM1505 811q-81 0 -129.5 45.5t-48.5 120.5v280h258v-208q0 -68 41 -68q45 0 45 68v215q0 194 217 194
q62 0 156 -22v-144q-44 6 -66 6q-24 0 -36 -10.5t-13.5 -20.5t-1.5 -30v-414h-233v88q-21 -48 -73 -74t-116 -26z" />
    <glyph glyph-name="uni058F" unicode="&#x58f;" horiz-adv-x="1187" 
d="M369 500v225h229v270q0 94 -23 134t-69 40q-92 0 -92 -143v-84h-389v82q0 217 127 325.5t350 108.5q228 0 353.5 -102t125.5 -318v-313h129v-225h-129v-94h129v-226h-129v-180h-383v180h-229v226h229v94h-229z" />
    <glyph glyph-name="uni1E9E" unicode="&#x1e9e;" horiz-adv-x="1372" 
d="M846 -25q-97 0 -230 21v289q73 -17 129 -17q79 0 123.5 39t44.5 133q0 98 -47.5 135t-140.5 37q-33 0 -80 -6v191l209 336q-82 32 -147 32q-81 0 -133 -47.5t-52 -140.5v-977h-397v971q0 131 43.5 226.5t124.5 151.5t186 82.5t238 26.5q186 0 330.5 -57t212.5 -129
l-306 -457q173 -20 273 -116t100 -275q0 -221 -124 -335t-357 -114z" />
    <glyph glyph-name="uni2010" unicode="&#x2010;" 
d="M102 471v287h615v-287h-615z" />
    <glyph glyph-name="uni2011" unicode="&#x2011;" 
d="M102 471v287h615v-287h-615z" />
    <glyph glyph-name="figuredash" unicode="&#x2012;" horiz-adv-x="1126" 
d="M41 612v267h1044v-267h-1044z" />
    <glyph glyph-name="endash" unicode="&#x2013;" horiz-adv-x="1126" 
d="M41 479v266h1044v-266h-1044z" />
    <glyph glyph-name="emdash" unicode="&#x2014;" horiz-adv-x="1843" 
d="M102 481v267h1639v-267h-1639z" />
    <glyph glyph-name="uni2015" unicode="&#x2015;" horiz-adv-x="1843" 
d="M102 481v267h1639v-267h-1639z" />
    <glyph glyph-name="quoteleft" unicode="&#x2018;" horiz-adv-x="552" 
d="M31 877l231 557h250l-137 -557h-344z" />
    <glyph glyph-name="quoteright" unicode="&#x2019;" horiz-adv-x="552" 
d="M41 877l137 557h344l-200 -557h-281z" />
    <glyph glyph-name="quotesinglbase" unicode="&#x201a;" horiz-adv-x="573" 
d="M25 -223l137 555h344l-201 -555h-280z" />
    <glyph glyph-name="quotedblleft" unicode="&#x201c;" horiz-adv-x="1024" 
d="M502 877l237 557h244l-137 -557h-344zM31 877l237 557h244l-137 -557h-344z" />
    <glyph glyph-name="quotedblright" unicode="&#x201d;" horiz-adv-x="1024" 
d="M512 877l137 557h344l-200 -557h-281zM41 877l137 557h344l-200 -557h-281z" />
    <glyph glyph-name="quotedblbase" unicode="&#x201e;" horiz-adv-x="1024" 
d="M483 -223l138 555h346l-201 -555h-283zM14 -223l138 555h346l-201 -555h-283z" />
    <glyph glyph-name="dagger" unicode="&#x2020;" horiz-adv-x="1331" 
d="M500 -287v1096h-357v270h357v355h331v-355h357v-270h-357v-1096h-331z" />
    <glyph glyph-name="daggerdbl" unicode="&#x2021;" horiz-adv-x="1331" 
d="M500 -287v355h-357v270h357v471h-357v270h357v355h331v-355h357v-270h-357v-471h357v-270h-357v-355h-331z" />
    <glyph glyph-name="bullet" unicode="&#x2022;" horiz-adv-x="1024" 
d="M512 279q-179 0 -302.5 122.5t-123.5 300.5q0 177 124 301.5t302 124.5t302 -124.5t124 -301.5q0 -178 -123.5 -300.5t-302.5 -122.5z" />
    <glyph glyph-name="ellipsis" unicode="&#x2026;" horiz-adv-x="1863" 
d="M1405 0v332h344v-332h-344zM115 0v332h344v-332h-344zM760 0v332h344v-332h-344z" />
    <glyph glyph-name="perthousand" unicode="&#x2030;" horiz-adv-x="2682" 
d="M295 0l991 1434h262l-991 -1434h-262zM451 700q-176 0 -283 104.5t-107 274.5t107 274.5t283 104.5t282.5 -104.5t106.5 -274.5t-106.5 -274.5t-282.5 -104.5zM451 905q57 0 84.5 39t27.5 135t-27.5 135t-84.5 39t-85 -39t-28 -135t28 -135t85 -39zM1393 -25
q-176 0 -282.5 104.5t-106.5 274.5t106.5 274.5t282.5 104.5t282.5 -104.5t106.5 -274.5t-106.5 -274.5t-282.5 -104.5zM1393 180q57 0 84.5 39t27.5 135t-27.5 135t-84.5 39t-85 -39t-28 -135t28 -135t85 -39zM2232 -25q-176 0 -282.5 104.5t-106.5 274.5t106.5 274.5
t282.5 104.5t282.5 -104.5t106.5 -274.5t-106.5 -274.5t-282.5 -104.5zM2232 180q57 0 85 39t28 135t-28 135t-85 39t-84.5 -39t-27.5 -135t27.5 -135t84.5 -39z" />
    <glyph glyph-name="guilsinglleft" unicode="&#x2039;" horiz-adv-x="716" 
d="M324 195l-244 419l244 418h303l-226 -418l226 -419h-303z" />
    <glyph glyph-name="guilsinglright" unicode="&#x203a;" horiz-adv-x="716" 
d="M637 614l-244 -419h-303l225 419l-225 418h303z" />
    <glyph glyph-name="fraction" unicode="&#x2044;" horiz-adv-x="696" 
d="M-279 0l992 1434h262l-991 -1434h-263z" />
    <glyph glyph-name="foursuperior" unicode="&#x2074;" 
d="M446 573v144h-421v209l346 508h334v-533h77v-184h-77v-144h-259zM244 901h202v295h-4z" />
    <glyph glyph-name="franc" unicode="&#x20a3;" horiz-adv-x="1187" 
d="M160 0v195h-129v225h129v1014h942v-301h-553v-259h518v-274h-518v-180h285v-225h-285v-195h-389z" />
    <glyph glyph-name="Euro" unicode="&#x20ac;" horiz-adv-x="1187" 
d="M16 475l39 184h84q-2 18 -2 58v45h-121l37 184h111q62 238 239.5 375t427.5 137q84 0 164 -16.5t118 -32.5l38 -16l-61 -258q-125 36 -234 36q-242 0 -305 -225h504l-37 -184h-494v-47v-56h471l-37 -184h-403q36 -109 116.5 -161t209.5 -52q58 0 110 10.5t81 21.5t77 32
v-308q-114 -43 -303 -43q-274 0 -447.5 134.5t-232.5 365.5h-150z" />
    <glyph glyph-name="uni20B4" unicode="&#x20b4;" horiz-adv-x="1187" 
d="M37 788v226h647q8 21 8 49q0 111 -213 111q-179 0 -307 -46v287q187 43 385 43q114 0 204.5 -17t149 -46.5t96.5 -70t54 -85.5t16 -96q0 -68 -28 -129h102v-226h-285q-58 -53 -149 -122h434v-226h-653q-6 -21 -6 -41q0 -131 227 -131q203 0 366 64v-307
q-93 -26 -208.5 -38t-198.5 -12q-148 0 -259.5 26.5t-177 74t-98 107.5t-32.5 132q0 58 24 125h-98v226h262q63 58 145 122h-407z" />
    <glyph glyph-name="uni20B8" unicode="&#x20b8;" horiz-adv-x="1187" 
d="M399 0v854h-336v225h1061v-225h-336v-854h-389zM63 1208v226h1061v-226h-1061z" />
    <glyph glyph-name="uni20BC" unicode="&#x20bc;" horiz-adv-x="1187" 
d="M12 0q0 401 48 661t139 393.5t235 178.5v201h320v-201q144 -45 235 -178.5t139 -393.5t48 -661h-334q0 396 -18 601t-74 353v-954h-312v954q-57 -147 -74.5 -350t-17.5 -604h-334z" />
    <glyph glyph-name="uni20BD" unicode="&#x20bd;" horiz-adv-x="1187" 
d="M160 0v195h-129v225h129v102h-129v266h129v646h469q518 0 518 -461q0 -451 -518 -451h-80v-102h285v-225h-285v-195h-389zM549 788h80q58 0 93.5 51t35.5 136q0 80 -35.5 126t-93.5 46h-80v-359z" />
    <glyph glyph-name="uni20BE" unicode="&#x20be;" horiz-adv-x="1187" 
d="M461 717v416q-74 -91 -74 -355q0 -267 103.5 -387.5t308.5 -120.5h241v-270h-944v270h162q-201 201 -201 521q0 268 102 437t300 214v196h106v-182q12 2 41 2q2 0 8 -1t9 -1v182h106v-192q385 -85 385 -729h-307q0 310 -80 413v-413h-98v471q-24 4 -37 4t-33 -4v-471h-98
z" />
    <glyph glyph-name="uni2116" unicode="&#x2116;" horiz-adv-x="2048" 
d="M129 0v1434h457l299 -820l30 -98l-8 197v721h359v-1434h-455l-297 815l-39 125l12 -233v-707h-358zM1651 860q-141 0 -225.5 81.5t-84.5 217.5t84.5 217.5t225.5 81.5t225 -81.5t84 -217.5t-84 -217.5t-225 -81.5zM1358 573v226h586v-226h-586zM1651 1044q40 0 61 29.5
t21 85.5t-21 85.5t-61 29.5t-61 -29.5t-21 -85.5t21 -85.5t61 -29.5z" />
    <glyph glyph-name="uni2117" unicode="&#x2117;" horiz-adv-x="1802" 
d="M645 307v819h289q305 0 305 -276q0 -281 -305 -281h-105v-262h-184zM829 733h105q60 0 86.5 27.5t26.5 89.5q0 60 -26.5 86.5t-86.5 26.5h-105v-230zM901 -25q-201 0 -370.5 99.5t-268 270t-98.5 372.5q0 151 58 288.5t157 236.5t235.5 157.5t286.5 58.5t286.5 -58.5
t235.5 -157.5t157 -236.5t58 -288.5q0 -202 -98.5 -372.5t-268 -270t-370.5 -99.5zM891 168q149 0 273.5 72t197 198t72.5 279t-70 279t-192.5 198t-270.5 72t-270.5 -72t-192 -198t-69.5 -279q0 -154 67 -279.5t187 -197.5t268 -72z" />
    <glyph glyph-name="trademark" unicode="&#x2122;" horiz-adv-x="1966" 
d="M848 584v850h323l181 -402l176 402h315v-850h-221v616h-2l-186 -405h-177l-186 405h-2v-616h-221zM289 584v665h-242v185h705v-185h-242v-665h-221z" />
    <glyph glyph-name="uni2126" unicode="&#x2126;" horiz-adv-x="1556" 
d="M82 0v270h356v47q-58 23 -104 49.5t-95 70.5t-82 97t-54 131.5t-21 172.5q0 294 183 466.5t513 172.5t513.5 -172.5t183.5 -466.5q0 -94 -21.5 -172.5t-54.5 -131.5t-82.5 -97t-95.5 -70t-103 -50v-47h357v-270h-615v498q73 15 123.5 65t73 115t22.5 141q0 167 -78 271
t-223 104t-223 -104t-78 -271q0 -76 22.5 -141t73 -115t123.5 -65v-498h-614z" />
    <glyph glyph-name="arrowleft" unicode="&#x2190;" horiz-adv-x="1433" 
d="M522 215l-502 502l502 502h369l-359 -359h840v-287h-840l359 -358h-369z" />
    <glyph glyph-name="arrowup" unicode="&#x2191;" horiz-adv-x="1433" 
d="M573 0v922l-358 -359v369l502 502l502 -502v-369l-359 359v-922h-287z" />
    <glyph glyph-name="arrowright" unicode="&#x2192;" horiz-adv-x="1433" 
d="M543 215l358 358h-840v287h840l-358 359h368l502 -502l-502 -502h-368z" />
    <glyph glyph-name="arrowdown" unicode="&#x2193;" horiz-adv-x="1433" 
d="M717 0l-502 502v368l358 -358v922h287v-922l359 358v-368z" />
    <glyph glyph-name="partialdiff" unicode="&#x2202;" horiz-adv-x="1269" 
d="M618 -25q-120 0 -220 36t-174.5 104.5t-116 175t-41.5 241.5q0 79 17.5 155t54 145.5t88.5 122t126.5 83.5t161.5 31q94 0 185 -45.5t157 -153.5v45q0 81 -26 143.5t-70 105t-117.5 75t-152.5 53t-191 39.5l57 293q199 -23 345 -73t242.5 -123.5t154.5 -180t82 -231
t24 -287.5q0 -142 -18.5 -256t-61.5 -208.5t-110 -157.5t-167 -97.5t-229 -34.5zM633 262q68 0 109.5 69t41.5 185q0 119 -43.5 192.5t-109.5 73.5q-76 0 -122 -72t-46 -192q0 -117 46 -186.5t124 -69.5z" />
    <glyph glyph-name="uni2206" unicode="&#x2206;" horiz-adv-x="1433" 
d="M20 0l494 1434h408l491 -1434h-1393zM442 270h461l-229 791z" />
    <glyph glyph-name="product" unicode="&#x220f;" horiz-adv-x="1495" 
d="M31 -430v270h123v1323h-123v271h1433v-271h-123v-1323h123v-270h-643v270h123v1323h-393v-1323h123v-270h-643z" />
    <glyph glyph-name="summation" unicode="&#x2211;" horiz-adv-x="1331" 
d="M68 -430v250l436 704l-436 639v271h1157v-500h-312v229h-381l414 -618l-422 -705h408v236h311v-506h-1175z" />
    <glyph glyph-name="minus" unicode="&#x2212;" horiz-adv-x="1187" 
d="M61 563v307h1065v-307h-1065z" />
    <glyph glyph-name="uni2215" unicode="&#x2215;" horiz-adv-x="1187" 
d="M-53 0l927 1434h367l-928 -1434h-366z" />
    <glyph glyph-name="uni2219" unicode="&#x2219;" horiz-adv-x="614" 
d="M123 539v352h369v-352h-369z" />
    <glyph glyph-name="radical" unicode="&#x221a;" horiz-adv-x="1320" 
d="M475 -205l-237 942h-132v307h455l152 -628l170 1325h460v-307h-194l-229 -1639h-445z" />
    <glyph glyph-name="infinity" unicode="&#x221e;" horiz-adv-x="1536" 
d="M422 350q-139 0 -239.5 103.5t-100.5 261.5q0 161 101.5 264.5t254.5 103.5q198 0 340 -194q138 194 320 194q152 0 254 -102t102 -262t-100.5 -264.5t-239.5 -104.5q-194 0 -348 209q-154 -209 -344 -209zM444 569q104 0 215 148q-110 147 -217 147q-65 0 -102 -42.5
t-37 -102.5q0 -62 40 -106t101 -44zM1094 864q-58 0 -107.5 -35.5t-103.5 -101.5q55 -77 103 -117.5t106 -40.5q61 0 101 43.5t40 104.5q0 63 -37 105t-102 42z" />
    <glyph glyph-name="integral" unicode="&#x222b;" horiz-adv-x="839" 
d="M225 -307q-82 0 -205 12v270q46 -12 86 -12q123 0 123 125v1258q0 203 93.5 299t287.5 96q111 0 209 -25v-260q-46 14 -86 14q-123 0 -123 -122v-1260q0 -203 -94 -299t-291 -96z" />
    <glyph glyph-name="approxequal" unicode="&#x2248;" horiz-adv-x="1187" 
d="M813 698q-67 0 -135 28.5t-115 62t-107 62t-112 28.5q-66 0 -131 -40.5t-111 -109.5l-82 266q57 79 154 135t195 56q57 0 112 -18.5t99 -45t86 -53t87.5 -45t88.5 -18.5q62 0 122 34.5t101 94.5l102 -246q-58 -80 -155 -135.5t-199 -55.5zM821 248q-56 0 -111 18.5
t-99 45t-86.5 53t-88 45t-88.5 18.5q-68 0 -134 -40t-112 -109l-82 266q57 80 152 135t193 55q57 0 112.5 -18.5t100 -45t87 -53t88.5 -45t89 -18.5q67 0 132 40.5t111 109.5l82 -267q-58 -80 -152.5 -135t-193.5 -55z" />
    <glyph glyph-name="notequal" unicode="&#x2260;" horiz-adv-x="1187" 
d="M61 788v308h596l95 227h186l-94 -227h282v-308h-407l-60 -143h467v-307h-594l-96 -236h-186l96 236h-285v307h412l59 143h-471z" />
    <glyph glyph-name="lessequal" unicode="&#x2264;" horiz-adv-x="1187" 
d="M1049 664v-316l-922 381v324l922 381v-330l-549 -221zM1049 307v-307h-922v307h922z" />
    <glyph glyph-name="greaterequal" unicode="&#x2265;" horiz-adv-x="1187" 
d="M139 348v316l549 219l-549 221v330l922 -381v-324zM139 0v307h922v-307h-922z" />
    <glyph glyph-name="dotmath" unicode="&#x22c5;" horiz-adv-x="1187" 
d="M410 539v360h368v-360h-368z" />
    <glyph glyph-name="lozenge" unicode="&#x25ca;" horiz-adv-x="1351" 
d="M676 -25l-555 742l555 741l555 -741zM676 430l213 287l-213 280l-213 -280z" />
    <glyph glyph-name="uniF400" unicode="&#xf400;" horiz-adv-x="4" 
d="M-764 1208l143 328h381l-266 -328h-258z" />
    <glyph glyph-name="uniF401" unicode="&#xf401;" horiz-adv-x="4" 
d="M-877 1516l148 286h401l-274 -286h-275z" />
    <glyph glyph-name="uniF406" unicode="&#xf406;" 
d="M410 1505q-177 0 -289 73.5t-125 223.5h197q14 -69 66 -91.5t151 -22.5q100 0 152 24t65 90h196q-13 -151 -125.5 -224t-287.5 -73z" />
    <glyph glyph-name="uniF407" unicode="&#xf407;" 
d="M393 -455q-110 0 -188 60l51 116q49 -40 104 -40q38 0 60 18.5t22 48.5q0 31 -23.5 49.5t-70.5 18.5q-27 0 -61 -11l57 215h143l-26 -106q61 -2 107 -45t46 -123q0 -89 -60 -145t-161 -56z" />
    <glyph glyph-name="uniF408" unicode="&#xf408;" 
d="M-4 1516l244 286h348l235 -286h-282l-127 165l-138 -165h-280z" />
    <glyph glyph-name="uniF409" unicode="&#xf409;" 
d="M158 -512l94 410h348l-156 -410h-286z" />
    <glyph glyph-name="uniF40A" unicode="&#xf40a;" 
d="M121 922l123 512h348l-184 -512h-287z" />
    <glyph glyph-name="uniF40B" unicode="&#xf40b;" 
d="M219 1516v286h381v-286h-381z" />
    <glyph glyph-name="uniF40C" unicode="&#xf40c;" 
d="M410 1454q-101 0 -166.5 64.5t-65.5 164.5t65.5 165t166.5 65t166 -65t65 -165t-65 -164.5t-166 -64.5zM410 1579q42 0 71 30.5t29 73.5t-29 74t-71 31t-71.5 -31t-29.5 -74t29.5 -73.5t71.5 -30.5z" />
    <glyph glyph-name="uniF40D" unicode="&#xf40d;" 
d="M-8 1520q13 122 83 198t187 76q57 0 160 -40t147 -40q8 0 17 2t24 8.5t26.5 23.5t14.5 42h176q-12 -128 -84 -203.5t-190 -75.5q-53 0 -158 42t-147 42q-36 0 -56.5 -21t-23.5 -54h-176z" />
    <glyph glyph-name="uniF40E" unicode="&#xf40e;" 
d="M362 -455q-95 0 -146.5 48t-51.5 131q0 167 209 299l180 -23q-205 -127 -205 -225q0 -66 74 -66q45 0 98 29l33 -141q-91 -52 -191 -52z" />
    <glyph glyph-name="uniF410" unicode="&#xf410;" horiz-adv-x="4" 
d="M-786 1520l-246 282h381l123 -282h-258z" />
    <glyph glyph-name="uniF47E" unicode="&#xf47e;" horiz-adv-x="1474" 
d="M737 -25q-288 0 -450 143t-162 427v889h397v-826q0 -71 10 -126t33 -102t66.5 -72t105.5 -25q63 0 107 26t66.5 74.5t32 102t9.5 122.5v826h398v-889q0 -285 -162.5 -427.5t-450.5 -142.5zM547 1516v286h381v-286h-381z" />
    <glyph glyph-name="uniF47F" unicode="&#xf47f;" horiz-adv-x="1249" 
d="M1133 1079v-1079h-357v178h-4q-31 -44 -59.5 -76t-68 -63t-88.5 -47.5t-105 -16.5q-169 0 -264 122t-95 323v659h389v-551q0 -104 26.5 -155t90.5 -51q77 0 111 69t34 203v485h390zM424 1241v270h381v-270h-381z" />
    <glyph glyph-name="uniF4C6" unicode="&#xf4c6;" horiz-adv-x="1331" 
d="M594 475q-251 0 -376.5 105t-125.5 335v519h397v-449q0 -115 39.5 -161t147.5 -46q56 0 129 17v639h397v-1368q0 -254 -121.5 -387.5t-355.5 -133.5q-97 0 -270 39v316q74 -35 172 -35q178 0 178 315v318q-103 -23 -211 -23z" />
    <glyph glyph-name="uniF4C7" unicode="&#xf4c7;" horiz-adv-x="1157" 
d="M647 -455q-51 0 -151 19v289q56 -7 69 -7q52 0 69 38t17 116v354q-81 -18 -190 -18q-213 0 -299 87.5t-86 289.5v366h389v-313q0 -88 26.5 -121t94.5 -33q42 0 65 4v463h389v-1089q0 -227 -96 -336t-297 -109z" />
    <glyph glyph-name="uniF4C8" unicode="&#xf4c8;" horiz-adv-x="1290" 
d="M743 -455q-110 0 -188 60l51 116q49 -40 105 -40q38 0 60 18.5t22 48.5q0 31 -24 49.5t-71 18.5q-27 0 -61 -11l49 185q-153 24 -270 89t-190 161t-109.5 215.5t-36.5 259.5q0 186 58 329.5t162.5 233t244 135t309.5 45.5q86 0 170 -14t125 -28l41 -15v-326
q-145 68 -309 68q-177 0 -283 -106.5t-106 -325.5q0 -112 30.5 -194.5t86.5 -130.5t128 -70.5t162 -22.5q150 0 291 43v-303q-168 -58 -313 -58q-36 0 -52 2l-14 -63q61 -2 107.5 -45t46.5 -123q0 -89 -60.5 -145t-161.5 -56z" />
    <glyph glyph-name="uniF4C9" unicode="&#xf4c9;" horiz-adv-x="993" 
d="M545 -401q-95 0 -166 53l45 104q43 -37 92 -37q33 0 53.5 16.5t20.5 43.5t-21.5 43t-62.5 16q-24 0 -55 -8l43 162q-202 38 -315 180t-113 360q0 255 150.5 410.5t422.5 155.5q164 0 262 -29v-281q-116 27 -182 27q-131 0 -194.5 -64.5t-63.5 -209.5q0 -81 21.5 -137.5
t61.5 -87t87.5 -43.5t109.5 -13q63 0 170 29v-285q-128 -29 -262 -29h-31l-12 -49q53 -2 94 -40t41 -109q0 -78 -53 -128t-143 -50z" />
    <glyph glyph-name="uniF4CC" unicode="&#xf4cc;" horiz-adv-x="1269" 
d="M180 313q79 -28 137 -28q105 0 156 86l-461 1063h424l217 -615h9l184 615h411l-430 -1098q-76 -194 -177 -277.5t-265 -83.5q-103 0 -205 45v293zM512 1520l123 282h381l-246 -282h-258z" />
    <glyph glyph-name="uniF4CD" unicode="&#xf4cd;" horiz-adv-x="1126" 
d="M297 -461q-67 0 -195 23v305q94 -12 113 -12q55 0 88.5 19.5t52.5 70.5l11 28l-353 1106h412l147 -659h2l154 659h383l-356 -1142q-65 -204 -176 -301t-283 -97zM436 1208l139 328h381l-262 -328h-258z" />
    <glyph glyph-name="zero.tab" unicode="&#xf4e0;" horiz-adv-x="1187" 
d="M594 -25q-130 0 -224.5 39.5t-162 126t-100.5 230t-33 346.5t33 346t100.5 230t162 126t224.5 39t224.5 -39t162 -126t100.5 -230t33 -346t-33 -346.5t-100.5 -230t-162 -126t-224.5 -39.5zM594 258q50 0 76.5 35t40.5 135t14 289q0 190 -14 290.5t-40.5 135.5t-76.5 35
t-76.5 -35t-40.5 -135.5t-14 -290.5q0 -189 14 -289t40.5 -135t76.5 -35z" />
    <glyph glyph-name="one.tab" unicode="&#xf4e1;" horiz-adv-x="1187" 
d="M109 307h383v705l-250 -176l-170 260l465 338h340v-1127h260v-307h-1028v307z" />
    <glyph glyph-name="two.tab" unicode="&#xf4e2;" horiz-adv-x="1187" 
d="M66 0v272q81 67 237 207q373 329 373 525q0 72 -51 113.5t-154 41.5q-87 0 -188 -24t-183 -64v303q225 84 408 84q282 0 422.5 -113t140.5 -313q0 -82 -27.5 -160.5t-86 -159.5t-129 -155.5t-177.5 -171.5q-12 -12 -26 -25t-31 -28.5t-27 -24.5h529v-307h-1030z" />
    <glyph glyph-name="three.tab" unicode="&#xf4e3;" horiz-adv-x="1187" 
d="M471 -25q-253 0 -410 66v297q68 -36 166 -55t187 -19q134 0 212.5 51.5t78.5 135.5q0 145 -246 145h-197v266h197q209 0 209 152q0 157 -226 157q-168 0 -333 -65v293q171 59 380 59q298 0 442 -106.5t144 -286.5q0 -245 -260 -313v-4q142 -28 219.5 -113.5t77.5 -212.5
q0 -192 -177 -319.5t-464 -127.5z" />
    <glyph glyph-name="four.tab" unicode="&#xf4e4;" horiz-adv-x="1187" 
d="M666 0v248h-627v307l590 879h409v-906h107v-280h-107v-248h-372zM344 528h322v467h-11z" />
    <glyph glyph-name="five.tab" unicode="&#xf4e5;" horiz-adv-x="1187" 
d="M477 -25q-215 3 -385 52v301q175 -66 342 -66q136 0 216.5 56.5t80.5 150.5q0 55 -29.5 96t-81 64t-113.5 34t-136 11q-128 0 -260 -33q39 356 65 793h891v-308h-621l-16 -206q89 12 164 12q257 0 393.5 -112.5t136.5 -338.5q0 -231 -166.5 -368.5t-480.5 -137.5z" />
    <glyph glyph-name="six.tab" unicode="&#xf4e6;" horiz-adv-x="1187" 
d="M602 -25q-249 0 -394 178.5t-145 522.5q0 372 176.5 577t489.5 205q75 0 129.5 -9t136.5 -30v-297q-121 39 -250 39q-139 0 -209 -73t-85 -220h6q59 47 117.5 72t142.5 25q187 0 299 -123.5t112 -343.5q0 -239 -142 -381t-384 -142zM600 242q67 0 105 59.5t38 165.5
q0 108 -37.5 166.5t-105.5 58.5q-69 0 -107 -58.5t-38 -166.5q0 -106 38 -165.5t107 -59.5z" />
    <glyph glyph-name="seven.tab" unicode="&#xf4e7;" horiz-adv-x="1187" 
d="M160 0l555 1126h-666v308h1075v-285l-565 -1149h-399z" />
    <glyph glyph-name="eight.tab" unicode="&#xf4e8;" horiz-adv-x="1187" 
d="M594 -25q-133 0 -239 32.5t-172 88.5t-101 129t-35 156q0 118 73 214.5t204 139.5v4q-246 120 -246 342q0 171 130.5 274t385.5 103q243 0 371.5 -105t128.5 -272q0 -112 -63.5 -192t-166.5 -129v-4q277 -112 277 -367q0 -87 -34.5 -161.5t-101.5 -131t-172.5 -89
t-238.5 -32.5zM596 248q65 0 111.5 43t46.5 119q0 83 -51.5 137t-129.5 80q-57 -29 -98 -89.5t-41 -127.5q0 -72 47 -117t115 -45zM614 854q117 80 117 201q0 71 -36.5 107t-100.5 36q-63 0 -108.5 -34.5t-45.5 -98.5q0 -68 51 -122t123 -89z" />
    <glyph glyph-name="nine.tab" unicode="&#xf4e9;" horiz-adv-x="1187" 
d="M582 1458q250 0 396 -172t146 -504q0 -807 -635 -807q-153 0 -309 39v297q154 -39 287 -39q73 0 123 18t79.5 58t44.5 90.5t23 126.5h-6q-58 -47 -117 -71.5t-143 -24.5q-187 0 -299.5 123.5t-112.5 343.5q0 239 140.5 380.5t382.5 141.5zM584 1192q-67 0 -103.5 -59.5
t-36.5 -165.5q0 -108 38 -167t106 -59q69 0 107 59t38 167q0 105 -40 165t-109 60z" />
    <glyph glyph-name="uni20B8.fitted" unicode="&#xf5fd;" horiz-adv-x="1187" 
d="M399 0v854h-336v225h1061v-225h-336v-854h-389zM63 1208v226h1061v-226h-1061z" />
    <glyph glyph-name="uniF643" unicode="&#xf643;" horiz-adv-x="1187" 
d="M596 -25q-126 0 -221.5 29.5t-154.5 79t-95.5 123t-50 151.5t-13.5 174q0 98 13.5 177.5t50 154t95.5 124.5t154 80t222 30q126 0 220.5 -30t153 -80t94 -125t49 -154t13.5 -177q0 -96 -13.5 -174t-49 -151.5t-94 -123t-153 -79t-220.5 -29.5zM596 242q42 0 71 22.5
t43.5 65t20.5 90.5t6 112q0 66 -6 116t-20.5 93.5t-43.5 66.5t-71 23q-57 0 -90.5 -43t-44 -104.5t-10.5 -151.5q0 -87 10.5 -146.5t44 -101.5t90.5 -42z" />
    <glyph glyph-name="uniF644" unicode="&#xf644;" horiz-adv-x="1187" 
d="M154 281h340v393l-189 -119l-168 242l398 282h331v-798h240v-281h-952v281z" />
    <glyph glyph-name="uniF645" unicode="&#xf645;" horiz-adv-x="1187" 
d="M84 0v258q344 164 474 259t130 185q0 109 -190 109q-83 0 -190 -23.5t-179 -50.5v283q131 42 241 60t238 18q241 0 369.5 -81t128.5 -231q0 -62 -25.5 -119.5t-65.5 -104.5t-107.5 -96.5t-133.5 -88.5t-160 -88v-8h488v-281h-1018z" />
    <glyph glyph-name="uniF646" unicode="&#xf646;" horiz-adv-x="1187" 
d="M440 -385q-221 0 -389 51v301q151 -69 357 -69q149 0 223 46t74 130q0 37 -12.5 64.5t-45 53t-99 39t-165.5 13.5h-100v248h94q160 0 234.5 47.5t74.5 128.5q0 74 -52.5 108.5t-187.5 34.5q-103 0 -199 -20t-163 -50v289q197 68 422 68q125 0 222.5 -18t161 -49.5
t104.5 -76.5t58 -95.5t17 -110.5q0 -122 -75 -215t-214 -144v-4q150 -28 233 -120t83 -214q0 -193 -174.5 -314.5t-481.5 -121.5z" />
    <glyph glyph-name="uniF647" unicode="&#xf647;" horiz-adv-x="1187" 
d="M651 -369v369h-635v297l549 782h459v-798h133v-281h-133v-369h-373zM338 281h313v448h-6z" />
    <glyph glyph-name="uniF648" unicode="&#xf648;" horiz-adv-x="1187" 
d="M481 -385q-222 0 -399 49v301q169 -69 358 -69q144 0 212.5 57.5t68.5 161.5q0 219 -277 219q-176 0 -333 -55l45 800h878v-280h-571l-14 -228q106 13 126 13q278 0 410.5 -116.5t132.5 -348.5q0 -226 -171 -365.5t-466 -138.5z" />
    <glyph glyph-name="uniF649" unicode="&#xf649;" horiz-adv-x="1187" 
d="M602 -25q-249 0 -394 178.5t-145 522.5q0 372 176.5 577t489.5 205q75 0 129.5 -9t136.5 -30v-297q-121 39 -250 39q-139 0 -209 -73t-85 -220h6q59 47 117.5 72t142.5 25q187 0 299 -123.5t112 -343.5q0 -239 -142 -381t-384 -142zM600 242q67 0 105 59.5t38 165.5
q0 108 -37.5 166.5t-105.5 58.5q-69 0 -107 -58.5t-38 -166.5q0 -106 38 -165.5t107 -59.5z" />
    <glyph glyph-name="uniF64A" unicode="&#xf64a;" horiz-adv-x="1187" 
d="M160 -369l557 1168h-658v280h1055v-260l-553 -1188h-401z" />
    <glyph glyph-name="uniF64B" unicode="&#xf64b;" horiz-adv-x="1187" 
d="M594 -25q-133 0 -239 32.5t-172 88.5t-101 129t-35 156q0 118 73 214.5t204 139.5v4q-246 120 -246 342q0 171 130.5 274t385.5 103q243 0 371.5 -105t128.5 -272q0 -112 -63.5 -192t-166.5 -129v-4q277 -112 277 -367q0 -87 -34.5 -161.5t-101.5 -131t-172.5 -89
t-238.5 -32.5zM596 248q65 0 111.5 43t46.5 119q0 83 -51.5 137t-129.5 80q-57 -29 -98 -89.5t-41 -127.5q0 -72 47 -117t115 -45zM614 854q117 80 117 201q0 71 -36.5 107t-100.5 36q-63 0 -108.5 -34.5t-45.5 -98.5q0 -68 51 -122t123 -89z" />
    <glyph glyph-name="uniF64C" unicode="&#xf64c;" horiz-adv-x="1187" 
d="M590 1098q249 0 393.5 -178.5t144.5 -522.5q0 -373 -176 -577.5t-489 -204.5q-75 0 -129.5 9t-136.5 30v297q120 -39 249 -39q139 0 209.5 73t85.5 220h-6q-58 -47 -117 -71.5t-143 -24.5q-188 0 -300 123.5t-112 342.5q0 239 142.5 381t384.5 142zM592 831
q-67 0 -105 -59.5t-38 -165.5q0 -108 37.5 -166.5t105.5 -58.5q69 0 107 58.5t38 166.5q0 106 -38 165.5t-107 59.5z" />
    <glyph glyph-name="uniF6BA" unicode="&#xf6ba;" 
d="M102 573v328h615v-328h-615z" />
    <glyph glyph-name="uniF6BB" unicode="&#xf6bb;" horiz-adv-x="1351" 
d="M102 606v266h1147v-266h-1147z" />
    <glyph glyph-name="uniF6BC" unicode="&#xf6bc;" horiz-adv-x="1843" 
d="M102 606v266h1639v-266h-1639z" />
    <glyph glyph-name="uniF6C3" unicode="&#xf6c3;" horiz-adv-x="0" 
d="M100 -512l95 410h348l-156 -410h-287z" />
    <glyph glyph-name="uniF6C9" unicode="&#xf6c9;" 
d="M287 1520l123 282h381l-246 -282h-258z" />
    <glyph glyph-name="uniF6CA" unicode="&#xf6ca;" 
d="M231 1516l-235 286h291l119 -172l126 172h291l-243 -286h-349z" />
    <glyph glyph-name="uniF6CB" unicode="&#xf6cb;" 
d="M10 1516v286h307v-286h-307zM502 1516v286h307v-286h-307z" />
    <glyph glyph-name="uniF6CC" unicode="&#xf6cc;" 
d="M287 1763l139 295h338l-270 -295h-207zM-23 1516v286h271v-286h-271zM571 1516v286h271v-286h-271z" />
    <glyph glyph-name="uniF6CE" unicode="&#xf6ce;" 
d="M295 1520l-246 282h381l123 -282h-258z" />
    <glyph glyph-name="uniF6CF" unicode="&#xf6cf;" 
d="M524 1516l133 286h361l-268 -286h-226zM37 1516l133 286h360l-268 -286h-225z" />
    <glyph glyph-name="uniF6D0" unicode="&#xf6d0;" 
d="M51 1591v172h717v-172h-717z" />
    <glyph glyph-name="uniF6D1" unicode="&#xf6d1;" 
d="M410 1487q-167 0 -268 87.5t-111 262.5h256q7 -125 123 -125q115 0 122 125h256q-10 -175 -110.5 -262.5t-267.5 -87.5z" />
    <glyph glyph-name="uniF6D4" unicode="&#xf6d4;" 
d="M410 1192q-155 0 -252.5 81.5t-104.5 242.5h244q3 -53 28 -80t85 -27q58 0 82.5 27t27.5 80h246q-7 -161 -104 -242.5t-252 -81.5z" />
    <glyph glyph-name="uniF6D7" unicode="&#xf6d7;" 
d="M-76 1241v270h295v-270h-295zM600 1241v270h295v-270h-295zM250 1458l139 295h383l-264 -295h-258z" />
    <glyph glyph-name="uniF6DE" unicode="&#xf6de;" horiz-adv-x="1413" 
d="M92 479v266h1229v-266h-1229z" />
    <glyph glyph-name="commainferior" unicode="&#xf6e1;" 
d="M158 -512l94 410h348l-156 -410h-286z" />
    <glyph glyph-name="commasuperior" unicode="&#xf6e2;" 
d="M203 1143l96 393h303l-160 -393h-239z" />
    <glyph glyph-name="zerooldstyle" unicode="&#xf730;" horiz-adv-x="1269" 
d="M616 -25q-123 0 -216 29.5t-151 79t-94 123t-49.5 151.5t-13.5 174q0 98 14 177.5t51 154t97 124.5t157 80t226 30q128 0 224.5 -30t156 -80t96.5 -124.5t50.5 -154t13.5 -177.5q0 -68 -7 -126t-24 -116t-45 -104t-71.5 -86.5t-101 -67t-137 -42t-176.5 -15.5zM637 242
q46 0 77 22.5t46.5 65t21.5 90.5t6 112q0 67 -6 116t-21.5 93t-46.5 67t-77 23q-47 0 -78.5 -23t-48 -66.5t-23 -93.5t-6.5 -116q0 -64 6.5 -112t23 -90.5t48 -65t78.5 -22.5z" />
    <glyph glyph-name="oneoldstyle" unicode="&#xf731;" horiz-adv-x="808" 
d="M309 0v651l-155 -114l-162 256l358 286h332v-1079h-373z" />
    <glyph glyph-name="twooldstyle" unicode="&#xf732;" horiz-adv-x="1085" 
d="M70 0v258q294 163 408 260.5t114 186.5q0 106 -158 106q-66 0 -160 -21t-159 -45v283q214 70 432 70q226 0 344.5 -81.5t118.5 -223.5q0 -45 -13 -87.5t-33 -78t-54 -71.5t-67.5 -64.5t-82 -62t-88.5 -59t-95 -59.5q-8 -5 -12.5 -7.5t-11 -7t-12.5 -7.5v-8h465v-281h-936
z" />
    <glyph glyph-name="threeoldstyle" unicode="&#xf733;" horiz-adv-x="1054" 
d="M387 -385q-210 0 -362 47v295q121 -59 319 -59q132 0 197 52t65 138q0 36 -11 62t-38.5 48.5t-80.5 34t-130 11.5h-80v248h70q252 0 252 161q0 77 -44.5 117.5t-154.5 40.5q-166 0 -321 -70v289q197 68 381 68q144 0 248.5 -28.5t162.5 -79.5t84.5 -113.5t26.5 -139.5
q0 -119 -74.5 -208t-214.5 -140v-4q152 -29 233.5 -117.5t81.5 -216.5q0 -90 -41 -169t-117.5 -138.5t-193 -94t-258.5 -34.5z" />
    <glyph glyph-name="fouroldstyle" unicode="&#xf734;" horiz-adv-x="1167" 
d="M641 -369v369h-625v297l539 782h459v-798h123v-281h-123v-369h-373zM334 281h307v448h-6z" />
    <glyph glyph-name="fiveoldstyle" unicode="&#xf735;" horiz-adv-x="1126" 
d="M457 -385q-223 0 -400 49v301q169 -69 359 -69q128 0 193 61.5t65 165.5q0 211 -254 211q-177 0 -334 -55q7 133 22.5 400t22.5 400h852v-280h-549l-10 -228q106 13 127 13q522 0 522 -465q0 -104 -39.5 -195t-114.5 -160.5t-194 -109.5t-268 -39z" />
    <glyph glyph-name="sixoldstyle" unicode="&#xf736;" horiz-adv-x="1228" 
d="M625 -25q-253 0 -400 178t-147 523q0 387 169.5 584.5t502.5 197.5q78 0 134 -8.5t142 -30.5v-297q-121 39 -254 39q-150 0 -222.5 -73t-84.5 -220h6q59 46 121 71.5t147 25.5q192 0 307 -124.5t115 -348.5q0 -230 -145.5 -373.5t-390.5 -143.5zM623 242q73 0 113 59.5
t40 165.5q0 109 -39.5 167t-113.5 58t-114 -58.5t-40 -166.5q0 -106 40.5 -165.5t113.5 -59.5z" />
    <glyph glyph-name="sevenoldstyle" unicode="&#xf737;" horiz-adv-x="1064" 
d="M123 -369l506 1168h-578v280h957v-288l-490 -1160h-395z" />
    <glyph glyph-name="eightoldstyle" unicode="&#xf738;" horiz-adv-x="1228" 
d="M614 -25q-138 0 -247 32t-177 88t-103.5 128.5t-35.5 155.5q0 118 76 215.5t211 140.5v4q-246 120 -246 334q0 173 132 279t390 106q247 0 376.5 -104.5t129.5 -272.5q0 -112 -63.5 -192t-165.5 -129v-4q150 -59 218.5 -149.5t68.5 -217.5q0 -87 -35.5 -161.5t-104 -131
t-177.5 -89t-247 -32.5zM616 240q72 0 123.5 45t51.5 125q0 83 -56 137t-141 80q-64 -30 -110 -90t-46 -129q0 -73 52 -120.5t126 -47.5zM635 854q123 79 123 207q0 69 -38 104t-106 35q-66 0 -112.5 -35.5t-46.5 -99.5q0 -68 53 -122t127 -89z" />
    <glyph glyph-name="nineoldstyle" unicode="&#xf739;" horiz-adv-x="1228" 
d="M598 1098q253 0 402 -172.5t149 -503.5q0 -807 -643 -807q-153 0 -309 39v297q153 -39 286 -39q146 0 204.5 69.5t74.5 223.5h-6q-59 -46 -121.5 -71t-147.5 -25q-192 0 -306.5 124.5t-114.5 348.5q0 235 143 375.5t389 140.5zM600 831q-73 0 -111 -59t-38 -166
q0 -109 39.5 -167t113.5 -58t114 58.5t40 166.5q0 105 -42 165t-116 60z" />
    <glyph glyph-name="uniFEFF" unicode="&#xfeff;" horiz-adv-x="0" 
 />
    <glyph glyph-name="uni058F.fitted" horiz-adv-x="1187" 
d="M369 500v225h229v270q0 94 -23 134t-69 40q-92 0 -92 -143v-84h-389v82q0 217 127 325.5t350 108.5q228 0 353.5 -102t125.5 -318v-313h129v-225h-129v-94h129v-226h-129v-180h-383v180h-229v226h229v94h-229z" />
    <glyph glyph-name="franc.fitted" horiz-adv-x="1187" 
d="M160 0v195h-129v225h129v1014h942v-301h-553v-259h518v-274h-518v-180h285v-225h-285v-195h-389z" />
    <glyph glyph-name="uni20BE.fitted" horiz-adv-x="1187" 
d="M461 717v416q-74 -91 -74 -355q0 -267 103.5 -387.5t308.5 -120.5h241v-270h-944v270h162q-201 201 -201 521q0 268 102 437t300 214v196h106v-182q12 2 41 2q2 0 8 -1t9 -1v182h106v-192q385 -85 385 -729h-307q0 310 -80 413v-413h-98v471q-24 4 -37 4t-33 -4v-471h-98
z" />
    <glyph glyph-name="uni20BC.fitted" horiz-adv-x="1187" 
d="M12 0q0 401 48 661t139 393.5t235 178.5v201h320v-201q144 -45 235 -178.5t139 -393.5t48 -661h-334q0 396 -18 601t-74 353v-954h-312v954q-57 -147 -74.5 -350t-17.5 -604h-334z" />
    <glyph glyph-name="caron.Slovak" 
d="M195 1147l94 389h348l-156 -389h-286z" />
    <glyph glyph-name="uni0326.cap" 
d="M158 -512l94 410h348l-156 -410h-286z" />
    <glyph glyph-name="dotaccent.cap" 
d="M219 1516v286h381v-286h-381z" />
    <glyph glyph-name="dieresis.cap" 
d="M10 1516v286h307v-286h-307zM502 1516v286h307v-286h-307z" />
    <glyph glyph-name="grave.cap" 
d="M295 1520l-246 282h381l123 -282h-258z" />
    <glyph glyph-name="acute.cap" 
d="M287 1520l123 282h381l-246 -282h-258z" />
    <glyph glyph-name="hungarumlaut.cap" 
d="M524 1516l133 286h361l-268 -286h-226zM37 1516l133 286h360l-268 -286h-225z" />
    <glyph glyph-name="circumflex.cap" 
d="M-4 1516l244 286h348l235 -286h-282l-127 165l-138 -165h-280z" />
    <glyph glyph-name="caron.cap" 
d="M231 1516l-235 286h291l119 -172l126 172h291l-243 -286h-349z" />
    <glyph glyph-name="breve.cap" 
d="M410 1505q-177 0 -289 73.5t-125 223.5h197q14 -69 66 -91.5t151 -22.5q100 0 152 24t65 90h196q-13 -151 -125.5 -224t-287.5 -73z" />
    <glyph glyph-name="ring.cap" 
d="M410 1454q-101 0 -166.5 64.5t-65.5 164.5t65.5 165t166.5 65t166 -65t65 -165t-65 -164.5t-166 -64.5zM410 1579q42 0 71 30.5t29 73.5t-29 74t-71 31t-71.5 -31t-29.5 -74t29.5 -73.5t71.5 -30.5z" />
    <glyph glyph-name="tilde.cap" 
d="M-8 1520q13 122 83 198t187 76q57 0 160 -40t147 -40q8 0 17 2t24 8.5t26.5 23.5t14.5 42h176q-12 -128 -84 -203.5t-190 -75.5q-53 0 -158 42t-147 42q-36 0 -56.5 -21t-23.5 -54h-176z" />
    <glyph glyph-name="macron.cap" 
d="M51 1591v172h717v-172h-717z" />
    <glyph glyph-name="dieresis.narrow" 
d="M449 1241v270h243v-270h-243zM127 1241v270h244v-270h-244z" />
    <glyph glyph-name="circumflex.narrow" 
d="M74 1208l174 328h332l165 -328h-245l-86 185l-95 -185h-245z" />
    <glyph glyph-name="caron.narrow" 
d="M231 1208l-157 328h245l87 -184l94 184h245l-165 -328h-349z" />
    <glyph glyph-name="macron.narrow" 
d="M133 1276v172h553v-172h-553z" />
    <glyph glyph-name="dieresis.cap.narrow" 
d="M82 1516v286h276v-286h-276zM461 1516v286h276v-286h-276z" />
    <glyph glyph-name="circumflex.cap.narrow" 
d="M57 1516l183 286h348l174 -286h-270l-78 151l-86 -151h-271z" />
    <glyph glyph-name="caron.cap.narrow" 
d="M231 1516l-194 286h270l99 -151l106 151h270l-202 -286h-349z" />
    <glyph glyph-name="macron.cap.narrow" 
d="M113 1591v172h594v-172h-594z" />
    <glyph glyph-name="commaturn" 
d="M270 1208l176 400h273l-80 -400h-369z" />
    <glyph glyph-name="cyrdieresis.cap" 
d="M10 1516v286h307v-286h-307zM502 1516v286h307v-286h-307z" />
    <glyph glyph-name="cyrdieresis" 
d="M29 1235v270h295v-270h-295zM496 1235v270h295v-270h-295z" />
    <glyph glyph-name="cyrdieresis.narrow" 
d="M131 1241v270h234v-270h-234zM455 1241v270h233v-270h-233z" />
    <glyph glyph-name="cyrdieresis.cap.narrow" 
d="M92 1516v286h266v-286h-266zM461 1516v286h266v-286h-266z" />
    </font>
</defs>
</svg>
