<?xml version="1.0" standalone="no"?>
<!DOCTYPE svg PUBLIC "-//W3C//DTD SVG 1.1//EN" "http://www.w3.org/Graphics/SVG/1.1/DTD/svg11.dtd" >
<svg xmlns="http://www.w3.org/2000/svg" xmlns:xlink="http://www.w3.org/1999/xlink" version="1.1">
<metadata>
Created by FontForge 20170731 at Mon Apr 24 14:02:20 2023
 By Aleksey,,,
Copyright (c) 1992 ParaType Inc., ParaType Ltd. All rights reserved.
</metadata>
<defs>
<font id="VTBGroupUI-Book" horiz-adv-x="819" >
  <font-face 
    font-family="VTB Group UI Book"
    font-weight="400"
    font-stretch="normal"
    units-per-em="2048"
    panose-1="2 11 5 3 4 5 4 2 2 4"
    ascent="1583"
    descent="-465"
    x-height="1044"
    cap-height="1434"
    bbox="-969 -512 2564 2048"
    underline-thickness="102"
    underline-position="-307"
    unicode-range="U+0020-FEFF"
  />
<missing-glyph horiz-adv-x="471" 
 />
    <glyph glyph-name="IJ" unicode="IJ" horiz-adv-x="1331" 
d="M217 0v1434h201v-1434h-201zM739 -20q-103 0 -157 20v180q73 -20 129 -20q129 0 181 68t52 208v998h201v-1063q0 -197 -105 -294t-301 -97z" />
    <glyph glyph-name="ij" unicode="ij" horiz-adv-x="1187" 
d="M201 0v1044h192v-1044h-192zM657 -467q-28 0 -52 2.5t-34 4.5l-10 3v164q31 -8 70 -8q80 0 122 48.5t42 162.5v1134h192v-1134q0 -110 -20 -183.5t-63.5 -116t-102 -60t-144.5 -17.5zM188 1257v218h218v-218h-218zM782 1257v218h217v-218h-217z" />
    <glyph glyph-name="uni0410.var.accented" unicode="&#x410;`" horiz-adv-x="1413" 
d="M31 0l567 1434h217l567 -1434h-225l-137 369h-635l-137 -369h-217zM702 1219l-256 -687h515l-254 687h-5zM616 1536l146 256h246l-228 -256h-164z" />
    <glyph glyph-name="uni0415.var.accented" unicode="&#x415;`" horiz-adv-x="1105" 
d="M190 0v1434h805v-181h-604v-419h563v-181h-563v-473h604v-180h-805zM504 1536l145 256h246l-227 -256h-164z" />
    <glyph glyph-name="uni0418.var.accented" unicode="&#x418;`" horiz-adv-x="1515" 
d="M190 0v1434h201v-1047l-4 -123h4l78 133l602 1037h254v-1434h-201v1030l4 144h-4l-69 -121l-611 -1053h-254zM668 1536l145 256h246l-228 -256h-163z" />
    <glyph glyph-name="uni041E.var.accented" unicode="&#x41e;`" horiz-adv-x="1536" 
d="M768 -20q-206 0 -358.5 95.5t-231 261.5t-78.5 380q0 215 79.5 381.5t232 261t356.5 94.5q205 0 358 -96t231.5 -262t78.5 -379q0 -216 -79.5 -382.5t-232 -260.5t-356.5 -94zM768 160q143 0 248 77t156 201.5t51 278.5q0 157 -52.5 282t-157 200t-245.5 75
q-142 0 -247 -76.5t-156.5 -201t-51.5 -279.5q0 -157 51.5 -281.5t156.5 -200t247 -75.5zM678 1536l145 256h246l-227 -256h-164z" />
    <glyph glyph-name="uni0423.var.accented" unicode="&#x423;`" horiz-adv-x="1269" 
d="M240 176q70 -26 118 -26q129 0 189 169l-522 1115h215l395 -885h10l391 885h209l-518 -1145q-78 -171 -152 -240t-194 -69q-71 0 -141 24v172zM545 1536l145 256h246l-227 -256h-164z" />
    <glyph glyph-name="uni042B.var.accented" unicode="&#x42b;`" horiz-adv-x="1792" 
d="M190 0v1434h201v-533h219q257 0 384.5 -115.5t127.5 -334.5t-127.5 -335t-384.5 -116h-420zM391 180h219q295 0 295 271q0 135 -72 202.5t-223 67.5h-219v-541zM1401 0v1434h201v-1434h-201zM807 1536l145 256h246l-227 -256h-164z" />
    <glyph glyph-name="uni042D.var.accented" unicode="&#x42d;`" horiz-adv-x="1310" 
d="M432 160q243 0 390.5 128.5t170.5 358.5h-602v180h598q-29 209 -175 328t-361 119q-98 0 -186.5 -20.5t-127.5 -41.5l-39 -20v201q15 7 43 17t120 27t190 17q347 0 552 -199.5t205 -537.5q0 -339 -208.5 -538t-569.5 -199q-89 0 -172 12.5t-122 25.5l-38 13v200
q5 -3 15 -7.5t43.5 -17t70 -22t92 -17t111.5 -7.5zM397 1536l146 256h245l-227 -256h-164z" />
    <glyph glyph-name="uni042E.var.accented" unicode="&#x42e;`" horiz-adv-x="2037" 
d="M1266 -20q-191 0 -339 86.5t-231 239t-92 347.5h-213v-653h-201v1434h201v-600h221q34 286 209.5 453t444.5 167q205 0 358.5 -95.5t233 -262t79.5 -379.5q0 -161 -46.5 -297t-132 -233.5t-212 -152t-280.5 -54.5zM1266 160q144 0 248.5 77t155 201t50.5 279
q0 157 -52 282t-156.5 200t-245.5 75q-143 0 -248 -76.5t-156 -201t-51 -279.5q0 -117 30 -217.5t86.5 -176.5t143.5 -119.5t195 -43.5zM868 1536l146 256h246l-228 -256h-164z" />
    <glyph glyph-name="uni042F.var.accented" unicode="&#x42f;`" horiz-adv-x="1290" 
d="M33 0l334 569q-123 53 -189.5 157.5t-66.5 246.5q0 221 136.5 341t395.5 120h457v-1434h-201v522h-276h-54l-288 -522h-248zM643 692h256v561h-256q-153 0 -234 -71.5t-81 -208.5t81 -209t234 -72zM561 1536l146 256h245l-227 -256h-164z" />
    <glyph glyph-name="uni0401.var.accented" unicode="&#x401;`" horiz-adv-x="1105" 
d="M190 0v1434h805v-181h-604v-419h563v-181h-563v-473h604v-180h-805zM522 1753l156 295h223l-242 -295h-137zM266 1536v205h217v-205h-217zM705 1536v205h217v-205h-217z" />
    <glyph glyph-name="uni0430.var.accented" unicode="&#x430;`" horiz-adv-x="1142" 
d="M438 -16q-164 0 -260 84t-96 229q0 173 134.5 263.5t404.5 90.5h192v35q0 109 -75.5 162t-209.5 53q-185 0 -350 -90v180q162 70 375 70q453 0 453 -412v-649h-197v160h-4q-62 -91 -160.5 -133.5t-206.5 -42.5zM485 147q141 0 234.5 84.5t93.5 206.5v66h-184
q-342 0 -342 -195q0 -77 52.5 -119.5t145.5 -42.5zM489 1249l160 267h246l-242 -267h-164z" />
    <glyph glyph-name="uni0435.var.accented" unicode="&#x435;`" horiz-adv-x="1177" 
d="M1071 479h-772q17 -161 112 -248.5t253 -87.5q90 0 182 23.5t153 58.5v-188q-175 -53 -348 -53q-263 0 -407 147.5t-144 409.5q0 234 141 377t353 143q227 0 352 -134t125 -395v-53zM592 905q-119 0 -196.5 -76t-96.5 -206h567q0 132 -76 207t-198 75zM506 1249l160 267
h245l-241 -267h-164z" />
    <glyph glyph-name="uni0438.var.accented" unicode="&#x438;`" horiz-adv-x="1259" 
d="M170 0v1044h192v-819h5l479 819h244v-1044h-193v819h-4l-479 -819h-244zM545 1249l160 267h245l-241 -267h-164z" />
    <glyph glyph-name="uni043E.var.accented" unicode="&#x43e;`" horiz-adv-x="1269" 
d="M635 -16q-237 0 -386 149.5t-149 388.5t149 389t386 150q236 0 385 -150t149 -389t-148.5 -388.5t-385.5 -149.5zM635 139q139 0 234.5 106t95.5 277q0 170 -96 276.5t-234 106.5q-139 0 -234.5 -106t-95.5 -277t95.5 -277t234.5 -106zM549 1249l160 267h245l-241 -267
h-164z" />
    <glyph glyph-name="uni0443.var.accented" unicode="&#x443;`" horiz-adv-x="1126" 
d="M248 -459q-24 0 -46 2.5t-32 4.5l-10 3v158q37 -6 76 -6q83 0 125 44.5t81 150.5l19 51l-428 1095h211l317 -856h14l324 856h195l-435 -1085q-35 -86 -58 -138t-53 -105t-57 -81.5t-63.5 -52t-79.5 -32.5t-100 -9zM467 1249l160 267h245l-241 -267h-164z" />
    <glyph glyph-name="uni044B.var.accented" unicode="&#x44b;`" horiz-adv-x="1587" 
d="M170 0v1044h192v-360h211q216 0 323.5 -91t107.5 -253q0 -160 -107 -250t-324 -90h-403zM362 156h211q118 0 176 48t58 136q0 89 -58 138.5t-176 49.5h-211v-372zM1225 0v1044h192v-1044h-192zM709 1249l159 267h246l-242 -267h-163z" />
    <glyph glyph-name="uni044D.var.accented" unicode="&#x44d;`" horiz-adv-x="1024" 
d="M367 145q162 0 247.5 78t100.5 232h-432v155h430q-37 291 -346 291q-68 0 -130.5 -14.5t-90.5 -29.5l-29 -15v172q11 5 32.5 13t87.5 21t134 13q259 0 406 -144t147 -395t-148 -394.5t-411 -143.5q-70 0 -134 12t-93 24l-29 11v178q11 -7 31.5 -17.5t88 -28.5t138.5 -18z
M426 1249l160 267h245l-241 -267h-164z" />
    <glyph glyph-name="uni044E.var.accented" unicode="&#x44e;`" horiz-adv-x="1716" 
d="M170 0v1044h192v-423h226q28 201 163 320.5t345 119.5q154 0 273.5 -70.5t183 -193t63.5 -275.5q0 -235 -144.5 -386.5t-375.5 -151.5q-220 0 -357.5 130t-154.5 351h-222v-465h-192zM1096 139q144 0 229.5 111t85.5 272q0 165 -88 274t-227 109q-143 0 -229.5 -109.5
t-86.5 -273.5t85.5 -273.5t230.5 -109.5zM770 1249l160 267h246l-242 -267h-164z" />
    <glyph glyph-name="uni044F.var.accented" unicode="&#x44f;`" horiz-adv-x="1146" 
d="M61 0l242 410q-84 39 -135 116t-51 183q0 157 99 246t294 89h467v-1044h-193v373h-290l-205 -373h-228zM510 528h274v361h-274q-97 0 -147 -48.5t-50 -133.5q0 -84 50.5 -131.5t146.5 -47.5zM494 1249l159 267h246l-242 -267h-163z" />
    <glyph glyph-name="uni0451.var.accented" unicode="&#x451;`" horiz-adv-x="1177" 
d="M1071 479h-772q17 -161 112 -248.5t253 -87.5q90 0 182 23.5t153 58.5v-188q-175 -53 -348 -53q-263 0 -407 147.5t-144 409.5q0 234 141 377t353 143q227 0 352 -134t125 -395v-53zM592 905q-119 0 -196.5 -76t-96.5 -206h567q0 132 -76 207t-198 75zM244 1270v205h192
v-205h-192zM748 1270v205h192v-205h-192zM489 1438l154 284h236l-236 -284h-154z" />
    <glyph glyph-name="fi" unicode="fi" horiz-adv-x="1320" 
d="M51 889v155h201v125q0 215 82.5 309.5t255.5 94.5q86 0 162 -17v-155q-57 8 -111 8q-112 0 -154.5 -54t-42.5 -186v-125h293v-155h-293v-889h-192v889h-201zM928 0v1044h192v-1044h-192zM915 1257v218h218v-218h-218z" />
    <glyph glyph-name="fl" unicode="fl" horiz-adv-x="1320" 
d="M51 889v155h201v125q0 215 82.5 309.5t255.5 94.5q86 0 162 -17v-155q-57 8 -111 8q-112 0 -154.5 -54t-42.5 -186v-125h293v-155h-293v-889h-192v889h-201zM928 0v1561h192v-1561h-192z" />
    <glyph glyph-name=".notdef" horiz-adv-x="471" 
 />
    <glyph glyph-name=".null" horiz-adv-x="0" 
 />
    <glyph glyph-name="nonmarkingreturn" horiz-adv-x="682" 
 />
    <glyph glyph-name="space" unicode=" " horiz-adv-x="471" 
 />
    <glyph glyph-name="exclam" unicode="!" horiz-adv-x="737" 
d="M287 401l-33 1033h229l-32 -1033h-164zM254 0v229h229v-229h-229z" />
    <glyph glyph-name="quotedbl" unicode="&#x22;" horiz-adv-x="962" 
d="M238 932v502h180v-502h-180zM543 932v502h180v-502h-180z" />
    <glyph glyph-name="numbersign" unicode="#" horiz-adv-x="1187" 
d="M195 0l57 403h-178v156h198l45 315h-186v156h209l57 404h156l-57 -404h284l58 404h155l-57 -404h178v-156h-201l-45 -315h189v-156h-209l-57 -403h-156l57 403h-284l-58 -403h-155zM428 559h285l45 315h-285z" />
    <glyph glyph-name="dollar" unicode="$" horiz-adv-x="1187" 
d="M506 -205v189q-195 4 -387 59v188q75 -28 186 -50t201 -25v538q-52 20 -84.5 33.5t-80 37t-76.5 43.5t-63 50.5t-53 62.5t-32 74t-13 90q0 156 104.5 251t309.5 110v192h119v-188q179 -4 336 -51v-189q-128 50 -336 60v-439q67 -24 117 -46t107 -59.5t93.5 -80.5
t61 -106.5t24.5 -139.5q0 -167 -107 -277.5t-308 -131.5v-195h-119zM831 381q0 88 -56 155t-150 111v-483q96 19 151 77t55 140zM309 1100q0 -83 53.5 -135t155.5 -91v392q-115 -10 -162 -51t-47 -115z" />
    <glyph glyph-name="percent" unicode="%" horiz-adv-x="1843" 
d="M348 0l1000 1434h147l-999 -1434h-148zM453 754q-164 0 -249 91t-85 259q0 162 87 256t247 94q167 0 252.5 -91t85.5 -259q0 -161 -89 -255.5t-249 -94.5zM453 877q94 0 139 54.5t45 172.5t-44.5 172.5t-139.5 54.5q-181 0 -181 -227t181 -227zM1386 -20
q-164 0 -248.5 91t-84.5 259q0 163 86.5 256.5t246.5 93.5q167 0 252.5 -91t85.5 -259q0 -161 -89 -255.5t-249 -94.5zM1386 102q94 0 139.5 55t45.5 173t-44.5 172.5t-140.5 54.5q-180 0 -180 -227q0 -228 180 -228z" />
    <glyph glyph-name="ampersand" unicode="&#x26;" horiz-adv-x="1515" 
d="M657 -20q-127 0 -228.5 34.5t-164.5 93t-96 132t-33 155.5q0 116 73.5 214.5t209.5 166.5q-90 91 -132 170t-42 176q0 153 114 242.5t304 89.5q193 0 305 -91.5t112 -238.5q0 -245 -379 -387q73 -69 215 -199t211 -194q109 147 103 430h182q1 -159 -42.5 -300
t-125.5 -241l246 -233h-262l-111 117q-185 -137 -459 -137zM1008 227q-81 81 -157.5 152t-181.5 164t-143 127q-82 -47 -128 -118.5t-46 -150.5q0 -120 90 -193t238 -73q192 0 328 92zM438 1118q0 -146 148 -282q158 53 228.5 127t70.5 155q0 83 -60 131.5t-163 48.5
q-101 0 -162.5 -46t-61.5 -134z" />
    <glyph glyph-name="quotesingle" unicode="'" horiz-adv-x="573" 
d="M197 932v502h180v-502h-180z" />
    <glyph glyph-name="parenleft" unicode="(" horiz-adv-x="716" 
d="M483 -287q-89 123 -154.5 249.5t-99.5 221.5t-53.5 191t-24 149.5t-4.5 106.5q0 433 336 917h185q-316 -517 -316 -917q0 -122 28.5 -253.5t78 -253t100 -219.5t109.5 -192h-185z" />
    <glyph glyph-name="parenright" unicode=")" horiz-adv-x="716" 
d="M49 -287q58 95 107.5 192.5t100 219.5t79.5 254t29 252q0 122 -28.5 253.5t-78.5 252.5t-100 219t-109 192h184q89 -123 154.5 -249.5t99.5 -221.5t53.5 -190.5t24 -149t4.5 -106.5q0 -434 -336 -918h-184z" />
    <glyph glyph-name="asterisk" unicode="*" horiz-adv-x="1126" 
d="M395 639l-151 102l225 252l-326 68l58 174l307 -127l-33 326h187l-31 -326l297 127l55 -174l-319 -68l219 -252l-154 -102l-166 283z" />
    <glyph glyph-name="plus" unicode="+" horiz-adv-x="1187" 
d="M504 205v422h-422v180h422v422h180v-422h422v-180h-422v-422h-180z" />
    <glyph glyph-name="comma" unicode="," horiz-adv-x="573" 
d="M43 -272l129 501h227l-174 -501h-182z" />
    <glyph glyph-name="hyphen" unicode="-" 
d="M113 524v181h594v-181h-594z" />
    <glyph glyph-name="period" unicode="." horiz-adv-x="573" 
d="M172 0v229h229v-229h-229z" />
    <glyph glyph-name="slash" unicode="/" horiz-adv-x="655" 
d="M-41 0l553 1434h184l-553 -1434h-184z" />
    <glyph glyph-name="zero" unicode="0" horiz-adv-x="1269" 
d="M635 -20q-237 0 -369.5 183.5t-132.5 553.5q0 371 133.5 554t364.5 183q240 0 373 -182t133 -555q0 -192 -37 -336t-105.5 -230.5t-158 -128.5t-201.5 -42zM635 152q148 0 226.5 133t78.5 432q0 157 -21.5 268t-63 175.5t-96.5 93t-128 28.5q-69 0 -122 -28t-94 -91.5
t-63 -175.5t-22 -270q0 -565 305 -565z" />
    <glyph glyph-name="one" unicode="1" 
d="M426 0v1198l-307 -237l-99 131l429 342h169v-1434h-192z" />
    <glyph glyph-name="two" unicode="2" horiz-adv-x="1146" 
d="M82 0v205q45 36 133 103.5t133 103.5q166 132 260.5 225.5t147.5 188t53 190.5q0 131 -78.5 194.5t-218.5 63.5q-190 0 -375 -100v196q206 84 416 84q93 0 174 -24.5t144 -73t99 -127t36 -178.5q0 -91 -30 -178t-81 -164.5t-134 -160.5t-174 -157t-216 -164l-68 -47h723
v-180h-944z" />
    <glyph glyph-name="three" unicode="3" horiz-adv-x="1146" 
d="M508 -20q-201 0 -379 67v189q162 -76 348 -76q163 0 256.5 65.5t93.5 180.5q0 123 -109 189.5t-286 66.5h-125v167h115q181 0 277 63t96 171q0 100 -81 155.5t-233 55.5q-180 0 -327 -70v187q149 63 356 63q227 0 354 -95.5t127 -268.5q0 -131 -79 -216t-218 -122v-4
q111 -16 187.5 -72t109.5 -130t33 -163t-31 -159.5t-81 -115.5t-119 -74.5t-139 -41.5t-146 -12z" />
    <glyph glyph-name="four" unicode="4" horiz-adv-x="1187" 
d="M723 0v336h-680v170l592 928h272v-930h219v-168h-219v-336h-184zM250 504h473v747h-4z" />
    <glyph glyph-name="five" unicode="5" horiz-adv-x="1146" 
d="M434 -20q-165 0 -297 53v186q92 -36 154 -49.5t133 -13.5q178 0 281.5 77t103.5 224q0 142 -92 213t-264 71q-159 0 -301 -53l41 746h757v-181h-596l-20 -372q5 1 28.5 6t28 6t23 4.5t26.5 4.5t23.5 2.5t29.5 2t31 0.5q220 0 351 -116t131 -324q0 -237 -152.5 -362
t-419.5 -125z" />
    <glyph glyph-name="six" unicode="6" horiz-adv-x="1228" 
d="M621 -20q-109 0 -196 39t-142.5 104t-92.5 155.5t-52 187.5t-15 206q0 169 40 310.5t116 247.5t195 165t269 59q121 0 228 -39v-184q-122 51 -226 51q-140 0 -242.5 -73.5t-153 -197.5t-48.5 -282q58 76 146.5 123t199.5 47q196 0 318 -121.5t122 -328.5
q0 -130 -53.5 -235t-161 -169.5t-251.5 -64.5zM621 147q129 0 199.5 84t70.5 218q0 125 -68.5 203.5t-199.5 78.5q-132 0 -207.5 -78.5t-75.5 -203.5q0 -132 72.5 -217t208.5 -85z" />
    <glyph glyph-name="seven" unicode="7" horiz-adv-x="1126" 
d="M248 0l571 1253h-737v181h952v-168l-561 -1266h-225z" />
    <glyph glyph-name="eight" unicode="8" horiz-adv-x="1228" 
d="M621 -20q-138 0 -253 47t-185 139.5t-70 212.5q0 134 82.5 228t230.5 147v4q-141 66 -210 148.5t-69 201.5q0 84 38.5 151t103 109t146.5 64t173 22q128 0 233 -38t168.5 -114.5t63.5 -177.5q0 -60 -20 -113.5t-49 -89.5t-66.5 -67t-66.5 -48.5t-54 -31.5q-9 -4 -12 -6
v-2q140 -55 225.5 -152t85.5 -229q0 -131 -66.5 -224t-176.5 -137t-252 -44zM629 147q127 0 201.5 65t74.5 171q0 52 -21 93t-68.5 76.5t-99 62t-138.5 63.5q-150 -74 -202 -137t-52 -146q0 -64 25 -113t68.5 -77.5t97 -43t114.5 -14.5zM657 825q111 71 157 132.5t46 134.5
q0 97 -73 145.5t-183 48.5q-107 0 -181.5 -53t-74.5 -141q0 -79 73 -139.5t236 -127.5z" />
    <glyph glyph-name="nine" unicode="9" horiz-adv-x="1228" 
d="M598 1454q110 0 197.5 -36.5t144.5 -99t95 -151t54.5 -187t16.5 -212.5q0 -139 -20.5 -256.5t-66 -216.5t-113.5 -168.5t-166.5 -108t-221.5 -38.5q-156 0 -266 38v189q118 -47 264 -47q141 0 236 72t136.5 192t39.5 281q-117 -170 -342 -170q-199 0 -322 121.5
t-123 328.5t120.5 338t336.5 131zM606 1288q-129 0 -198.5 -84.5t-69.5 -218.5q0 -125 68.5 -204t199.5 -79q132 0 207.5 79t75.5 204q0 132 -73.5 217.5t-209.5 85.5z" />
    <glyph glyph-name="colon" unicode=":" horiz-adv-x="573" 
d="M172 815v229h229v-229h-229zM172 0v229h229v-229h-229z" />
    <glyph glyph-name="semicolon" unicode=";" horiz-adv-x="573" 
d="M43 -272l129 501h229l-174 -501h-184zM172 815v229h229v-229h-229z" />
    <glyph glyph-name="less" unicode="&#x3c;" horiz-adv-x="1187" 
d="M1036 358v-204l-901 460v205l901 461v-205l-706 -358z" />
    <glyph glyph-name="equal" unicode="=" horiz-adv-x="1187" 
d="M82 842v180h1024v-180h-1024zM82 412v180h1024v-180h-1024z" />
    <glyph glyph-name="greater" unicode="&#x3e;" horiz-adv-x="1187" 
d="M152 154v204l706 359l-706 358v205l901 -461v-205z" />
    <glyph glyph-name="question" unicode="?" horiz-adv-x="1024" 
d="M418 399v41q0 87 31 160t75 125t87.5 101.5t74.5 112t31 134.5q0 98 -62 152.5t-184 54.5q-183 0 -315 -82v188q155 68 327 68q213 0 332 -101t119 -263q0 -82 -33.5 -156.5t-81 -130.5t-95 -111t-81 -122.5t-33.5 -139.5v-31h-192zM399 0v229h230v-229h-230z" />
    <glyph glyph-name="at" unicode="@" horiz-adv-x="1740" 
d="M948 -276q-201 0 -362.5 63t-266.5 174t-161 262t-56 328q0 230 99.5 417t281 295.5t410.5 108.5q174 0 317.5 -56.5t235.5 -151.5t142 -216t50 -254q0 -115 -26 -210t-68.5 -158.5t-99 -107.5t-116 -63.5t-120.5 -19.5q-168 0 -168 144q-106 -144 -280 -144
q-122 0 -208.5 103t-86.5 260q0 89 30 170.5t83.5 144t134 100t174.5 37.5q80 0 136 -31.5t81 -89.5h4l27 109h145l-80 -451q-22 -121 -21 -148q1 -50 44 -57q9 -1 20 -1q44 0 87 24t81 71.5t61 130t23 187.5t-39 200t-112.5 170.5t-190.5 120t-262 44.5q-191 0 -336 -88.5
t-222 -243t-77 -350.5q0 -148 44 -271.5t127.5 -215t213 -142.5t293.5 -51q97 0 192 17.5t146 43.5v-141q-46 -25 -138 -44t-186 -19zM819 285q86 0 143 50t80 124t23 168q0 81 -48.5 128.5t-135.5 47.5q-80 0 -139 -46.5t-86 -114t-27 -144.5q0 -90 52 -151.5t138 -61.5z
" />
    <glyph glyph-name="A" unicode="A" horiz-adv-x="1413" 
d="M31 0l567 1434h217l567 -1434h-225l-137 369h-635l-137 -369h-217zM702 1219l-256 -687h515l-254 687h-5z" />
    <glyph glyph-name="B" unicode="B" horiz-adv-x="1249" 
d="M190 0v1434h424q512 0 512 -369q0 -252 -264 -322v-4q305 -65 305 -348q0 -193 -121.5 -292t-390.5 -99h-465zM391 168h264q295 0 295 244q0 241 -295 241h-264v-485zM391 821h223q306 0 306 223q0 222 -306 222h-223v-445z" />
    <glyph glyph-name="C" unicode="C" horiz-adv-x="1290" 
d="M850 -20q-348 0 -549 199t-201 538q0 163 53.5 300t150 233t237 150t309.5 54q86 0 171 -14t127 -28l42 -15v-197q-17 8 -46.5 20.5t-118.5 33t-175 20.5q-247 0 -392 -150t-145 -407t145 -407t392 -150q86 0 171 16t127 32l42 15v-196q-17 -5 -46.5 -13t-118.5 -21
t-175 -13z" />
    <glyph glyph-name="D" unicode="D" horiz-adv-x="1474" 
d="M190 0v1434h480q318 0 511 -197t193 -524q0 -341 -187.5 -527t-516.5 -186h-480zM391 180h277q238 0 363.5 133t125.5 383q0 258 -125.5 407.5t-339.5 149.5h-301v-1073z" />
    <glyph glyph-name="E" unicode="E" horiz-adv-x="1105" 
d="M190 0v1434h805v-181h-604v-419h563v-181h-563v-473h604v-180h-805z" />
    <glyph glyph-name="F" unicode="F" horiz-adv-x="1064" 
d="M190 0v1434h803v-181h-602v-419h578v-181h-578v-653h-201z" />
    <glyph glyph-name="G" unicode="G" horiz-adv-x="1464" 
d="M848 -20q-354 0 -551 197t-197 540q0 338 203 537.5t555 199.5q130 0 240.5 -25.5t169.5 -56.5v-196q-58 38 -169 68t-241 30q-248 0 -394.5 -150t-146.5 -407q0 -264 141.5 -410.5t407.5 -146.5q127 0 232 18v422h-332v180h532v-741q-182 -59 -450 -59z" />
    <glyph glyph-name="H" unicode="H" horiz-adv-x="1474" 
d="M190 0v1434h201v-600h692v600h201v-1434h-201v653h-692v-653h-201z" />
    <glyph glyph-name="I" unicode="I" horiz-adv-x="634" 
d="M217 0v1434h201v-1434h-201z" />
    <glyph glyph-name="J" unicode="J" horiz-adv-x="778" 
d="M186 -20q-103 0 -157 20v180q73 -20 129 -20q129 0 181 68t52 208v998h201v-1063q0 -197 -105 -294t-301 -97z" />
    <glyph glyph-name="K" unicode="K" horiz-adv-x="1320" 
d="M190 0v1434h201v-590h211l414 590h248l-492 -678l539 -756h-250l-461 664h-209v-664h-201z" />
    <glyph glyph-name="L" unicode="L" horiz-adv-x="1064" 
d="M190 0v1434h201v-1254h641v-180h-842z" />
    <glyph glyph-name="M" unicode="M" horiz-adv-x="1761" 
d="M190 0v1434h326l369 -789l370 789h316v-1434h-201v1237h-6l-401 -827h-164l-402 827h-6v-1237h-201z" />
    <glyph glyph-name="N" unicode="N" horiz-adv-x="1495" 
d="M190 0v1434h267l647 -1168h4l-4 183v985h201v-1434h-267l-647 1167h-4l4 -163v-1004h-201z" />
    <glyph glyph-name="O" unicode="O" horiz-adv-x="1536" 
d="M768 -20q-206 0 -358.5 95.5t-231 261.5t-78.5 380q0 215 79.5 381.5t232 261t356.5 94.5q205 0 358 -96t231.5 -262t78.5 -379q0 -216 -79.5 -382.5t-232 -260.5t-356.5 -94zM768 160q143 0 248 77t156 201.5t51 278.5q0 157 -52.5 282t-157 200t-245.5 75
q-142 0 -247 -76.5t-156.5 -201t-51.5 -279.5q0 -157 51.5 -281.5t156.5 -200t247 -75.5z" />
    <glyph glyph-name="P" unicode="P" horiz-adv-x="1228" 
d="M190 0v1434h459q261 0 390.5 -116.5t129.5 -336.5t-129.5 -336.5t-390.5 -116.5h-258v-528h-201zM391 709h258q307 0 307 272t-307 272h-258v-544z" />
    <glyph glyph-name="Q" unicode="Q" horiz-adv-x="1536" 
d="M768 -20q-206 0 -358.5 95.5t-231 261.5t-78.5 380q0 215 79.5 381.5t232 261t356.5 94.5q205 0 358 -96t231.5 -262t78.5 -379q0 -230 -91.5 -404t-257.5 -260l345 -311h-254l-273 250q-65 -12 -137 -12zM768 160q143 0 248 77t156 201.5t51 278.5q0 157 -52.5 282
t-157 200t-245.5 75q-142 0 -247 -76.5t-156.5 -201t-51.5 -279.5q0 -157 51.5 -281.5t156.5 -200t247 -75.5z" />
    <glyph glyph-name="R" unicode="R" horiz-adv-x="1280" 
d="M995 0l-256 547q-33 -4 -102 -4h-246v-543h-201v1434h447q257 0 384.5 -116t127.5 -335q0 -274 -213 -383l307 -600h-248zM391 713h246q151 0 223 67.5t72 202.5t-72 202.5t-223 67.5h-246v-540z" />
    <glyph glyph-name="S" unicode="S" horiz-adv-x="1085" 
d="M457 -20q-161 0 -328 59v188q66 -29 162.5 -48t169.5 -19q135 0 215 67.5t80 163.5q0 28 -8.5 53.5t-20.5 45.5t-36 41.5t-42 35t-54 34t-56 30.5l-62 31q-48 23 -75.5 37t-71.5 40t-70 46.5t-57.5 52.5t-48.5 64.5t-29 75t-12 89.5q0 174 125 280.5t356 106.5
q168 0 311 -51v-189q-138 60 -311 60q-135 0 -199.5 -50t-64.5 -130q0 -36 15.5 -68.5t35.5 -54.5t61.5 -49t69 -41t82.5 -41q42 -20 68 -33t66 -35t65 -41t56.5 -46t51 -56t37.5 -64t26.5 -77t8.5 -89q0 -189 -134.5 -304t-381.5 -115z" />
    <glyph glyph-name="T" unicode="T" horiz-adv-x="1146" 
d="M473 0v1253h-438v181h1077v-181h-438v-1253h-201z" />
    <glyph glyph-name="U" unicode="U" horiz-adv-x="1474" 
d="M737 -20q-263 0 -407 155t-144 455v844h201v-824q0 -239 87 -344.5t263 -105.5t263 105.5t87 344.5v824h201v-844q0 -300 -144 -455t-407 -155z" />
    <glyph glyph-name="V" unicode="V" horiz-adv-x="1351" 
d="M547 0l-522 1434h223l428 -1254h6l430 1254h215l-524 -1434h-256z" />
    <glyph glyph-name="W" unicode="W" horiz-adv-x="2048" 
d="M436 0l-432 1434h225l342 -1229h4l306 1229h290l310 -1229h4l342 1229h217l-440 -1434h-265l-311 1253h-4l-313 -1253h-275z" />
    <glyph glyph-name="X" unicode="X" horiz-adv-x="1413" 
d="M1114 0l-420 606l-407 -606h-246l526 745l-479 689h246l381 -551l377 551h233l-481 -684l528 -750h-258z" />
    <glyph glyph-name="Y" unicode="Y" horiz-adv-x="1331" 
d="M25 1434h239l402 -676h4l397 676h240l-539 -883v-551h-201v551z" />
    <glyph glyph-name="Z" unicode="Z" horiz-adv-x="1187" 
d="M119 0v184l704 1069h-680v181h914v-181l-711 -1073h723v-180h-950z" />
    <glyph glyph-name="bracketleft" unicode="[" horiz-adv-x="716" 
d="M225 -287v1835h387v-143h-206v-1548h206v-144h-387z" />
    <glyph glyph-name="backslash" unicode="\" horiz-adv-x="655" 
d="M512 0l-553 1434h184l553 -1434h-184z" />
    <glyph glyph-name="bracketright" unicode="]" horiz-adv-x="716" 
d="M492 1548v-1835h-388v144h207v1548h-207v143h388z" />
    <glyph glyph-name="asciicircum" unicode="^" horiz-adv-x="1187" 
d="M51 717l451 717h184l451 -717h-205l-338 553l-338 -553h-205z" />
    <glyph glyph-name="underscore" unicode="_" horiz-adv-x="1024" 
d="M0 -256v102h1024v-102h-1024z" />
    <glyph glyph-name="grave" unicode="`" 
d="M330 1249l-242 267h246l160 -267h-164z" />
    <glyph glyph-name="a" unicode="a" horiz-adv-x="1142" 
d="M438 -16q-164 0 -260 84t-96 229q0 173 134.5 263.5t404.5 90.5h192v35q0 109 -75.5 162t-209.5 53q-185 0 -350 -90v180q162 70 375 70q453 0 453 -412v-649h-197v160h-4q-62 -91 -160.5 -133.5t-206.5 -42.5zM485 147q141 0 234.5 84.5t93.5 206.5v66h-184
q-342 0 -342 -195q0 -77 52.5 -119.5t145.5 -42.5z" />
    <glyph glyph-name="b" unicode="b" horiz-adv-x="1290" 
d="M705 -16q-116 0 -200.5 40t-148.5 121h-4l-14 -145h-168v1556h192v-651h5q141 156 342 156q212 0 346.5 -149t134.5 -377q0 -241 -132.5 -396t-352.5 -155zM672 139q134 0 223.5 110t89.5 277q0 164 -88.5 271.5t-220.5 107.5q-138 0 -226 -108.5t-88 -276.5
q0 -166 87 -273.5t223 -107.5z" />
    <glyph glyph-name="c" unicode="c" horiz-adv-x="993" 
d="M623 -16q-241 0 -382 147t-141 391q0 242 143.5 390.5t381.5 148.5q74 0 139 -10.5t93 -20.5l28 -10v-166q-11 6 -31.5 14.5t-83 22.5t-125.5 14q-163 0 -251.5 -100t-88.5 -283t88.5 -283t249.5 -100q64 0 124.5 13.5t88.5 27.5l29 13v-168q-11 -5 -32 -11.5t-89.5 -18
t-140.5 -11.5z" />
    <glyph glyph-name="d" unicode="d" horiz-adv-x="1290" 
d="M586 -16q-220 0 -353 155t-133 396q0 228 135 377t347 149q204 0 342 -156h4v651h192v-1556h-184v147h-12q-130 -163 -338 -163zM618 139q136 0 223 107.5t87 273.5q0 168 -88 276.5t-226 108.5q-132 0 -220.5 -107.5t-88.5 -271.5q0 -167 89.5 -277t223.5 -110z" />
    <glyph glyph-name="e" unicode="e" horiz-adv-x="1177" 
d="M1071 479h-772q17 -161 112 -248.5t253 -87.5q90 0 182 23.5t153 58.5v-188q-175 -53 -348 -53q-263 0 -407 147.5t-144 409.5q0 234 141 377t353 143q227 0 352 -134t125 -395v-53zM592 905q-119 0 -196.5 -76t-96.5 -206h567q0 132 -76 207t-198 75z" />
    <glyph glyph-name="f" unicode="f" horiz-adv-x="757" 
d="M51 889v155h201v125q0 215 82.5 309.5t255.5 94.5q86 0 162 -17v-155q-57 8 -111 8q-112 0 -154.5 -54t-42.5 -186v-125h293v-155h-293v-889h-192v889h-201z" />
    <glyph glyph-name="g" unicode="g" horiz-adv-x="1290" 
d="M565 -467q-96 0 -192.5 17.5t-145.5 35.5l-49 17v184q7 -4 20 -10.5t54 -23.5t84 -30t106 -23.5t123 -10.5q183 0 273 90t90 274v109h-6q-51 -75 -143 -118.5t-199 -43.5q-208 0 -344 144t-136 384q0 124 38.5 225.5t105.5 168t157 103t193 36.5q200 0 340 -166h6v149
h180v-991q0 -262 -135.5 -391t-419.5 -129zM621 156q133 0 219 99t86 273q0 180 -89.5 278.5t-228.5 98.5q-132 0 -217.5 -94.5t-85.5 -269.5q0 -173 92 -279t224 -106z" />
    <glyph glyph-name="h" unicode="h" horiz-adv-x="1249" 
d="M170 0v1556h192v-512l-2 -149h7q117 166 348 166q189 0 293 -112t104 -335v-614h-192v553q0 193 -63 272.5t-183 79.5q-144 0 -228 -104t-84 -309v-492h-192z" />
    <glyph glyph-name="i" unicode="i" horiz-adv-x="593" 
d="M201 0v1044h192v-1044h-192zM188 1257v218h218v-218h-218z" />
    <glyph glyph-name="j" unicode="j" horiz-adv-x="593" 
d="M63 -467q-28 0 -52 2.5t-34 4.5l-10 3v164q31 -8 70 -8q80 0 122 48.5t42 162.5v1134h192v-1134q0 -110 -20 -183.5t-63.5 -116t-102 -60t-144.5 -17.5zM188 1257v218h218v-218h-218z" />
    <glyph glyph-name="k" unicode="k" horiz-adv-x="1136" 
d="M170 0v1556h192v-999l506 487h240l-465 -434l471 -610h-235l-371 492l-146 -138v-354h-192z" />
    <glyph glyph-name="l" unicode="l" horiz-adv-x="593" 
d="M201 0v1561h192v-1561h-192z" />
    <glyph glyph-name="m" unicode="m" horiz-adv-x="1812" 
d="M170 0v1044h180v-151h4q52 82 141 125t187 43q108 0 186 -53.5t117 -149.5q110 203 346 203q167 0 255.5 -108t88.5 -283v-670h-192v623q0 282 -195 282q-89 0 -152 -56.5t-90.5 -140t-27.5 -182.5v-526h-191v623q0 133 -47 207.5t-147 74.5q-126 0 -198.5 -108
t-72.5 -271v-526h-192z" />
    <glyph glyph-name="n" unicode="n" horiz-adv-x="1249" 
d="M170 0v1044h192v-149h5q117 166 348 166q189 0 293 -112t104 -335v-614h-192v553q0 193 -63 272.5t-183 79.5q-144 0 -228 -104t-84 -309v-492h-192z" />
    <glyph glyph-name="o" unicode="o" horiz-adv-x="1269" 
d="M635 -16q-237 0 -386 149.5t-149 388.5t149 389t386 150q236 0 385 -150t149 -389t-148.5 -388.5t-385.5 -149.5zM635 139q139 0 234.5 106t95.5 277q0 170 -96 276.5t-234 106.5q-139 0 -234.5 -106t-95.5 -277t95.5 -277t234.5 -106z" />
    <glyph glyph-name="p" unicode="p" horiz-adv-x="1290" 
d="M362 137v-596h-192v1503h184v-149h4q125 166 349 166q150 0 260.5 -70t166.5 -189t56 -272q0 -150 -55.5 -273t-164.5 -198t-253 -75q-117 0 -206.5 44.5t-139.5 108.5h-9zM672 139q143 0 228 108.5t85 289.5q0 167 -83.5 267.5t-223.5 100.5q-144 0 -230 -105t-86 -280
q0 -173 84.5 -277t225.5 -104z" />
    <glyph glyph-name="q" unicode="q" horiz-adv-x="1290" 
d="M928 -459v596h-8q-50 -64 -140 -108.5t-207 -44.5q-144 0 -253 75t-164.5 198t-55.5 273q0 233 129.5 382t354.5 149q223 0 348 -166h4v149h184v-1503h-192zM618 139q141 0 225.5 104t84.5 277q0 175 -86 280t-230 105q-140 0 -223.5 -100.5t-83.5 -267.5
q0 -181 85 -289.5t228 -108.5z" />
    <glyph glyph-name="r" unicode="r" horiz-adv-x="829" 
d="M170 0v1044h180v-170h4q50 98 123 142.5t176 44.5q49 0 121 -10v-168q-68 10 -115 10q-154 0 -225.5 -107t-71.5 -319v-467h-192z" />
    <glyph glyph-name="s" unicode="s" horiz-adv-x="962" 
d="M434 -16q-171 0 -311 57v170q154 -70 293 -70q111 0 168 40t57 98q0 29 -13.5 52t-44 43.5t-57.5 34t-75 34.5q-15 7 -23 10q-40 18 -59.5 27t-55 26.5t-54 30.5t-45.5 33.5t-41 40t-29 45t-21 55t-6 63.5q0 132 106 209.5t299 77.5q88 0 166 -14t115 -27v-164
q-106 45 -258 45q-111 0 -165 -31t-54 -86q0 -29 14 -52.5t43 -43.5t58 -34.5t75 -34.5q8 -3 12 -5q131 -58 163 -76q130 -73 157 -182q8 -32 8 -69q0 -137 -112 -220t-310 -83z" />
    <glyph glyph-name="t" unicode="t" horiz-adv-x="778" 
d="M694 1044v-155h-258v-563q0 -88 44.5 -127t117.5 -39q48 0 104 16v-174q-66 -18 -137 -18q-154 0 -236.5 85t-82.5 238v582h-191v155h191v261l190 69v-330h258z" />
    <glyph glyph-name="u" unicode="u" horiz-adv-x="1249" 
d="M1079 1044v-1044h-192v150h-4q-120 -166 -348 -166q-189 0 -293.5 112t-104.5 334v614h193v-552q0 -193 62.5 -273t182.5 -80q144 0 228 104.5t84 309.5v491h192z" />
    <glyph glyph-name="v" unicode="v" horiz-adv-x="1105" 
d="M438 0l-415 1044h210l320 -851h12l326 851h192l-415 -1044h-230z" />
    <glyph glyph-name="w" unicode="w" horiz-adv-x="1648" 
d="M369 0l-336 1044h211l233 -831l268 831h164l267 -835l251 835h189l-338 -1044h-203l-258 791l-246 -791h-202z" />
    <glyph glyph-name="x" unicode="x" horiz-adv-x="1105" 
d="M41 0l395 547l-368 497h239l258 -387l262 387h215l-364 -497l387 -547h-238l-278 418l-279 -418h-229z" />
    <glyph glyph-name="y" unicode="y" horiz-adv-x="1126" 
d="M248 -459q-24 0 -46 2.5t-32 4.5l-10 3v158q37 -6 76 -6q83 0 125 44.5t81 150.5l19 51l-428 1095h211l317 -856h14l324 856h195l-435 -1085q-35 -86 -58 -138t-53 -105t-57 -81.5t-63.5 -52t-79.5 -32.5t-100 -9z" />
    <glyph glyph-name="z" unicode="z" horiz-adv-x="1024" 
d="M98 0v168l582 721h-553v155h776v-167l-584 -721h607v-156h-828z" />
    <glyph glyph-name="braceleft" unicode="{" horiz-adv-x="716" 
d="M553 -287q-124 0 -195 75t-71 210v362q0 187 -176 205v140q176 18 176 204v363q0 135 71 209.5t195 74.5h61v-143h-32q-60 0 -89.5 -36t-29.5 -120v-376q0 -98 -50.5 -165t-133.5 -81q85 -15 134.5 -83t49.5 -163v-377q0 -84 29 -119.5t90 -35.5h32v-144h-61z" />
    <glyph glyph-name="bar" unicode="|" horiz-adv-x="532" 
d="M164 -283v1831h205v-1831h-205z" />
    <glyph glyph-name="braceright" unicode="}" horiz-adv-x="716" 
d="M164 -287h-62v144h33q61 0 90 35.5t29 119.5v377q0 95 49.5 163t134.5 83q-83 14 -133.5 81t-50.5 165v376q0 84 -29.5 120t-89.5 36h-33v143h62q124 0 195 -74.5t71 -209.5v-363q0 -186 176 -204v-140q-176 -18 -176 -205v-362q0 -135 -71 -210t-195 -75z" />
    <glyph glyph-name="asciitilde" unicode="~" horiz-adv-x="1187" 
d="M803 547q-50 0 -99.5 16t-89.5 38.5t-77.5 45.5t-77 39t-74.5 16q-55 0 -108.5 -36.5t-92.5 -104.5l-127 113q146 200 332 200q56 0 108.5 -16t92.5 -39t76 -45.5t72 -38.5t67 -16q54 0 107.5 34.5t93.5 98.5l124 -102q-60 -96 -146.5 -149.5t-180.5 -53.5z" />
    <glyph glyph-name="uni00A0" unicode="&#xa0;" horiz-adv-x="471" 
 />
    <glyph glyph-name="exclamdown" unicode="&#xa1;" horiz-adv-x="737" 
d="M254 -389l33 1032h164l32 -1032h-229zM254 815v229h229v-229h-229z" />
    <glyph glyph-name="cent" unicode="&#xa2;" horiz-adv-x="1187" 
d="M608 -217v207q-218 23 -345.5 167t-127.5 365q0 222 127.5 366t345.5 167v211h119v-205q78 -3 140 -14.5t85 -22.5l23 -10v-168q-9 7 -27.5 16.5t-86.5 26t-148 16.5q-176 0 -274.5 -100.5t-98.5 -282.5q0 -183 98 -283t275 -100q79 0 144.5 15t91.5 30l26 15v-168
q-8 -5 -25.5 -12t-81.5 -19.5t-141 -15.5v-201h-119z" />
    <glyph glyph-name="sterling" unicode="&#xa3;" horiz-adv-x="1187" 
d="M113 0v180h188v514h-188v144h188v104q0 242 139 375t389 133q153 0 250 -39v-190q-112 49 -241 49q-332 0 -332 -328v-104h405v-144h-405v-514h561v-180h-954z" />
    <glyph glyph-name="currency" unicode="&#xa4;" horiz-adv-x="1187" 
d="M184 205l-102 102l113 115q-101 120 -101 295q0 182 101 299l-113 108l102 105l111 -111q134 99 299 99q169 0 303 -99l109 111l100 -105l-109 -108q97 -122 97 -299q0 -170 -97 -295l109 -115l-100 -102l-109 114q-119 -102 -303 -102q-180 0 -299 102zM594 383
q138 0 231 98.5t93 235.5q0 136 -93.5 235t-230.5 99q-134 0 -229 -98.5t-95 -235.5q0 -139 95 -236.5t229 -97.5z" />
    <glyph glyph-name="yen" unicode="&#xa5;" horiz-adv-x="1187" 
d="M205 608v144h190l-399 682h227l377 -654l365 654h227l-397 -682h192v-144h-289v-147h289v-144h-289v-317h-204v317h-289v144h289v147h-289z" />
    <glyph glyph-name="brokenbar" unicode="&#xa6;" horiz-adv-x="532" 
d="M164 811v737h205v-737h-205zM164 -283v738h205v-738h-205z" />
    <glyph glyph-name="section" unicode="&#xa7;" horiz-adv-x="1126" 
d="M500 -244q-71 0 -153.5 13t-129.5 25l-47 13l18 179q18 -7 49.5 -17.5t116.5 -28.5t154 -18q127 0 192.5 45t65.5 119q0 45 -33.5 81t-87.5 61.5t-119 50.5t-130 55.5t-119 68t-87.5 96.5t-33.5 134q0 83 37.5 147.5t109.5 100.5q-139 90 -139 243q0 107 63 183.5
t161 111.5t218 35q68 0 138.5 -10t107.5 -20l37 -9l-19 -178q-14 5 -38 13.5t-91.5 22t-126.5 13.5q-48 0 -92 -8.5t-82 -25.5t-61 -47t-23 -70q0 -41 26.5 -74.5t70 -55.5t99 -45t113 -43t113 -50t99 -65t70 -89t26.5 -121q0 -149 -148 -248q133 -90 133 -240
q0 -92 -38 -161t-104 -108.5t-145.5 -59t-170.5 -19.5zM336 682q0 -39 17 -71.5t40.5 -54.5t65.5 -44.5t76 -36t88.5 -34.5t87.5 -35q37 29 59.5 73.5t22.5 87.5q0 34 -17 63.5t-42.5 49.5t-67.5 40.5t-79 34.5t-90.5 34t-88.5 36q-72 -54 -72 -143z" />
    <glyph glyph-name="dieresis" unicode="&#xa8;" 
d="M504 1270v205h192v-205h-192zM123 1270v205h192v-205h-192z" />
    <glyph glyph-name="copyright" unicode="&#xa9;" horiz-adv-x="1802" 
d="M932 311q-83 0 -150.5 24.5t-112.5 64.5t-76 94t-44.5 112t-13.5 119q0 177 108 289t277 112q114 0 206 -30v-123q-70 31 -186 31q-112 0 -176 -79t-64 -200q0 -135 71 -211t173 -76q105 0 189 35v-125q-90 -37 -201 -37zM901 -20q-205 0 -374 97t-266 266t-97 374
t97 374t266 266t374 97t374 -97t266 -266t97 -374t-97 -374t-266 -266t-374 -97zM901 115q122 0 234 48t193 128.5t129 192t48 233.5t-48 234t-129 193t-193 129t-234 48t-234 -48t-193 -129t-129 -193t-48 -234t48 -233.5t129 -192t193 -128.5t234 -48z" />
    <glyph glyph-name="ordfeminine" unicode="&#xaa;" 
d="M319 549q-111 0 -188 70.5t-78 197.5q-1 68 19 119t55 83.5t90 52.5t118.5 28t145.5 8h54v55q0 127 -160 127q-84 0 -260 -45v164q59 21 142.5 33t150.5 12q148 0 227.5 -81.5t79.5 -264.5v-539h-180v82h-5q-90 -102 -211 -102zM375 709q78 0 119 52.5t41 133.5v90h-62
q-117 0 -171 -37.5t-54 -111.5q0 -66 34.5 -96.5t92.5 -30.5z" />
    <glyph glyph-name="guillemotleft" unicode="&#xab;" horiz-adv-x="1136" 
d="M815 199l-293 413l293 414h180l-266 -414l266 -413h-180zM401 199l-292 413l292 414h181l-267 -414l267 -413h-181z" />
    <glyph glyph-name="logicalnot" unicode="&#xac;" horiz-adv-x="1187" 
d="M905 350v430h-823v181h1003v-611h-180z" />
    <glyph glyph-name="uni00AD" unicode="&#xad;" 
d="M113 524v181h594v-181h-594z" />
    <glyph glyph-name="registered" unicode="&#xae;" horiz-adv-x="1802" 
d="M901 -20q-205 0 -374 97t-266 266t-97 374t97 374t266 266t374 97t374 -97t266 -266t97 -374t-97 -374t-266 -266t-374 -97zM901 115q122 0 234 48t193 128.5t129 192t48 233.5t-48 234t-129 193t-193 129t-234 48t-234 -48t-193 -129t-129 -193t-48 -234t48 -233.5
t129 -192t193 -128.5t234 -48zM631 309v811h252q311 0 311 -254q0 -155 -121 -213l152 -344h-160l-123 309q-18 -2 -59 -2h-103v-307h-149zM780 729h103q168 0 168 137q0 65 -42 100t-126 35h-103v-272z" />
    <glyph glyph-name="macron" unicode="&#xaf;" 
d="M102 1341v144h615v-144h-615z" />
    <glyph glyph-name="degree" unicode="&#xb0;" horiz-adv-x="778" 
d="M389 868q-127 0 -210 83t-83 210t83 210t210 83t210 -83t83 -210t-83 -210t-210 -83zM389 999q66 0 111 46.5t45 115.5t-45 115.5t-111 46.5t-111 -46.5t-45 -115.5t45 -115.5t111 -46.5z" />
    <glyph glyph-name="plusminus" unicode="&#xb1;" horiz-adv-x="1187" 
d="M504 492v329h-422v180h422v330h180v-330h422v-180h-422v-329h-180zM82 186v181h1024v-181h-1024z" />
    <glyph glyph-name="twosuperior" unicode="&#xb2;" 
d="M104 578v155q202 152 270 215q148 137 148 242q0 55 -36.5 88t-114.5 33q-127 0 -226 -60v152q119 51 246 51q151 0 231 -70t80 -184q0 -112 -92 -225t-295 -254h402v-143h-613z" />
    <glyph glyph-name="threesuperior" unicode="&#xb3;" 
d="M330 565q-124 0 -250 33v156q33 -18 101.5 -31.5t131.5 -13.5q35 0 68.5 4.5t70.5 15t60 34t23 56.5q0 61 -70 98t-150 37h-100v144h94q45 0 92.5 12t85 40.5t37.5 66.5q0 27 -19 46.5t-50 29t-62 14t-63 4.5q-111 0 -217 -45v147q112 41 262 41q89 0 162 -23.5
t121.5 -76t48.5 -127.5q0 -85 -59.5 -134t-145.5 -65v-4q213 -28 213 -211q0 -57 -22 -101t-57.5 -71.5t-87 -45t-104 -24t-114.5 -6.5z" />
    <glyph glyph-name="acute" unicode="&#xb4;" 
d="M324 1249l159 267h246l-242 -267h-163z" />
    <glyph glyph-name="uni00B5" unicode="&#xb5;" horiz-adv-x="1228" 
d="M170 -459v1503h192v-552q0 -192 56.5 -272.5t163.5 -80.5q127 0 205.5 105.5t78.5 308.5v491h193v-1044h-193v150h-4q-114 -166 -321 -166q-91 0 -174 47l-5 -4v-486h-192z" />
    <glyph glyph-name="paragraph" unicode="&#xb6;" horiz-adv-x="1372" 
d="M481 -287v1004h-30q-148 0 -246.5 104.5t-98.5 253.5q0 151 98.5 255t246.5 104h731v-1721h-193v1573h-315v-1573h-193z" />
    <glyph glyph-name="periodcentered" unicode="&#xb7;" horiz-adv-x="573" 
d="M172 618v230h229v-230h-229z" />
    <glyph glyph-name="cedilla" unicode="&#xb8;" 
d="M379 -397q-74 0 -141 51l43 82q46 -27 86 -27q37 0 62.5 18.5t25.5 55.5t-26.5 55.5t-68.5 18.5q-25 0 -53 -7l23 168h108l-10 -75q158 -5 158 -152q0 -83 -58.5 -135.5t-148.5 -52.5z" />
    <glyph glyph-name="onesuperior" unicode="&#xb9;" 
d="M154 721h219v516l-156 -113l-86 115l248 195h158v-713h194v-143h-577v143z" />
    <glyph glyph-name="ordmasculine" unicode="&#xba;" 
d="M389 565q-167 0 -259.5 116.5t-92.5 328.5t92.5 328t259.5 116t259.5 -116t92.5 -328t-92.5 -328.5t-259.5 -116.5zM389 711q78 0 122 78.5t44 220.5t-44 220.5t-122 78.5t-122 -78.5t-44 -220.5t44 -220.5t122 -78.5z" />
    <glyph glyph-name="guillemotright" unicode="&#xbb;" horiz-adv-x="1136" 
d="M614 612l-292 -413h-181l267 413l-267 414h181zM1028 612l-293 -413h-180l266 413l-266 414h180z" />
    <glyph glyph-name="onequarter" unicode="&#xbc;" horiz-adv-x="1843" 
d="M373 578v659l-156 -113l-86 115l248 195h158v-856h-164zM1477 0v170h-424v125l366 569h223v-551h115v-143h-115v-170h-165zM1221 313h256v398h-4zM373 0l999 1434h148l-1000 -1434h-147z" />
    <glyph glyph-name="onehalf" unicode="&#xbd;" horiz-adv-x="1843" 
d="M373 578v659l-156 -113l-86 115l248 195h158v-856h-164zM344 0l999 1434h148l-999 -1434h-148zM1186 0v156q201 152 268 212q150 138 150 244q0 55 -37 88t-115 33q-128 0 -225 -59v151q122 52 246 52q151 0 231 -70t80 -184q0 -112 -92.5 -226t-294.5 -254h401v-143
h-612z" />
    <glyph glyph-name="threequarters" unicode="&#xbe;" horiz-adv-x="1843" 
d="M330 565q-124 0 -250 33v156q33 -18 101.5 -31.5t131.5 -13.5q35 0 68.5 4.5t70.5 15t60 34t23 56.5q0 61 -70 98t-150 37h-100v144h94q45 0 92.5 12t85 40.5t37.5 66.5q0 27 -19 46.5t-50 29t-62 14t-63 4.5q-111 0 -217 -45v147q112 41 262 41q89 0 162 -23.5
t121.5 -76t48.5 -127.5q0 -85 -59.5 -134t-145.5 -65v-4q213 -28 213 -211q0 -57 -22 -101t-57.5 -71.5t-87 -45t-104 -24t-114.5 -6.5zM1477 -10v170h-424v125l366 569h223v-551h115v-143h-115v-170h-165zM1221 303h256v397h-4zM418 0l999 1434h148l-1000 -1434h-147z" />
    <glyph glyph-name="questiondown" unicode="&#xbf;" horiz-adv-x="1024" 
d="M606 647v-41q0 -87 -31 -160t-75 -125t-87.5 -101.5t-74.5 -112t-31 -134.5q0 -98 62 -152t184 -54q185 0 315 81v-188q-155 -68 -327 -68q-213 0 -332 101.5t-119 263.5q0 82 33.5 156t81 130.5t95 111t81 122t33.5 139.5v31h192zM625 1047v-230h-230v230h230z" />
    <glyph glyph-name="Agrave" unicode="&#xc0;" horiz-adv-x="1413" 
d="M31 0l567 1434h217l567 -1434h-225l-137 369h-635l-137 -369h-217zM702 1219l-256 -687h515l-254 687h-5zM627 1536l-217 254h245l136 -254h-164z" />
    <glyph glyph-name="Aacute" unicode="&#xc1;" horiz-adv-x="1413" 
d="M31 0l567 1434h217l567 -1434h-225l-137 369h-635l-137 -369h-217zM702 1219l-256 -687h515l-254 687h-5zM616 1536l146 256h246l-228 -256h-164z" />
    <glyph glyph-name="Acircumflex" unicode="&#xc2;" horiz-adv-x="1413" 
d="M31 0l567 1434h217l567 -1434h-225l-137 369h-635l-137 -369h-217zM702 1219l-256 -687h515l-254 687h-5zM381 1536l213 246h225l213 -246h-196l-129 150l-129 -150h-197z" />
    <glyph glyph-name="Atilde" unicode="&#xc3;" horiz-adv-x="1413" 
d="M31 0l567 1434h217l567 -1434h-225l-137 369h-635l-137 -369h-217zM702 1219l-256 -687h515l-254 687h-5zM358 1532q6 94 58.5 161.5t138.5 67.5q51 0 159 -47t150 -47q41 0 61.5 23.5t30.5 70.5h99q-32 -229 -195 -229q-48 0 -159.5 47t-153.5 47q-43 0 -62 -24t-28 -70
h-99z" />
    <glyph glyph-name="Adieresis" unicode="&#xc4;" horiz-adv-x="1413" 
d="M31 0l567 1434h217l567 -1434h-225l-137 369h-635l-137 -369h-217zM702 1219l-256 -687h515l-254 687h-5zM379 1536v205h217v-205h-217zM817 1536v205h217v-205h-217z" />
    <glyph glyph-name="Aring" unicode="&#xc5;" horiz-adv-x="1413" 
d="M31 0l567 1434h217l567 -1434h-225l-137 369h-635l-137 -369h-217zM702 1219l-256 -687h515l-254 687h-5zM707 1462q-86 0 -147.5 61.5t-61.5 147.5t61.5 147.5t147.5 61.5t147 -61.5t61 -147.5t-61 -147.5t-147 -61.5zM707 1544q54 0 90.5 36.5t36.5 90.5t-36.5 90.5
t-90.5 36.5t-90.5 -36.5t-36.5 -90.5t36.5 -90.5t90.5 -36.5z" />
    <glyph glyph-name="AE" unicode="&#xc6;" horiz-adv-x="1832" 
d="M-37 0l883 1434h876v-181h-569l25 -422h505v-180h-495l29 -471h505v-180h-696l-20 360h-598l-218 -360h-227zM950 1253l-440 -725h485l-41 725h-4z" />
    <glyph glyph-name="Ccedilla" unicode="&#xc7;" horiz-adv-x="1290" 
d="M737 -455q-82 0 -159 58l47 94q53 -31 98 -31q42 0 71 21t29 63t-29 63t-77 21q-35 0 -62 -6l23 166q-272 47 -425 238.5t-153 484.5q0 163 53.5 300t150 233t237 150t309.5 54q86 0 171 -14t127 -28l42 -15v-197q-17 8 -46.5 20.5t-118.5 33t-175 20.5q-247 0 -392 -150
t-145 -407t145 -407t392 -150q86 0 171 16t127 32l42 15v-196q-17 -5 -46.5 -13t-118.5 -21t-175 -13q-35 0 -51 2l-6 -50q180 -6 180 -172q0 -95 -67 -155t-169 -60z" />
    <glyph glyph-name="Egrave" unicode="&#xc8;" horiz-adv-x="1105" 
d="M190 0v1434h805v-181h-604v-419h563v-181h-563v-473h604v-180h-805zM514 1536l-217 254h246l135 -254h-164z" />
    <glyph glyph-name="Eacute" unicode="&#xc9;" horiz-adv-x="1105" 
d="M190 0v1434h805v-181h-604v-419h563v-181h-563v-473h604v-180h-805zM504 1536l145 256h246l-227 -256h-164z" />
    <glyph glyph-name="Ecircumflex" unicode="&#xca;" horiz-adv-x="1105" 
d="M190 0v1434h805v-181h-604v-419h563v-181h-563v-473h604v-180h-805zM268 1536l213 246h226l213 -246h-197l-129 150l-129 -150h-197z" />
    <glyph glyph-name="Edieresis" unicode="&#xcb;" horiz-adv-x="1105" 
d="M190 0v1434h805v-181h-604v-419h563v-181h-563v-473h604v-180h-805zM266 1536v205h217v-205h-217zM705 1536v205h217v-205h-217z" />
    <glyph glyph-name="Igrave" unicode="&#xcc;" horiz-adv-x="634" 
d="M217 0v1434h201v-1434h-201zM238 1536l-218 254h246l135 -254h-163z" />
    <glyph glyph-name="Iacute" unicode="&#xcd;" horiz-adv-x="634" 
d="M217 0v1434h201v-1434h-201zM227 1536l146 256h245l-227 -256h-164z" />
    <glyph glyph-name="Icircumflex" unicode="&#xce;" horiz-adv-x="634" 
d="M217 0v1434h201v-1434h-201zM33 1536l172 246h225l172 -246h-184l-101 143l-100 -143h-184z" />
    <glyph glyph-name="Idieresis" unicode="&#xcf;" horiz-adv-x="634" 
d="M217 0v1434h201v-1434h-201zM31 1536v205h217v-205h-217zM387 1536v205h217v-205h-217z" />
    <glyph glyph-name="Eth" unicode="&#xd0;" horiz-adv-x="1474" 
d="M190 0v676h-139v131h139v627h480q318 0 511 -197t193 -524q0 -341 -187.5 -527t-516.5 -186h-480zM391 180h277q238 0 363.5 133t125.5 383q0 258 -125.5 407.5t-339.5 149.5h-301v-446h379v-131h-379v-496z" />
    <glyph glyph-name="Ntilde" unicode="&#xd1;" horiz-adv-x="1495" 
d="M190 0v1434h267l647 -1168h4l-4 183v985h201v-1434h-267l-647 1167h-4l4 -163v-1004h-201zM414 1532q6 95 58 162t138 67q50 0 159 -47t151 -47q41 0 61.5 23.5t30.5 70.5h98q-32 -229 -195 -229q-48 0 -159.5 47t-153.5 47q-43 0 -62 -24t-28 -70h-98z" />
    <glyph glyph-name="Ograve" unicode="&#xd2;" horiz-adv-x="1536" 
d="M768 -20q-206 0 -358.5 95.5t-231 261.5t-78.5 380q0 215 79.5 381.5t232 261t356.5 94.5q205 0 358 -96t231.5 -262t78.5 -379q0 -216 -79.5 -382.5t-232 -260.5t-356.5 -94zM768 160q143 0 248 77t156 201.5t51 278.5q0 157 -52.5 282t-157 200t-245.5 75
q-142 0 -247 -76.5t-156.5 -201t-51.5 -279.5q0 -157 51.5 -281.5t156.5 -200t247 -75.5zM688 1536l-217 254h246l135 -254h-164z" />
    <glyph glyph-name="Oacute" unicode="&#xd3;" horiz-adv-x="1536" 
d="M768 -20q-206 0 -358.5 95.5t-231 261.5t-78.5 380q0 215 79.5 381.5t232 261t356.5 94.5q205 0 358 -96t231.5 -262t78.5 -379q0 -216 -79.5 -382.5t-232 -260.5t-356.5 -94zM768 160q143 0 248 77t156 201.5t51 278.5q0 157 -52.5 282t-157 200t-245.5 75
q-142 0 -247 -76.5t-156.5 -201t-51.5 -279.5q0 -157 51.5 -281.5t156.5 -200t247 -75.5zM678 1536l145 256h246l-227 -256h-164z" />
    <glyph glyph-name="Ocircumflex" unicode="&#xd4;" horiz-adv-x="1536" 
d="M768 -20q-206 0 -358.5 95.5t-231 261.5t-78.5 380q0 215 79.5 381.5t232 261t356.5 94.5q205 0 358 -96t231.5 -262t78.5 -379q0 -216 -79.5 -382.5t-232 -260.5t-356.5 -94zM768 160q143 0 248 77t156 201.5t51 278.5q0 157 -52.5 282t-157 200t-245.5 75
q-142 0 -247 -76.5t-156.5 -201t-51.5 -279.5q0 -157 51.5 -281.5t156.5 -200t247 -75.5zM442 1536l213 246h226l213 -246h-197l-129 150l-129 -150h-197z" />
    <glyph glyph-name="Otilde" unicode="&#xd5;" horiz-adv-x="1536" 
d="M768 -20q-206 0 -358.5 95.5t-231 261.5t-78.5 380q0 215 79.5 381.5t232 261t356.5 94.5q205 0 358 -96t231.5 -262t78.5 -379q0 -216 -79.5 -382.5t-232 -260.5t-356.5 -94zM768 160q143 0 248 77t156 201.5t51 278.5q0 157 -52.5 282t-157 200t-245.5 75
q-142 0 -247 -76.5t-156.5 -201t-51.5 -279.5q0 -157 51.5 -281.5t156.5 -200t247 -75.5zM420 1532q6 95 58 162t138 67q50 0 159 -47t151 -47q41 0 61.5 23.5t30.5 70.5h98q-32 -229 -194 -229q-48 0 -160 47t-154 47q-43 0 -62 -24t-28 -70h-98z" />
    <glyph glyph-name="Odieresis" unicode="&#xd6;" horiz-adv-x="1536" 
d="M768 -20q-206 0 -358.5 95.5t-231 261.5t-78.5 380q0 215 79.5 381.5t232 261t356.5 94.5q205 0 358 -96t231.5 -262t78.5 -379q0 -216 -79.5 -382.5t-232 -260.5t-356.5 -94zM768 160q143 0 248 77t156 201.5t51 278.5q0 157 -52.5 282t-157 200t-245.5 75
q-142 0 -247 -76.5t-156.5 -201t-51.5 -279.5q0 -157 51.5 -281.5t156.5 -200t247 -75.5zM440 1536v205h217v-205h-217zM879 1536v205h217v-205h-217z" />
    <glyph glyph-name="multiply" unicode="&#xd7;" horiz-adv-x="1187" 
d="M240 236l-127 126l354 355l-354 354l127 127l354 -356l354 356l127 -127l-356 -354l356 -355l-127 -126l-354 356z" />
    <glyph glyph-name="Oslash" unicode="&#xd8;" horiz-adv-x="1536" 
d="M768 -20q-248 0 -420 139l-170 -203l-98 82l178 213q-158 200 -158 506q0 215 79.5 381.5t232 261t356.5 94.5q242 0 416 -137l170 201l102 -84l-178 -213q158 -200 158 -504q0 -216 -79.5 -382.5t-232 -260.5t-356.5 -94zM768 160q143 0 248 77t156 201.5t51 278.5
q0 196 -84 340l-662 -787q116 -110 291 -110zM313 717q0 -202 82 -342l662 788q-117 111 -289 111q-142 0 -247 -76.5t-156.5 -201t-51.5 -279.5z" />
    <glyph glyph-name="Ugrave" unicode="&#xd9;" horiz-adv-x="1474" 
d="M737 -20q-263 0 -407 155t-144 455v844h201v-824q0 -239 87 -344.5t263 -105.5t263 105.5t87 344.5v824h201v-844q0 -300 -144 -455t-407 -155zM657 1536l-217 254h246l135 -254h-164z" />
    <glyph glyph-name="Uacute" unicode="&#xda;" horiz-adv-x="1474" 
d="M737 -20q-263 0 -407 155t-144 455v844h201v-824q0 -239 87 -344.5t263 -105.5t263 105.5t87 344.5v824h201v-844q0 -300 -144 -455t-407 -155zM647 1536l146 256h245l-227 -256h-164z" />
    <glyph glyph-name="Ucircumflex" unicode="&#xdb;" horiz-adv-x="1474" 
d="M737 -20q-263 0 -407 155t-144 455v844h201v-824q0 -239 87 -344.5t263 -105.5t263 105.5t87 344.5v824h201v-844q0 -300 -144 -455t-407 -155zM412 1536l213 246h225l213 -246h-197l-129 150l-129 -150h-196z" />
    <glyph glyph-name="Udieresis" unicode="&#xdc;" horiz-adv-x="1474" 
d="M737 -20q-263 0 -407 155t-144 455v844h201v-824q0 -239 87 -344.5t263 -105.5t263 105.5t87 344.5v824h201v-844q0 -300 -144 -455t-407 -155zM410 1536v205h217v-205h-217zM848 1536v205h217v-205h-217z" />
    <glyph glyph-name="Yacute" unicode="&#xdd;" horiz-adv-x="1331" 
d="M25 1434h239l402 -676h4l397 676h240l-539 -883v-551h-201v551zM575 1536l146 256h246l-228 -256h-164z" />
    <glyph glyph-name="Thorn" unicode="&#xde;" horiz-adv-x="1228" 
d="M190 0v1434h201v-238h248q530 0 530 -467q0 -228 -128 -345.5t-402 -117.5h-248v-266h-201zM391 446h248q167 0 240 72t73 219q0 141 -73 210t-240 69h-248v-570z" />
    <glyph glyph-name="germandbls" unicode="&#xdf;" horiz-adv-x="1280" 
d="M719 -16q-107 0 -193 18v162q76 -25 168 -25q134 0 213.5 78t79.5 227q0 287 -328 287h-57v156h33q136 0 211.5 67t75.5 195q0 122 -71.5 189t-193.5 67q-295 0 -295 -404v-1001h-192v971q0 287 122 438.5t372 151.5q95 0 177.5 -25.5t146.5 -74t101 -126.5t37 -176
q0 -126 -61.5 -211.5t-177.5 -122.5v-4q142 -17 223.5 -124t81.5 -259q0 -90 -29 -170t-85 -144t-148.5 -102t-210.5 -38z" />
    <glyph glyph-name="agrave" unicode="&#xe0;" horiz-adv-x="1142" 
d="M438 -16q-164 0 -260 84t-96 229q0 173 134.5 263.5t404.5 90.5h192v35q0 109 -75.5 162t-209.5 53q-185 0 -350 -90v180q162 70 375 70q453 0 453 -412v-649h-197v160h-4q-62 -91 -160.5 -133.5t-206.5 -42.5zM485 147q141 0 234.5 84.5t93.5 206.5v66h-184
q-342 0 -342 -195q0 -77 52.5 -119.5t145.5 -42.5zM496 1249l-242 267h246l159 -267h-163z" />
    <glyph glyph-name="aacute" unicode="&#xe1;" horiz-adv-x="1142" 
d="M438 -16q-164 0 -260 84t-96 229q0 173 134.5 263.5t404.5 90.5h192v35q0 109 -75.5 162t-209.5 53q-185 0 -350 -90v180q162 70 375 70q453 0 453 -412v-649h-197v160h-4q-62 -91 -160.5 -133.5t-206.5 -42.5zM485 147q141 0 234.5 84.5t93.5 206.5v66h-184
q-342 0 -342 -195q0 -77 52.5 -119.5t145.5 -42.5zM489 1249l160 267h246l-242 -267h-164z" />
    <glyph glyph-name="acircumflex" unicode="&#xe2;" horiz-adv-x="1142" 
d="M438 -16q-164 0 -260 84t-96 229q0 173 134.5 263.5t404.5 90.5h192v35q0 109 -75.5 162t-209.5 53q-185 0 -350 -90v180q162 70 375 70q453 0 453 -412v-649h-197v160h-4q-62 -91 -160.5 -133.5t-206.5 -42.5zM485 147q141 0 234.5 84.5t93.5 206.5v66h-184
q-342 0 -342 -195q0 -77 52.5 -119.5t145.5 -42.5zM279 1249l204 267h185l204 -267h-155l-142 172l-141 -172h-155z" />
    <glyph glyph-name="atilde" unicode="&#xe3;" horiz-adv-x="1142" 
d="M438 -16q-164 0 -260 84t-96 229q0 173 134.5 263.5t404.5 90.5h192v35q0 109 -75.5 162t-209.5 53q-185 0 -350 -90v180q162 70 375 70q453 0 453 -412v-649h-197v160h-4q-62 -91 -160.5 -133.5t-206.5 -42.5zM485 147q141 0 234.5 84.5t93.5 206.5v66h-184
q-342 0 -342 -195q0 -77 52.5 -119.5t145.5 -42.5zM246 1262q7 97 54 163t132 66q28 0 54 -8.5t106 -42.5q3 -1 34.5 -15.5t54 -21t46.5 -6.5q72 0 90 94h90q-30 -229 -186 -229q-29 0 -58 9.5t-104 41.5q-3 1 -34.5 15.5t-54 21t-46.5 6.5q-72 0 -90 -94h-88z" />
    <glyph glyph-name="adieresis" unicode="&#xe4;" horiz-adv-x="1142" 
d="M438 -16q-164 0 -260 84t-96 229q0 173 134.5 263.5t404.5 90.5h192v35q0 109 -75.5 162t-209.5 53q-185 0 -350 -90v180q162 70 375 70q453 0 453 -412v-649h-197v160h-4q-62 -91 -160.5 -133.5t-206.5 -42.5zM485 147q141 0 234.5 84.5t93.5 206.5v66h-184
q-342 0 -342 -195q0 -77 52.5 -119.5t145.5 -42.5zM670 1270v205h192v-205h-192zM289 1270v205h192v-205h-192z" />
    <glyph glyph-name="aring" unicode="&#xe5;" horiz-adv-x="1142" 
d="M438 -16q-164 0 -260 84t-96 229q0 173 134.5 263.5t404.5 90.5h192v35q0 109 -75.5 162t-209.5 53q-185 0 -350 -90v180q162 70 375 70q453 0 453 -412v-649h-197v160h-4q-62 -91 -160.5 -133.5t-206.5 -42.5zM485 147q141 0 234.5 84.5t93.5 206.5v66h-184
q-342 0 -342 -195q0 -77 52.5 -119.5t145.5 -42.5zM575 1180q-86 0 -147 61.5t-61 147.5t61 147t147 61t147.5 -61t61.5 -147t-61.5 -147.5t-147.5 -61.5zM575 1262q54 0 90.5 36.5t36.5 90.5t-36.5 90.5t-90.5 36.5t-90 -36.5t-36 -90.5t36 -90.5t90 -36.5z" />
    <glyph glyph-name="ae" unicode="&#xe6;" horiz-adv-x="1812" 
d="M567 1061q262 0 375 -152h4q130 152 330 152q201 0 315.5 -132.5t114.5 -387.5v-54h-721q15 -163 108 -253.5t240 -90.5q80 0 161 23t140 59v-188q-162 -53 -301 -53q-305 0 -448 245h-6q-68 -117 -183.5 -181t-249.5 -64q-166 0 -265 84t-99 229q0 334 553 334h182v55
q0 109 -72 162t-202 53q-188 0 -353 -90v180q162 70 377 70zM500 147q136 0 226.5 84.5t90.5 206.5v49h-174q-190 0 -273 -46t-83 -132q0 -75 57 -118.5t156 -43.5zM1260 905q-112 0 -183 -72.5t-88 -201.5h512q0 128 -67 201t-174 73z" />
    <glyph glyph-name="ccedilla" unicode="&#xe7;" horiz-adv-x="993" 
d="M524 -397q-74 0 -141 51l43 82q46 -27 86 -27q37 0 62.5 18.5t25.5 55.5t-26 55.5t-68 18.5q-25 0 -53 -7l20 150q-176 43 -274.5 181.5t-98.5 340.5q0 242 143.5 390.5t381.5 148.5q74 0 139 -10.5t93 -20.5l28 -10v-166q-11 6 -31.5 14.5t-83 22.5t-125.5 14
q-163 0 -251.5 -100t-88.5 -283t88.5 -283t249.5 -100q64 0 124.5 13.5t88.5 27.5l29 13v-168q-11 -5 -32 -11.5t-89.5 -18t-140.5 -11.5q-7 0 -21.5 1t-21.5 1l-7 -43q158 -5 158 -152q0 -83 -58.5 -135.5t-148.5 -52.5z" />
    <glyph glyph-name="egrave" unicode="&#xe8;" horiz-adv-x="1177" 
d="M1071 479h-772q17 -161 112 -248.5t253 -87.5q90 0 182 23.5t153 58.5v-188q-175 -53 -348 -53q-263 0 -407 147.5t-144 409.5q0 234 141 377t353 143q227 0 352 -134t125 -395v-53zM592 905q-119 0 -196.5 -76t-96.5 -206h567q0 132 -76 207t-198 75zM512 1249l-242 267
h246l160 -267h-164z" />
    <glyph glyph-name="eacute" unicode="&#xe9;" horiz-adv-x="1177" 
d="M1071 479h-772q17 -161 112 -248.5t253 -87.5q90 0 182 23.5t153 58.5v-188q-175 -53 -348 -53q-263 0 -407 147.5t-144 409.5q0 234 141 377t353 143q227 0 352 -134t125 -395v-53zM592 905q-119 0 -196.5 -76t-96.5 -206h567q0 132 -76 207t-198 75zM506 1249l160 267
h245l-241 -267h-164z" />
    <glyph glyph-name="ecircumflex" unicode="&#xea;" horiz-adv-x="1177" 
d="M1071 479h-772q17 -161 112 -248.5t253 -87.5q90 0 182 23.5t153 58.5v-188q-175 -53 -348 -53q-263 0 -407 147.5t-144 409.5q0 234 141 377t353 143q227 0 352 -134t125 -395v-53zM592 905q-119 0 -196.5 -76t-96.5 -206h567q0 132 -76 207t-198 75zM295 1249l205 267
h184l205 -267h-156l-141 172l-141 -172h-156z" />
    <glyph glyph-name="edieresis" unicode="&#xeb;" horiz-adv-x="1177" 
d="M1071 479h-772q17 -161 112 -248.5t253 -87.5q90 0 182 23.5t153 58.5v-188q-175 -53 -348 -53q-263 0 -407 147.5t-144 409.5q0 234 141 377t353 143q227 0 352 -134t125 -395v-53zM592 905q-119 0 -196.5 -76t-96.5 -206h567q0 132 -76 207t-198 75zM686 1270v205h193
v-205h-193zM305 1270v205h193v-205h-193z" />
    <glyph glyph-name="igrave" unicode="&#xec;" horiz-adv-x="593" 
d="M201 0v1044h192v-1044h-192zM217 1249l-242 267h246l160 -267h-164z" />
    <glyph glyph-name="iacute" unicode="&#xed;" horiz-adv-x="593" 
d="M201 0v1044h192v-1044h-192zM211 1249l160 267h245l-241 -267h-164z" />
    <glyph glyph-name="icircumflex" unicode="&#xee;" horiz-adv-x="593" 
d="M201 0v1044h192v-1044h-192zM41 1249l164 267h184l164 -267h-156l-100 172l-100 -172h-156z" />
    <glyph glyph-name="idieresis" unicode="&#xef;" horiz-adv-x="593" 
d="M201 0v1044h192v-1044h-192zM354 1270v205h193v-205h-193zM47 1270v205h193v-205h-193z" />
    <glyph glyph-name="eth" unicode="&#xf0;" horiz-adv-x="1269" 
d="M627 -16q-234 0 -380.5 151t-146.5 387q0 237 142 388t364 151q131 0 219.5 -51.5t155.5 -163.5h8v28q0 58 -19.5 118.5t-59.5 123.5t-111 121t-164 100l-66 -202l-108 32l67 211q-101 31 -219 45l33 164q109 -15 238 -51l65 205l107 -37l-66 -207q483 -199 483 -768
q0 -135 -17 -245t-56 -204.5t-100.5 -158.5t-155 -100.5t-213.5 -36.5zM625 139q141 0 230 109.5t89 273.5q0 104 -37 190t-111 139.5t-171 53.5t-171 -53.5t-111.5 -139.5t-37.5 -190q0 -161 88.5 -272t231.5 -111z" />
    <glyph glyph-name="ntilde" unicode="&#xf1;" horiz-adv-x="1249" 
d="M170 0v1044h192v-149h5q117 166 348 166q189 0 293 -112t104 -335v-614h-192v553q0 193 -63 272.5t-183 79.5q-144 0 -228 -104t-84 -309v-492h-192zM295 1262q7 97 54 163t132 66q27 0 53.5 -8.5t106.5 -42.5q3 -1 34.5 -15.5t54 -21t46.5 -6.5q72 0 90 94h90
q-30 -229 -186 -229q-29 0 -58 9.5t-104 41.5q-3 1 -34.5 15.5t-54 21t-46.5 6.5q-72 0 -90 -94h-88z" />
    <glyph glyph-name="ograve" unicode="&#xf2;" horiz-adv-x="1269" 
d="M635 -16q-237 0 -386 149.5t-149 388.5t149 389t386 150q236 0 385 -150t149 -389t-148.5 -388.5t-385.5 -149.5zM635 139q139 0 234.5 106t95.5 277q0 170 -96 276.5t-234 106.5q-139 0 -234.5 -106t-95.5 -277t95.5 -277t234.5 -106zM555 1249l-242 267h246l160 -267
h-164z" />
    <glyph glyph-name="oacute" unicode="&#xf3;" horiz-adv-x="1269" 
d="M635 -16q-237 0 -386 149.5t-149 388.5t149 389t386 150q236 0 385 -150t149 -389t-148.5 -388.5t-385.5 -149.5zM635 139q139 0 234.5 106t95.5 277q0 170 -96 276.5t-234 106.5q-139 0 -234.5 -106t-95.5 -277t95.5 -277t234.5 -106zM549 1249l160 267h245l-241 -267
h-164z" />
    <glyph glyph-name="ocircumflex" unicode="&#xf4;" horiz-adv-x="1269" 
d="M635 -16q-237 0 -386 149.5t-149 388.5t149 389t386 150q236 0 385 -150t149 -389t-148.5 -388.5t-385.5 -149.5zM635 139q139 0 234.5 106t95.5 277q0 170 -96 276.5t-234 106.5q-139 0 -234.5 -106t-95.5 -277t95.5 -277t234.5 -106zM338 1249l205 267h184l205 -267
h-156l-141 172l-141 -172h-156z" />
    <glyph glyph-name="otilde" unicode="&#xf5;" horiz-adv-x="1269" 
d="M635 -16q-237 0 -386 149.5t-149 388.5t149 389t386 150q236 0 385 -150t149 -389t-148.5 -388.5t-385.5 -149.5zM635 139q139 0 234.5 106t95.5 277q0 170 -96 276.5t-234 106.5q-139 0 -234.5 -106t-95.5 -277t95.5 -277t234.5 -106zM305 1262q7 96 54.5 162.5
t132.5 66.5q27 0 52.5 -8.5t106.5 -42.5q3 -1 34.5 -15.5t54 -21t46.5 -6.5q73 0 91 94h90q-14 -102 -58.5 -165.5t-128.5 -63.5q-29 0 -58 9.5t-104 41.5q-3 1 -34.5 15.5t-54 21t-46.5 6.5q-72 0 -90 -94h-88z" />
    <glyph glyph-name="odieresis" unicode="&#xf6;" horiz-adv-x="1269" 
d="M635 -16q-237 0 -386 149.5t-149 388.5t149 389t386 150q236 0 385 -150t149 -389t-148.5 -388.5t-385.5 -149.5zM635 139q139 0 234.5 106t95.5 277q0 170 -96 276.5t-234 106.5q-139 0 -234.5 -106t-95.5 -277t95.5 -277t234.5 -106zM729 1270v205h193v-205h-193z
M348 1270v205h193v-205h-193z" />
    <glyph glyph-name="divide" unicode="&#xf7;" horiz-adv-x="1187" 
d="M82 627v180h1024v-180h-1024zM598 143q-64 0 -112 48t-48 110q0 64 47 110t111 46q61 0 108.5 -47t47.5 -109q0 -60 -47 -109t-107 -49zM598 977q-65 0 -112.5 47.5t-47.5 108.5q0 63 47.5 110t110.5 47q61 0 108.5 -47.5t47.5 -109.5q0 -60 -47 -108t-107 -48z" />
    <glyph glyph-name="oslash" unicode="&#xf8;" horiz-adv-x="1269" 
d="M635 -16q-175 0 -309 86l-115 -138l-84 72l115 137q-142 148 -142 381q0 239 149 389t386 150q173 0 307 -86l115 137l86 -72l-115 -137q141 -147 141 -381q0 -239 -148.5 -388.5t-385.5 -149.5zM635 139q139 0 234.5 106t95.5 277q0 132 -64 232l-461 -547
q83 -68 195 -68zM305 522q0 -136 62 -233l460 549q-86 67 -192 67q-139 0 -234.5 -106t-95.5 -277z" />
    <glyph glyph-name="ugrave" unicode="&#xf9;" horiz-adv-x="1249" 
d="M1079 1044v-1044h-192v150h-4q-120 -166 -348 -166q-189 0 -293.5 112t-104.5 334v614h193v-552q0 -193 62.5 -273t182.5 -80q144 0 228 104.5t84 309.5v491h192zM535 1249l-242 267h246l159 -267h-163z" />
    <glyph glyph-name="uacute" unicode="&#xfa;" horiz-adv-x="1249" 
d="M1079 1044v-1044h-192v150h-4q-120 -166 -348 -166q-189 0 -293.5 112t-104.5 334v614h193v-552q0 -193 62.5 -273t182.5 -80q144 0 228 104.5t84 309.5v491h192zM528 1249l160 267h246l-242 -267h-164z" />
    <glyph glyph-name="ucircumflex" unicode="&#xfb;" horiz-adv-x="1249" 
d="M1079 1044v-1044h-192v150h-4q-120 -166 -348 -166q-189 0 -293.5 112t-104.5 334v614h193v-552q0 -193 62.5 -273t182.5 -80q144 0 228 104.5t84 309.5v491h192zM317 1249l205 267h185l204 -267h-155l-142 172l-141 -172h-156z" />
    <glyph glyph-name="udieresis" unicode="&#xfc;" horiz-adv-x="1249" 
d="M1079 1044v-1044h-192v150h-4q-120 -166 -348 -166q-189 0 -293.5 112t-104.5 334v614h193v-552q0 -193 62.5 -273t182.5 -80q144 0 228 104.5t84 309.5v491h192zM709 1270v205h192v-205h-192zM328 1270v205h192v-205h-192z" />
    <glyph glyph-name="yacute" unicode="&#xfd;" horiz-adv-x="1126" 
d="M248 -459q-24 0 -46 2.5t-32 4.5l-10 3v158q37 -6 76 -6q83 0 125 44.5t81 150.5l19 51l-428 1095h211l317 -856h14l324 856h195l-435 -1085q-35 -86 -58 -138t-53 -105t-57 -81.5t-63.5 -52t-79.5 -32.5t-100 -9zM467 1249l160 267h245l-241 -267h-164z" />
    <glyph glyph-name="thorn" unicode="&#xfe;" horiz-adv-x="1290" 
d="M362 -459h-192v2015h192v-661h7q120 166 338 166q150 0 260.5 -70t166.5 -189t56 -272q0 -150 -55.5 -273t-164.5 -198t-253 -75q-117 0 -206.5 44.5t-139.5 108.5h-9v-596zM672 139q143 0 228 108.5t85 289.5q0 167 -83.5 267.5t-223.5 100.5q-144 0 -230 -105t-86 -280
q0 -173 84.5 -277t225.5 -104z" />
    <glyph glyph-name="ydieresis" unicode="&#xff;" horiz-adv-x="1126" 
d="M248 -459q-24 0 -46 2.5t-32 4.5l-10 3v158q37 -6 76 -6q83 0 125 44.5t81 150.5l19 51l-428 1095h211l317 -856h14l324 856h195l-435 -1085q-35 -86 -58 -138t-53 -105t-57 -81.5t-63.5 -52t-79.5 -32.5t-100 -9zM647 1270v205h193v-205h-193zM266 1270v205h193v-205
h-193z" />
    <glyph glyph-name="Amacron" unicode="&#x100;" horiz-adv-x="1413" 
d="M31 0l567 1434h217l567 -1434h-225l-137 369h-635l-137 -369h-217zM702 1219l-256 -687h515l-254 687h-5zM399 1577v143h615v-143h-615z" />
    <glyph glyph-name="amacron" unicode="&#x101;" horiz-adv-x="1142" 
d="M438 -16q-164 0 -260 84t-96 229q0 173 134.5 263.5t404.5 90.5h192v35q0 109 -75.5 162t-209.5 53q-185 0 -350 -90v180q162 70 375 70q453 0 453 -412v-649h-197v160h-4q-62 -91 -160.5 -133.5t-206.5 -42.5zM485 147q141 0 234.5 84.5t93.5 206.5v66h-184
q-342 0 -342 -195q0 -77 52.5 -119.5t145.5 -42.5zM268 1341v144h615v-144h-615z" />
    <glyph glyph-name="Abreve" unicode="&#x102;" horiz-adv-x="1413" 
d="M31 0l567 1434h217l567 -1434h-225l-137 369h-635l-137 -369h-217zM702 1219l-256 -687h515l-254 687h-5zM707 1524q-124 0 -220.5 65.5t-130.5 192.5h144q39 -115 207 -115q167 0 206 115h144q-34 -127 -130 -192.5t-220 -65.5z" />
    <glyph glyph-name="abreve" unicode="&#x103;" horiz-adv-x="1142" 
d="M438 -16q-164 0 -260 84t-96 229q0 173 134.5 263.5t404.5 90.5h192v35q0 109 -75.5 162t-209.5 53q-185 0 -350 -90v180q162 70 375 70q453 0 453 -412v-649h-197v160h-4q-62 -91 -160.5 -133.5t-206.5 -42.5zM485 147q141 0 234.5 84.5t93.5 206.5v66h-184
q-342 0 -342 -195q0 -77 52.5 -119.5t145.5 -42.5zM575 1225q-131 0 -218 79t-97 212h123q13 -62 58 -105t134 -43t134.5 43t58.5 105h123q-10 -133 -97.5 -212t-218.5 -79z" />
    <glyph glyph-name="Aogonek" unicode="&#x104;" horiz-adv-x="1413" 
d="M1208 -455q-215 0 -215 181q0 148 221 274h-57l-137 369h-635l-137 -369h-217l567 1434h217l567 -1434q-125 -90 -171 -145t-46 -105q0 -42 22.5 -67t61.5 -25q24 0 47.5 4.5t35.5 9.5l11 4l29 -100q-76 -31 -164 -31zM702 1219l-256 -687h515l-254 687h-5z" />
    <glyph glyph-name="aogonek" unicode="&#x105;" horiz-adv-x="1142" 
d="M831 -455q-215 0 -215 181q0 148 222 274h-29v160h-4q-62 -91 -160.5 -133.5t-206.5 -42.5q-164 0 -260 84t-96 229q0 173 134.5 263.5t404.5 90.5h192v35q0 109 -75.5 162t-209.5 53q-185 0 -350 -90v180q162 70 375 70q453 0 453 -412v-649q-125 -90 -171.5 -145
t-46.5 -105q0 -42 22.5 -67t61.5 -25q24 0 47.5 4.5t35.5 9.5l12 4l28 -100q-76 -31 -164 -31zM485 147q141 0 234.5 84.5t93.5 206.5v66h-184q-342 0 -342 -195q0 -77 52.5 -119.5t145.5 -42.5z" />
    <glyph glyph-name="Cacute" unicode="&#x106;" horiz-adv-x="1290" 
d="M850 -20q-348 0 -549 199t-201 538q0 163 53.5 300t150 233t237 150t309.5 54q86 0 171 -14t127 -28l42 -15v-197q-17 8 -46.5 20.5t-118.5 33t-175 20.5q-247 0 -392 -150t-145 -407t145 -407t392 -150q86 0 171 16t127 32l42 15v-196q-17 -5 -46.5 -13t-118.5 -21
t-175 -13zM694 1536l146 256h245l-227 -256h-164z" />
    <glyph glyph-name="cacute" unicode="&#x107;" horiz-adv-x="993" 
d="M623 -16q-241 0 -382 147t-141 391q0 242 143.5 390.5t381.5 148.5q74 0 139 -10.5t93 -20.5l28 -10v-166q-11 6 -31.5 14.5t-83 22.5t-125.5 14q-163 0 -251.5 -100t-88.5 -283t88.5 -283t249.5 -100q64 0 124.5 13.5t88.5 27.5l29 13v-168q-11 -5 -32 -11.5t-89.5 -18
t-140.5 -11.5zM485 1249l160 267h246l-242 -267h-164z" />
    <glyph glyph-name="Ccircumflex" unicode="&#x108;" horiz-adv-x="1290" 
d="M850 -20q-348 0 -549 199t-201 538q0 163 53.5 300t150 233t237 150t309.5 54q86 0 171 -14t127 -28l42 -15v-197q-17 8 -46.5 20.5t-118.5 33t-175 20.5q-247 0 -392 -150t-145 -407t145 -407t392 -150q86 0 171 16t127 32l42 15v-196q-17 -5 -46.5 -13t-118.5 -21
t-175 -13zM459 1536l213 246h225l213 -246h-197l-129 150l-129 -150h-196z" />
    <glyph glyph-name="ccircumflex" unicode="&#x109;" horiz-adv-x="993" 
d="M623 -16q-241 0 -382 147t-141 391q0 242 143.5 390.5t381.5 148.5q74 0 139 -10.5t93 -20.5l28 -10v-166q-11 6 -31.5 14.5t-83 22.5t-125.5 14q-163 0 -251.5 -100t-88.5 -283t88.5 -283t249.5 -100q64 0 124.5 13.5t88.5 27.5l29 13v-168q-11 -5 -32 -11.5t-89.5 -18
t-140.5 -11.5zM274 1249l205 267h185l204 -267h-155l-142 172l-141 -172h-156z" />
    <glyph glyph-name="Cdotaccent" unicode="&#x10a;" horiz-adv-x="1290" 
d="M850 -20q-348 0 -549 199t-201 538q0 163 53.5 300t150 233t237 150t309.5 54q86 0 171 -14t127 -28l42 -15v-197q-17 8 -46.5 20.5t-118.5 33t-175 20.5q-247 0 -392 -150t-145 -407t145 -407t392 -150q86 0 171 16t127 32l42 15v-196q-17 -5 -46.5 -13t-118.5 -21
t-175 -13zM670 1540v209h229v-209h-229z" />
    <glyph glyph-name="cdotaccent" unicode="&#x10b;" horiz-adv-x="993" 
d="M623 -16q-241 0 -382 147t-141 391q0 242 143.5 390.5t381.5 148.5q74 0 139 -10.5t93 -20.5l28 -10v-166q-11 6 -31.5 14.5t-83 22.5t-125.5 14q-163 0 -251.5 -100t-88.5 -283t88.5 -283t249.5 -100q64 0 124.5 13.5t88.5 27.5l29 13v-168q-11 -5 -32 -11.5t-89.5 -18
t-140.5 -11.5zM463 1257v218h217v-218h-217z" />
    <glyph glyph-name="Ccaron" unicode="&#x10c;" horiz-adv-x="1290" 
d="M850 -20q-348 0 -549 199t-201 538q0 163 53.5 300t150 233t237 150t309.5 54q86 0 171 -14t127 -28l42 -15v-197q-17 8 -46.5 20.5t-118.5 33t-175 20.5q-247 0 -392 -150t-145 -407t145 -407t392 -150q86 0 171 16t127 32l42 15v-196q-17 -5 -46.5 -13t-118.5 -21
t-175 -13zM672 1536l-213 246h205l120 -164l121 164h205l-213 -246h-225z" />
    <glyph glyph-name="ccaron" unicode="&#x10d;" horiz-adv-x="993" 
d="M623 -16q-241 0 -382 147t-141 391q0 242 143.5 390.5t381.5 148.5q74 0 139 -10.5t93 -20.5l28 -10v-166q-11 6 -31.5 14.5t-83 22.5t-125.5 14q-163 0 -251.5 -100t-88.5 -283t88.5 -283t249.5 -100q64 0 124.5 13.5t88.5 27.5l29 13v-168q-11 -5 -32 -11.5t-89.5 -18
t-140.5 -11.5zM479 1249l-205 267h156l141 -173l142 173h155l-204 -267h-185z" />
    <glyph glyph-name="Dcaron" unicode="&#x10e;" horiz-adv-x="1474" 
d="M190 0v1434h480q318 0 511 -197t193 -524q0 -341 -187.5 -527t-516.5 -186h-480zM391 180h277q238 0 363.5 133t125.5 383q0 258 -125.5 407.5t-339.5 149.5h-301v-1073zM625 1536l-213 246h204l121 -164l121 164h205l-213 -246h-225z" />
    <glyph glyph-name="dcaron" unicode="&#x10f;" horiz-adv-x="1310" 
d="M586 -16q-220 0 -353 155t-133 396q0 228 135 377t347 149q204 0 342 -156h4v651h192v-1556h-184v147h-12q-130 -163 -338 -163zM618 139q136 0 223 107.5t87 273.5q0 168 -88 276.5t-226 108.5q-132 0 -220.5 -107.5t-88.5 -271.5q0 -167 89.5 -277t223.5 -110z
M1202 1217l82 344h205l-143 -344h-144z" />
    <glyph glyph-name="Dcroat" unicode="&#x110;" horiz-adv-x="1474" 
d="M190 0v676h-139v131h139v627h480q318 0 511 -197t193 -524q0 -341 -187.5 -527t-516.5 -186h-480zM391 180h277q238 0 363.5 133t125.5 383q0 258 -125.5 407.5t-339.5 149.5h-301v-446h379v-131h-379v-496z" />
    <glyph glyph-name="dcroat" unicode="&#x111;" horiz-adv-x="1290" 
d="M559 1237v156h369v163h192v-163h183v-156h-183v-1237h-184v147h-12q-130 -163 -338 -163q-220 0 -353 155t-133 396q0 228 135 377t347 149q204 0 342 -156h4v332h-369zM618 139q136 0 223 107.5t87 273.5q0 168 -88 276.5t-226 108.5q-132 0 -220.5 -107.5t-88.5 -271.5
q0 -167 89.5 -277t223.5 -110z" />
    <glyph glyph-name="Emacron" unicode="&#x112;" horiz-adv-x="1105" 
d="M190 0v1434h805v-181h-604v-419h563v-181h-563v-473h604v-180h-805zM287 1577v143h614v-143h-614z" />
    <glyph glyph-name="emacron" unicode="&#x113;" horiz-adv-x="1177" 
d="M1071 479h-772q17 -161 112 -248.5t253 -87.5q90 0 182 23.5t153 58.5v-188q-175 -53 -348 -53q-263 0 -407 147.5t-144 409.5q0 234 141 377t353 143q227 0 352 -134t125 -395v-53zM592 905q-119 0 -196.5 -76t-96.5 -206h567q0 132 -76 207t-198 75zM285 1341v144h614
v-144h-614z" />
    <glyph glyph-name="Edotaccent" unicode="&#x116;" horiz-adv-x="1105" 
d="M190 0v1434h805v-181h-604v-419h563v-181h-563v-473h604v-180h-805zM479 1540v209h230v-209h-230z" />
    <glyph glyph-name="edotaccent" unicode="&#x117;" horiz-adv-x="1177" 
d="M1071 479h-772q17 -161 112 -248.5t253 -87.5q90 0 182 23.5t153 58.5v-188q-175 -53 -348 -53q-263 0 -407 147.5t-144 409.5q0 234 141 377t353 143q227 0 352 -134t125 -395v-53zM592 905q-119 0 -196.5 -76t-96.5 -206h567q0 132 -76 207t-198 75zM483 1257v218h217
v-218h-217z" />
    <glyph glyph-name="Eogonek" unicode="&#x118;" horiz-adv-x="1105" 
d="M190 0v1434h805v-181h-604v-419h563v-181h-563v-473h604v-180q-125 -90 -171 -145t-46 -105q0 -42 22.5 -67t61.5 -25q24 0 47.5 4.5t34.5 9.5l12 4l29 -100q-76 -31 -164 -31q-215 0 -215 181q0 148 221 274h-637z" />
    <glyph glyph-name="eogonek" unicode="&#x119;" horiz-adv-x="1177" 
d="M100 541q0 234 141 377t353 143q228 0 352.5 -134t124.5 -395v-53h-772q19 -161 113.5 -248.5t251.5 -87.5q92 0 184 23.5t153 58.5v-176q-125 -107 -171 -173.5t-46 -123.5q0 -94 90 -94q20 0 42 4.5t34 9.5l13 4l28 -100q-76 -31 -166 -31q-109 0 -161 49t-52 132
q0 141 174 266q-82 -8 -139 -8q-256 0 -401.5 148t-145.5 409zM301 623h565q0 132 -75.5 207t-198.5 75q-250 0 -291 -282z" />
    <glyph glyph-name="Ecaron" unicode="&#x11a;" horiz-adv-x="1105" 
d="M190 0v1434h805v-181h-604v-419h563v-181h-563v-473h604v-180h-805zM481 1536l-213 246h205l121 -164l121 164h205l-213 -246h-226z" />
    <glyph glyph-name="ecaron" unicode="&#x11b;" horiz-adv-x="1177" 
d="M1071 479h-772q17 -161 112 -248.5t253 -87.5q90 0 182 23.5t153 58.5v-188q-175 -53 -348 -53q-263 0 -407 147.5t-144 409.5q0 234 141 377t353 143q227 0 352 -134t125 -395v-53zM592 905q-119 0 -196.5 -76t-96.5 -206h567q0 132 -76 207t-198 75zM500 1249l-205 267
h156l141 -173l141 173h156l-205 -267h-184z" />
    <glyph glyph-name="Gcircumflex" unicode="&#x11c;" horiz-adv-x="1464" 
d="M848 -20q-354 0 -551 197t-197 540q0 338 203 537.5t555 199.5q130 0 240.5 -25.5t169.5 -56.5v-196q-58 38 -169 68t-241 30q-248 0 -394.5 -150t-146.5 -407q0 -264 141.5 -410.5t407.5 -146.5q127 0 232 18v422h-332v180h532v-741q-182 -59 -450 -59zM469 1536
l213 246h225l213 -246h-196l-129 150l-129 -150h-197z" />
    <glyph glyph-name="gcircumflex" unicode="&#x11d;" horiz-adv-x="1290" 
d="M565 -467q-96 0 -192.5 17.5t-145.5 35.5l-49 17v184q7 -4 20 -10.5t54 -23.5t84 -30t106 -23.5t123 -10.5q183 0 273 90t90 274v109h-6q-51 -75 -143 -118.5t-199 -43.5q-208 0 -344 144t-136 384q0 124 38.5 225.5t105.5 168t157 103t193 36.5q200 0 340 -166h6v149
h180v-991q0 -262 -135.5 -391t-419.5 -129zM621 156q133 0 219 99t86 273q0 180 -89.5 278.5t-228.5 98.5q-132 0 -217.5 -94.5t-85.5 -269.5q0 -173 92 -279t224 -106zM307 1249l205 267h184l205 -267h-156l-141 172l-141 -172h-156z" />
    <glyph glyph-name="Gbreve" unicode="&#x11e;" horiz-adv-x="1464" 
d="M848 -20q-354 0 -551 197t-197 540q0 338 203 537.5t555 199.5q130 0 240.5 -25.5t169.5 -56.5v-196q-58 38 -169 68t-241 30q-248 0 -394.5 -150t-146.5 -407q0 -264 141.5 -410.5t407.5 -146.5q127 0 232 18v422h-332v180h532v-741q-182 -59 -450 -59zM795 1524
q-124 0 -220.5 65.5t-130.5 192.5h144q39 -115 207 -115q167 0 206 115h144q-34 -127 -130 -192.5t-220 -65.5z" />
    <glyph glyph-name="gbreve" unicode="&#x11f;" horiz-adv-x="1290" 
d="M565 -467q-96 0 -192.5 17.5t-145.5 35.5l-49 17v184q7 -4 20 -10.5t54 -23.5t84 -30t106 -23.5t123 -10.5q183 0 273 90t90 274v109h-6q-51 -75 -143 -118.5t-199 -43.5q-208 0 -344 144t-136 384q0 124 38.5 225.5t105.5 168t157 103t193 36.5q200 0 340 -166h6v149
h180v-991q0 -262 -135.5 -391t-419.5 -129zM621 156q133 0 219 99t86 273q0 180 -89.5 278.5t-228.5 98.5q-132 0 -217.5 -94.5t-85.5 -269.5q0 -173 92 -279t224 -106zM604 1225q-131 0 -218 79t-97 212h123q13 -62 58 -105t134 -43t134.5 43t58.5 105h123
q-10 -133 -97.5 -212t-218.5 -79z" />
    <glyph glyph-name="Gdotaccent" unicode="&#x120;" horiz-adv-x="1464" 
d="M848 -20q-354 0 -551 197t-197 540q0 338 203 537.5t555 199.5q130 0 240.5 -25.5t169.5 -56.5v-196q-58 38 -169 68t-241 30q-248 0 -394.5 -150t-146.5 -407q0 -264 141.5 -410.5t407.5 -146.5q127 0 232 18v422h-332v180h532v-741q-182 -59 -450 -59zM680 1540v209
h229v-209h-229z" />
    <glyph glyph-name="gdotaccent" unicode="&#x121;" horiz-adv-x="1290" 
d="M565 -467q-96 0 -192.5 17.5t-145.5 35.5l-49 17v184q7 -4 20 -10.5t54 -23.5t84 -30t106 -23.5t123 -10.5q183 0 273 90t90 274v109h-6q-51 -75 -143 -118.5t-199 -43.5q-208 0 -344 144t-136 384q0 124 38.5 225.5t105.5 168t157 103t193 36.5q200 0 340 -166h6v149
h180v-991q0 -262 -135.5 -391t-419.5 -129zM621 156q133 0 219 99t86 273q0 180 -89.5 278.5t-228.5 98.5q-132 0 -217.5 -94.5t-85.5 -269.5q0 -173 92 -279t224 -106zM496 1257v218h217v-218h-217z" />
    <glyph glyph-name="uni0122" unicode="&#x122;" horiz-adv-x="1464" 
d="M848 -20q-354 0 -551 197t-197 540q0 338 203 537.5t555 199.5q130 0 240.5 -25.5t169.5 -56.5v-196q-58 38 -169 68t-241 30q-248 0 -394.5 -150t-146.5 -407q0 -264 141.5 -410.5t407.5 -146.5q127 0 232 18v422h-332v180h532v-741q-182 -59 -450 -59zM557 -512l82 410
h219l-143 -410h-158z" />
    <glyph glyph-name="uni0123" unicode="&#x123;" horiz-adv-x="1290" 
d="M565 -467q-96 0 -192.5 17.5t-145.5 35.5l-49 17v184q7 -4 20 -10.5t54 -23.5t84 -30t106 -23.5t123 -10.5q183 0 273 90t90 274v109h-6q-51 -75 -143 -118.5t-199 -43.5q-208 0 -344 144t-136 384q0 124 38.5 225.5t105.5 168t157 103t193 36.5q200 0 340 -166h6v149
h180v-991q0 -262 -135.5 -391t-419.5 -129zM621 156q133 0 219 99t86 273q0 180 -89.5 278.5t-228.5 98.5q-132 0 -217.5 -94.5t-85.5 -269.5q0 -173 92 -279t224 -106zM512 1217l143 380h144l-82 -380h-205z" />
    <glyph glyph-name="Hcircumflex" unicode="&#x124;" horiz-adv-x="1474" 
d="M190 0v1434h201v-600h692v600h201v-1434h-201v653h-692v-653h-201zM412 1536l213 246h225l213 -246h-197l-129 150l-129 -150h-196z" />
    <glyph glyph-name="hcircumflex" unicode="&#x125;" horiz-adv-x="1249" 
d="M170 0v1556h192v-512l-2 -149h7q117 166 348 166q189 0 293 -112t104 -335v-614h-192v553q0 193 -63 272.5t-183 79.5q-144 0 -228 -104t-84 -309v-492h-192zM-31 1638l205 267h184l205 -267h-155l-142 172l-141 -172h-156z" />
    <glyph glyph-name="Hbar" unicode="&#x126;" horiz-adv-x="1495" 
d="M201 0v1044h-144v140h144v250h200v-250h693v250h200v-250h144v-140h-144v-1044h-200v653h-693v-653h-200zM401 834h693v210h-693v-210z" />
    <glyph glyph-name="hbar" unicode="&#x127;" horiz-adv-x="1249" 
d="M-18 1237v156h188v163h192v-163h447v-156h-447v-193l-2 -149h7q117 166 348 166q189 0 293 -112t104 -335v-614h-192v553q0 193 -63 272.5t-183 79.5q-144 0 -228 -104t-84 -309v-492h-192v1237h-188z" />
    <glyph glyph-name="Imacron" unicode="&#x12a;" horiz-adv-x="634" 
d="M217 0v1434h201v-1434h-201zM72 1577v143h491v-143h-491z" />
    <glyph glyph-name="imacron" unicode="&#x12b;" horiz-adv-x="593" 
d="M201 0v1044h192v-1044h-192zM31 1341v144h532v-144h-532z" />
    <glyph glyph-name="Iogonek" unicode="&#x12e;" horiz-adv-x="634" 
d="M217 0v1434h201v-1434q-125 -90 -171 -145t-46 -105q0 -42 22.5 -67t61.5 -25q24 0 47.5 4.5t35.5 9.5l11 4l29 -100q-76 -31 -164 -31q-215 0 -215 181q0 148 221 274h-33z" />
    <glyph glyph-name="iogonek" unicode="&#x12f;" horiz-adv-x="593" 
d="M201 0v1044h192v-1044q-125 -90 -171 -145t-46 -105q0 -42 22.5 -67t61.5 -25q24 0 47.5 4.5t34.5 9.5l12 4l29 -100q-76 -31 -164 -31q-215 0 -215 181q0 148 221 274h-24zM188 1257v218h218v-218h-218z" />
    <glyph glyph-name="Idotaccent" unicode="&#x130;" horiz-adv-x="634" 
d="M217 0v1434h201v-1434h-201zM203 1540v209h229v-209h-229z" />
    <glyph glyph-name="dotlessi" unicode="&#x131;" horiz-adv-x="593" 
d="M201 0v1044h192v-1044h-192z" />
    <glyph glyph-name="Jcircumflex" unicode="&#x134;" horiz-adv-x="778" 
d="M186 -20q-103 0 -157 20v180q73 -20 129 -20q129 0 181 68t52 208v998h201v-1063q0 -197 -105 -294t-301 -97zM164 1536l213 246h225l213 -246h-197l-129 150l-129 -150h-196z" />
    <glyph glyph-name="jcircumflex" unicode="&#x135;" horiz-adv-x="593" 
d="M63 -467q-28 0 -52 2.5t-34 4.5l-10 3v164q31 -8 70 -8q80 0 122 48.5t42 162.5v1134h192v-1134q0 -110 -20 -183.5t-63.5 -116t-102 -60t-144.5 -17.5zM41 1249l164 267h184l164 -267h-156l-100 172l-100 -172h-156z" />
    <glyph glyph-name="uni0136" unicode="&#x136;" horiz-adv-x="1320" 
d="M190 0v1434h201v-590h211l414 590h248l-492 -678l539 -756h-250l-461 664h-209v-664h-201zM479 -512l82 410h219l-143 -410h-158z" />
    <glyph glyph-name="uni0137" unicode="&#x137;" horiz-adv-x="1136" 
d="M170 0v1556h192v-999l506 487h240l-465 -434l471 -610h-235l-371 492l-146 -138v-354h-192zM422 -451l82 349h205l-144 -349h-143z" />
    <glyph glyph-name="Lacute" unicode="&#x139;" horiz-adv-x="1064" 
d="M190 0v1434h201v-1254h641v-180h-842zM195 1536l145 256h246l-228 -256h-163z" />
    <glyph glyph-name="lacute" unicode="&#x13a;" horiz-adv-x="593" 
d="M201 0v1561h192v-1561h-192zM211 1638l160 267h245l-241 -267h-164z" />
    <glyph glyph-name="uni013B" unicode="&#x13b;" horiz-adv-x="1064" 
d="M190 0v1434h201v-1254h641v-180h-842zM356 -512l82 410h219l-143 -410h-158z" />
    <glyph glyph-name="uni013C" unicode="&#x13c;" horiz-adv-x="593" 
d="M201 0v1561h192v-1561h-192zM129 -451l82 349h205l-144 -349h-143z" />
    <glyph glyph-name="Lcaron" unicode="&#x13d;" horiz-adv-x="1064" 
d="M680 1024l82 410h225l-151 -410h-156zM190 0v1434h201v-1254h641v-180h-842z" />
    <glyph glyph-name="lcaron" unicode="&#x13e;" horiz-adv-x="593" 
d="M201 0v1561h192v-1561h-192zM453 1217l82 344h204l-143 -344h-143z" />
    <glyph glyph-name="Ldot" unicode="&#x13f;" horiz-adv-x="1064" 
d="M713 647v225h221v-225h-221zM190 0v1434h201v-1254h641v-180h-842z" />
    <glyph glyph-name="ldot" unicode="&#x140;" horiz-adv-x="921" 
d="M645 690v230h225v-230h-225zM201 0v1561h192v-1561h-192z" />
    <glyph glyph-name="Lslash" unicode="&#x141;" horiz-adv-x="1064" 
d="M190 0v563l-190 -102v166l190 102v705h201v-598l387 208v-165l-387 -209v-490h641v-180h-842z" />
    <glyph glyph-name="lslash" unicode="&#x142;" horiz-adv-x="614" 
d="M211 0v649l-203 -125v185l203 125v727h192v-609l203 125v-184l-203 -125v-768h-192z" />
    <glyph glyph-name="Nacute" unicode="&#x143;" horiz-adv-x="1495" 
d="M190 0v1434h267l647 -1168h4l-4 183v985h201v-1434h-267l-647 1167h-4l4 -163v-1004h-201zM672 1536l145 256h246l-227 -256h-164z" />
    <glyph glyph-name="nacute" unicode="&#x144;" horiz-adv-x="1249" 
d="M170 0v1044h192v-149h5q117 166 348 166q189 0 293 -112t104 -335v-614h-192v553q0 193 -63 272.5t-183 79.5q-144 0 -228 -104t-84 -309v-492h-192zM539 1249l159 267h246l-242 -267h-163z" />
    <glyph glyph-name="uni0145" unicode="&#x145;" horiz-adv-x="1495" 
d="M190 0v1434h267l647 -1168h4l-4 183v985h201v-1434h-267l-647 1167h-4l4 -163v-1004h-201zM586 -512l82 410h219l-144 -410h-157z" />
    <glyph glyph-name="uni0146" unicode="&#x146;" horiz-adv-x="1249" 
d="M170 0v1044h192v-149h5q117 166 348 166q189 0 293 -112t104 -335v-614h-192v553q0 193 -63 272.5t-183 79.5q-144 0 -228 -104t-84 -309v-492h-192zM457 -451l82 349h204l-143 -349h-143z" />
    <glyph glyph-name="Ncaron" unicode="&#x147;" horiz-adv-x="1495" 
d="M190 0v1434h267l647 -1168h4l-4 183v985h201v-1434h-267l-647 1167h-4l4 -163v-1004h-201zM649 1536l-213 246h205l121 -164l121 164h204l-213 -246h-225z" />
    <glyph glyph-name="ncaron" unicode="&#x148;" horiz-adv-x="1249" 
d="M170 0v1044h192v-149h5q117 166 348 166q189 0 293 -112t104 -335v-614h-192v553q0 193 -63 272.5t-183 79.5q-144 0 -228 -104t-84 -309v-492h-192zM532 1249l-204 267h155l142 -173l141 173h156l-205 -267h-185z" />
    <glyph glyph-name="Omacron" unicode="&#x14c;" horiz-adv-x="1536" 
d="M768 -20q-206 0 -358.5 95.5t-231 261.5t-78.5 380q0 215 79.5 381.5t232 261t356.5 94.5q205 0 358 -96t231.5 -262t78.5 -379q0 -216 -79.5 -382.5t-232 -260.5t-356.5 -94zM768 160q143 0 248 77t156 201.5t51 278.5q0 157 -52.5 282t-157 200t-245.5 75
q-142 0 -247 -76.5t-156.5 -201t-51.5 -279.5q0 -157 51.5 -281.5t156.5 -200t247 -75.5zM461 1577v143h614v-143h-614z" />
    <glyph glyph-name="omacron" unicode="&#x14d;" horiz-adv-x="1269" 
d="M635 -16q-237 0 -386 149.5t-149 388.5t149 389t386 150q236 0 385 -150t149 -389t-148.5 -388.5t-385.5 -149.5zM635 139q139 0 234.5 106t95.5 277q0 170 -96 276.5t-234 106.5q-139 0 -234.5 -106t-95.5 -277t95.5 -277t234.5 -106zM328 1341v144h614v-144h-614z" />
    <glyph glyph-name="Obreve" unicode="&#x14e;" horiz-adv-x="1536" 
d="M768 -20q-206 0 -358.5 95.5t-231 261.5t-78.5 380q0 215 79.5 381.5t232 261t356.5 94.5q205 0 358 -96t231.5 -262t78.5 -379q0 -216 -79.5 -382.5t-232 -260.5t-356.5 -94zM768 160q143 0 248 77t156 201.5t51 278.5q0 157 -52.5 282t-157 200t-245.5 75
q-142 0 -247 -76.5t-156.5 -201t-51.5 -279.5q0 -157 51.5 -281.5t156.5 -200t247 -75.5zM768 1524q-124 0 -220 65.5t-130 192.5h143q39 -115 207 -115t207 115h143q-34 -127 -130 -192.5t-220 -65.5z" />
    <glyph glyph-name="obreve" unicode="&#x14f;" horiz-adv-x="1269" 
d="M635 -16q-237 0 -386 149.5t-149 388.5t149 389t386 150q236 0 385 -150t149 -389t-148.5 -388.5t-385.5 -149.5zM635 139q139 0 234.5 106t95.5 277q0 170 -96 276.5t-234 106.5q-139 0 -234.5 -106t-95.5 -277t95.5 -277t234.5 -106zM635 1225q-131 0 -218.5 79
t-97.5 212h123q13 -62 58.5 -105t134.5 -43t134 43t58 105h123q-10 -133 -97 -212t-218 -79z" />
    <glyph glyph-name="Ohungarumlaut" unicode="&#x150;" horiz-adv-x="1536" 
d="M768 -20q-206 0 -358.5 95.5t-231 261.5t-78.5 380q0 215 79.5 381.5t232 261t356.5 94.5q205 0 358 -96t231.5 -262t78.5 -379q0 -216 -79.5 -382.5t-232 -260.5t-356.5 -94zM768 160q143 0 248 77t156 201.5t51 278.5q0 157 -52.5 282t-157 200t-245.5 75
q-142 0 -247 -76.5t-156.5 -201t-51.5 -279.5q0 -157 51.5 -281.5t156.5 -200t247 -75.5zM860 1536l180 266h226l-262 -266h-144zM489 1536l181 266h225l-262 -266h-144z" />
    <glyph glyph-name="ohungarumlaut" unicode="&#x151;" horiz-adv-x="1269" 
d="M635 -16q-237 0 -386 149.5t-149 388.5t149 389t386 150q236 0 385 -150t149 -389t-148.5 -388.5t-385.5 -149.5zM635 139q139 0 234.5 106t95.5 277q0 170 -96 276.5t-234 106.5q-139 0 -234.5 -106t-95.5 -277t95.5 -277t234.5 -106zM725 1249l180 267h225l-262 -267
h-143zM354 1249l181 267h225l-262 -267h-144z" />
    <glyph glyph-name="OE" unicode="&#x152;" horiz-adv-x="1925" 
d="M793 -16q-316 0 -504.5 196.5t-188.5 536.5q0 341 190.5 537t514.5 196q54 0 192 -8t275 -8h543v-181h-609v-419h568v-181h-568v-473h609v-180h-705q-40 0 -156.5 -8t-160.5 -8zM823 164q102 0 183 16v1073q-134 17 -191 17q-225 0 -361.5 -148t-136.5 -405
q0 -260 135.5 -406.5t370.5 -146.5z" />
    <glyph glyph-name="oe" unicode="&#x153;" horiz-adv-x="1925" 
d="M1450 -16q-303 0 -446 245h-5q-143 -245 -401 -245q-220 0 -359 149.5t-139 388.5t139 389t359 150q127 0 228.5 -63t172.5 -179h5q137 242 389 242q200 0 313 -134.5t113 -394.5v-53h-715q17 -159 109 -247.5t237 -88.5q78 0 158 23t139 59v-188q-162 -53 -297 -53z
M305 522q0 -171 85.5 -277t211.5 -106t211.5 106t85.5 277t-86 277t-211 106q-126 0 -211.5 -106t-85.5 -277zM1376 905q-109 0 -180 -75t-90 -207h508q0 132 -65.5 207t-172.5 75z" />
    <glyph glyph-name="Racute" unicode="&#x154;" horiz-adv-x="1280" 
d="M995 0l-256 547q-33 -4 -102 -4h-246v-543h-201v1434h447q257 0 384.5 -116t127.5 -335q0 -274 -213 -383l307 -600h-248zM391 713h246q151 0 223 67.5t72 202.5t-72 202.5t-223 67.5h-246v-540zM551 1536l145 256h246l-227 -256h-164z" />
    <glyph glyph-name="racute" unicode="&#x155;" horiz-adv-x="829" 
d="M170 0v1044h180v-170h4q50 98 123 142.5t176 44.5q49 0 121 -10v-168q-68 10 -115 10q-154 0 -225.5 -107t-71.5 -319v-467h-192zM334 1249l160 267h245l-241 -267h-164z" />
    <glyph glyph-name="uni0156" unicode="&#x156;" horiz-adv-x="1280" 
d="M995 0l-256 547q-33 -4 -102 -4h-246v-543h-201v1434h447q257 0 384.5 -116t127.5 -335q0 -274 -213 -383l307 -600h-248zM391 713h246q151 0 223 67.5t72 202.5t-72 202.5t-223 67.5h-246v-540zM465 -512l82 410h219l-143 -410h-158z" />
    <glyph glyph-name="uni0157" unicode="&#x157;" horiz-adv-x="829" 
d="M170 0v1044h180v-170h4q50 98 123 142.5t176 44.5q49 0 121 -10v-168q-68 10 -115 10q-154 0 -225.5 -107t-71.5 -319v-467h-192zM84 -451l82 349h205l-144 -349h-143z" />
    <glyph glyph-name="Rcaron" unicode="&#x158;" horiz-adv-x="1280" 
d="M995 0l-256 547q-33 -4 -102 -4h-246v-543h-201v1434h447q257 0 384.5 -116t127.5 -335q0 -274 -213 -383l307 -600h-248zM391 713h246q151 0 223 67.5t72 202.5t-72 202.5t-223 67.5h-246v-540zM528 1536l-213 246h205l121 -164l121 164h205l-213 -246h-226z" />
    <glyph glyph-name="rcaron" unicode="&#x159;" horiz-adv-x="829" 
d="M170 0v1044h180v-170h4q50 98 123 142.5t176 44.5q49 0 121 -10v-168q-68 10 -115 10q-154 0 -225.5 -107t-71.5 -319v-467h-192zM328 1249l-205 267h156l141 -173l141 173h156l-205 -267h-184z" />
    <glyph glyph-name="Sacute" unicode="&#x15a;" horiz-adv-x="1085" 
d="M457 -20q-161 0 -328 59v188q66 -29 162.5 -48t169.5 -19q135 0 215 67.5t80 163.5q0 28 -8.5 53.5t-20.5 45.5t-36 41.5t-42 35t-54 34t-56 30.5l-62 31q-48 23 -75.5 37t-71.5 40t-70 46.5t-57.5 52.5t-48.5 64.5t-29 75t-12 89.5q0 174 125 280.5t356 106.5
q168 0 311 -51v-189q-138 60 -311 60q-135 0 -199.5 -50t-64.5 -130q0 -36 15.5 -68.5t35.5 -54.5t61.5 -49t69 -41t82.5 -41q42 -20 68 -33t66 -35t65 -41t56.5 -46t51 -56t37.5 -64t26.5 -77t8.5 -89q0 -189 -134.5 -304t-381.5 -115zM453 1536l145 256h246l-228 -256
h-163z" />
    <glyph glyph-name="sacute" unicode="&#x15b;" horiz-adv-x="962" 
d="M434 -16q-171 0 -311 57v170q154 -70 293 -70q111 0 168 40t57 98q0 29 -13.5 52t-44 43.5t-57.5 34t-75 34.5q-15 7 -23 10q-40 18 -59.5 27t-55 26.5t-54 30.5t-45.5 33.5t-41 40t-29 45t-21 55t-6 63.5q0 132 106 209.5t299 77.5q88 0 166 -14t115 -27v-164
q-106 45 -258 45q-111 0 -165 -31t-54 -86q0 -29 14 -52.5t43 -43.5t58 -34.5t75 -34.5q8 -3 12 -5q131 -58 163 -76q130 -73 157 -182q8 -32 8 -69q0 -137 -112 -220t-310 -83zM395 1249l160 267h246l-242 -267h-164z" />
    <glyph glyph-name="Scircumflex" unicode="&#x15c;" horiz-adv-x="1085" 
d="M457 -20q-161 0 -328 59v188q66 -29 162.5 -48t169.5 -19q135 0 215 67.5t80 163.5q0 28 -8.5 53.5t-20.5 45.5t-36 41.5t-42 35t-54 34t-56 30.5l-62 31q-48 23 -75.5 37t-71.5 40t-70 46.5t-57.5 52.5t-48.5 64.5t-29 75t-12 89.5q0 174 125 280.5t356 106.5
q168 0 311 -51v-189q-138 60 -311 60q-135 0 -199.5 -50t-64.5 -130q0 -36 15.5 -68.5t35.5 -54.5t61.5 -49t69 -41t82.5 -41q42 -20 68 -33t66 -35t65 -41t56.5 -46t51 -56t37.5 -64t26.5 -77t8.5 -89q0 -189 -134.5 -304t-381.5 -115zM217 1536l213 246h225l213 -246h-196
l-129 150l-129 -150h-197z" />
    <glyph glyph-name="scircumflex" unicode="&#x15d;" horiz-adv-x="962" 
d="M434 -16q-171 0 -311 57v170q154 -70 293 -70q111 0 168 40t57 98q0 29 -13.5 52t-44 43.5t-57.5 34t-75 34.5q-15 7 -23 10q-40 18 -59.5 27t-55 26.5t-54 30.5t-45.5 33.5t-41 40t-29 45t-21 55t-6 63.5q0 132 106 209.5t299 77.5q88 0 166 -14t115 -27v-164
q-106 45 -258 45q-111 0 -165 -31t-54 -86q0 -29 14 -52.5t43 -43.5t58 -34.5t75 -34.5q8 -3 12 -5q131 -58 163 -76q130 -73 157 -182q8 -32 8 -69q0 -137 -112 -220t-310 -83zM184 1249l205 267h184l205 -267h-155l-142 172l-141 -172h-156z" />
    <glyph glyph-name="Scedilla" unicode="&#x15e;" horiz-adv-x="1085" 
d="M457 -20q-161 0 -328 59v188q66 -29 162.5 -48t169.5 -19q135 0 215 67.5t80 163.5q0 28 -8.5 53.5t-20.5 45.5t-36 41.5t-42 35t-54 34t-56 30.5l-62 31q-48 23 -75.5 37t-71.5 40t-70 46.5t-57.5 52.5t-48.5 64.5t-29 75t-12 89.5q0 174 125 280.5t356 106.5
q168 0 311 -51v-189q-138 60 -311 60q-135 0 -199.5 -50t-64.5 -130q0 -36 15.5 -68.5t35.5 -54.5t61.5 -49t69 -41t82.5 -41q42 -20 68 -33t66 -35t65 -41t56.5 -46t51 -56t37.5 -64t26.5 -77t8.5 -89q0 -162 -101 -272t-288 -137l-9 -58q181 -6 181 -172q0 -95 -67 -155
t-169 -60q-83 0 -160 58l48 94q53 -31 98 -31q42 0 71 21t29 63t-29 63t-77 21q-35 0 -62 -6l21 152h-2z" />
    <glyph glyph-name="scedilla" unicode="&#x15f;" horiz-adv-x="962" 
d="M473 -397q-74 0 -141 51l43 82q46 -27 86 -27q37 0 62.5 18.5t25.5 55.5t-26 55.5t-68 18.5q-26 0 -54 -7l17 134q-169 3 -295 57v170q154 -70 293 -70q111 0 168 40t57 98q0 29 -13.5 52t-44 43.5t-57.5 34t-75 34.5q-15 7 -23 10q-40 18 -59.5 27t-55 26.5t-54 30.5
t-45.5 33.5t-41 40t-29 45t-21 55t-6 63.5q0 132 106 209.5t299 77.5q88 0 166 -14t115 -27v-164q-106 45 -258 45q-111 0 -165 -31t-54 -86q0 -29 14 -52.5t43 -43.5t58 -34.5t75 -34.5q8 -3 12 -5q131 -58 163 -76q130 -73 157 -182q8 -32 8 -69q0 -120 -86.5 -199
t-241.5 -98l-6 -47q158 -5 158 -152q0 -83 -58.5 -135.5t-148.5 -52.5z" />
    <glyph glyph-name="Scaron" unicode="&#x160;" horiz-adv-x="1085" 
d="M457 -20q-161 0 -328 59v188q66 -29 162.5 -48t169.5 -19q135 0 215 67.5t80 163.5q0 28 -8.5 53.5t-20.5 45.5t-36 41.5t-42 35t-54 34t-56 30.5l-62 31q-48 23 -75.5 37t-71.5 40t-70 46.5t-57.5 52.5t-48.5 64.5t-29 75t-12 89.5q0 174 125 280.5t356 106.5
q168 0 311 -51v-189q-138 60 -311 60q-135 0 -199.5 -50t-64.5 -130q0 -36 15.5 -68.5t35.5 -54.5t61.5 -49t69 -41t82.5 -41q42 -20 68 -33t66 -35t65 -41t56.5 -46t51 -56t37.5 -64t26.5 -77t8.5 -89q0 -189 -134.5 -304t-381.5 -115zM430 1536l-213 246h205l121 -164
l121 164h204l-213 -246h-225z" />
    <glyph glyph-name="scaron" unicode="&#x161;" horiz-adv-x="962" 
d="M434 -16q-171 0 -311 57v170q154 -70 293 -70q111 0 168 40t57 98q0 29 -13.5 52t-44 43.5t-57.5 34t-75 34.5q-15 7 -23 10q-40 18 -59.5 27t-55 26.5t-54 30.5t-45.5 33.5t-41 40t-29 45t-21 55t-6 63.5q0 132 106 209.5t299 77.5q88 0 166 -14t115 -27v-164
q-106 45 -258 45q-111 0 -165 -31t-54 -86q0 -29 14 -52.5t43 -43.5t58 -34.5t75 -34.5q8 -3 12 -5q131 -58 163 -76q130 -73 157 -182q8 -32 8 -69q0 -137 -112 -220t-310 -83zM389 1249l-205 267h156l141 -173l142 173h155l-205 -267h-184z" />
    <glyph glyph-name="uni0162" unicode="&#x162;" horiz-adv-x="1146" 
d="M473 0v1253h-438v181h1077v-181h-438v-1253h-39l-8 -68q180 -6 180 -172q0 -95 -67 -155t-169 -60q-82 0 -159 58l47 94q53 -31 98 -31q42 0 71 21t29 63t-29 63t-77 21q-35 0 -62 -6l23 172h-39z" />
    <glyph glyph-name="uni0163" unicode="&#x163;" horiz-adv-x="778" 
d="M449 -397q-75 0 -142 51l43 82q46 -27 86 -27q37 0 62.5 18.5t25.5 55.5t-26 55.5t-68 18.5q-25 0 -53 -7l22 168q-153 75 -153 289v582h-191v155h191v261l190 69v-330h258v-155h-258v-563q0 -88 44.5 -127t117.5 -39q48 0 104 16v-174q-66 -18 -137 -18q-25 0 -61 4
l-6 -45q83 -3 120 -41.5t37 -110.5q0 -83 -58 -135.5t-148 -52.5z" />
    <glyph glyph-name="Tcaron" unicode="&#x164;" horiz-adv-x="1146" 
d="M473 0v1253h-438v181h1077v-181h-438v-1253h-201zM461 1536l-213 246h205l120 -164l121 164h205l-213 -246h-225z" />
    <glyph glyph-name="tcaron" unicode="&#x165;" horiz-adv-x="778" 
d="M694 1044v-155h-258v-563q0 -88 44.5 -127t117.5 -39q48 0 104 16v-174q-66 -18 -137 -18q-154 0 -236.5 85t-82.5 238v582h-191v155h191v261l190 69v-330h258zM592 1217l82 344h205l-144 -344h-143z" />
    <glyph glyph-name="Umacron" unicode="&#x16a;" horiz-adv-x="1474" 
d="M737 -20q-263 0 -407 155t-144 455v844h201v-824q0 -239 87 -344.5t263 -105.5t263 105.5t87 344.5v824h201v-844q0 -300 -144 -455t-407 -155zM430 1577v143h614v-143h-614z" />
    <glyph glyph-name="umacron" unicode="&#x16b;" horiz-adv-x="1249" 
d="M1079 1044v-1044h-192v150h-4q-120 -166 -348 -166q-189 0 -293.5 112t-104.5 334v614h193v-552q0 -193 62.5 -273t182.5 -80q144 0 228 104.5t84 309.5v491h192zM307 1341v144h615v-144h-615z" />
    <glyph glyph-name="Ubreve" unicode="&#x16c;" horiz-adv-x="1474" 
d="M737 -20q-263 0 -407 155t-144 455v844h201v-824q0 -239 87 -344.5t263 -105.5t263 105.5t87 344.5v824h201v-844q0 -300 -144 -455t-407 -155zM737 1524q-124 0 -220 65.5t-130 192.5h143q39 -115 207 -115t207 115h143q-34 -127 -130 -192.5t-220 -65.5z" />
    <glyph glyph-name="ubreve" unicode="&#x16d;" horiz-adv-x="1249" 
d="M1079 1044v-1044h-192v150h-4q-120 -166 -348 -166q-189 0 -293.5 112t-104.5 334v614h193v-552q0 -193 62.5 -273t182.5 -80q144 0 228 104.5t84 309.5v491h192zM614 1225q-131 0 -218 79t-97 212h123q13 -62 58 -105t134 -43t134.5 43t58.5 105h123
q-10 -133 -97.5 -212t-218.5 -79z" />
    <glyph glyph-name="Uring" unicode="&#x16e;" horiz-adv-x="1474" 
d="M737 -20q-263 0 -407 155t-144 455v844h201v-824q0 -239 87 -344.5t263 -105.5t263 105.5t87 344.5v824h201v-844q0 -300 -144 -455t-407 -155zM737 1462q-86 0 -147.5 61.5t-61.5 147.5t61.5 147.5t147.5 61.5t147.5 -61.5t61.5 -147.5t-61.5 -147.5t-147.5 -61.5z
M737 1544q54 0 90.5 36.5t36.5 90.5t-36.5 90.5t-90.5 36.5t-90.5 -36.5t-36.5 -90.5t36.5 -90.5t90.5 -36.5z" />
    <glyph glyph-name="uring" unicode="&#x16f;" horiz-adv-x="1249" 
d="M1079 1044v-1044h-192v150h-4q-120 -166 -348 -166q-189 0 -293.5 112t-104.5 334v614h193v-552q0 -193 62.5 -273t182.5 -80q144 0 228 104.5t84 309.5v491h192zM614 1180q-86 0 -147 61.5t-61 147.5t61 147t147 61t147.5 -61t61.5 -147t-61.5 -147.5t-147.5 -61.5z
M614 1262q54 0 90.5 36.5t36.5 90.5t-36.5 90.5t-90.5 36.5t-90.5 -36.5t-36.5 -90.5t36.5 -90.5t90.5 -36.5z" />
    <glyph glyph-name="Uhungarumlaut" unicode="&#x170;" horiz-adv-x="1474" 
d="M737 -20q-263 0 -407 155t-144 455v844h201v-824q0 -239 87 -344.5t263 -105.5t263 105.5t87 344.5v824h201v-844q0 -300 -144 -455t-407 -155zM829 1536l181 266h225l-262 -266h-144zM459 1536l180 266h225l-262 -266h-143z" />
    <glyph glyph-name="uhungarumlaut" unicode="&#x171;" horiz-adv-x="1249" 
d="M1079 1044v-1044h-192v150h-4q-120 -166 -348 -166q-189 0 -293.5 112t-104.5 334v614h193v-552q0 -193 62.5 -273t182.5 -80q144 0 228 104.5t84 309.5v491h192zM705 1249l180 267h225l-262 -267h-143zM334 1249l180 267h225l-262 -267h-143z" />
    <glyph glyph-name="Uogonek" unicode="&#x172;" horiz-adv-x="1474" 
d="M817 -455q-110 0 -162.5 46t-52.5 126q0 147 197 269q-20 -2 -62 -2q-263 0 -407 155t-144 455v840h201v-820q0 -239 87 -344.5t263 -105.5t263 105.5t87 344.5v820h201v-840q0 -76 -10 -141.5t-22.5 -113t-39.5 -94t-45.5 -73t-57 -62t-58 -50.5t-62.5 -47l-12 -9
q-45 -33 -64.5 -48t-53.5 -45t-49 -51t-27.5 -50.5t-12.5 -59.5q0 -42 22.5 -67t61.5 -25q24 0 47.5 4.5t34.5 9.5l12 4l29 -100q-76 -31 -164 -31z" />
    <glyph glyph-name="uogonek" unicode="&#x173;" horiz-adv-x="1249" 
d="M905 -455q-215 0 -215 181q0 148 221 274h-24v150h-4q-120 -166 -348 -166q-189 0 -293.5 112t-104.5 334v614h193v-552q0 -193 62.5 -273t182.5 -80q144 0 228 104.5t84 309.5v491h192v-1044q-125 -90 -171 -145t-46 -105q0 -42 22.5 -67t61.5 -25q24 0 47.5 4.5
t34.5 9.5l12 4l29 -100q-76 -31 -164 -31z" />
    <glyph glyph-name="Ydieresis" unicode="&#x178;" horiz-adv-x="1331" 
d="M25 1434h239l402 -676h4l397 676h240l-539 -883v-551h-201v551zM338 1536v205h217v-205h-217zM776 1536v205h217v-205h-217z" />
    <glyph glyph-name="Zacute" unicode="&#x179;" horiz-adv-x="1187" 
d="M119 0v184l704 1069h-680v181h914v-181l-711 -1073h723v-180h-950zM504 1536l145 256h246l-227 -256h-164z" />
    <glyph glyph-name="zacute" unicode="&#x17a;" horiz-adv-x="1024" 
d="M98 0v168l582 721h-553v155h776v-167l-584 -721h607v-156h-828zM426 1249l160 267h245l-241 -267h-164z" />
    <glyph glyph-name="Zdotaccent" unicode="&#x17b;" horiz-adv-x="1187" 
d="M119 0v184l704 1069h-680v181h914v-181l-711 -1073h723v-180h-950zM479 1540v209h230v-209h-230z" />
    <glyph glyph-name="zdotaccent" unicode="&#x17c;" horiz-adv-x="1024" 
d="M98 0v168l582 721h-553v155h776v-167l-584 -721h607v-156h-828zM403 1257v218h218v-218h-218z" />
    <glyph glyph-name="Zcaron" unicode="&#x17d;" horiz-adv-x="1187" 
d="M119 0v184l704 1069h-680v181h914v-181l-711 -1073h723v-180h-950zM481 1536l-213 246h205l121 -164l121 164h205l-213 -246h-226z" />
    <glyph glyph-name="zcaron" unicode="&#x17e;" horiz-adv-x="1024" 
d="M98 0v168l582 721h-553v155h776v-167l-584 -721h607v-156h-828zM420 1249l-205 267h156l141 -173l141 173h156l-205 -267h-184z" />
    <glyph glyph-name="uni018F" unicode="&#x18f;" horiz-adv-x="1474" 
d="M100 700v68h1055q-13 226 -131.5 366t-329.5 140q-192 0 -405 -115v203q117 49 214 70.5t208 21.5q209 0 360.5 -96.5t227 -261.5t75.5 -379q0 -161 -44 -297t-125 -233.5t-201.5 -152t-266.5 -54.5q-195 0 -341.5 97.5t-221 259.5t-74.5 363zM737 160q167 0 274 118.5
t136 309.5h-821q29 -192 136 -310t275 -118z" />
    <glyph glyph-name="florin" unicode="&#x192;" horiz-adv-x="1187" 
d="M168 705l27 143h288l43 221q18 99 42.5 164.5t67 118.5t109 77.5t162.5 24.5q127 0 205 -16l-29 -164q-74 12 -161 12q-101 0 -141 -46t-64 -171l-43 -221h293l-27 -143h-293l-147 -791q-39 -204 -124.5 -294.5t-246.5 -90.5q-33 0 -63 3t-45 6t-33 8l-19 5l33 158
q74 -12 109 -12q77 0 128 58t70 159l148 791h-289z" />
    <glyph glyph-name="uni01CF" unicode="&#x1cf;" horiz-adv-x="634" 
d="M217 0v1434h201v-1434h-201zM205 1536l-172 246h184l100 -144l101 144h184l-172 -246h-225z" />
    <glyph glyph-name="uni01D0" unicode="&#x1d0;" horiz-adv-x="593" 
d="M201 0v1044h192v-1044h-192zM211 1249l-170 267h156l100 -173l100 173h156l-172 -267h-170z" />
    <glyph glyph-name="uni01DD" unicode="&#x1dd;" horiz-adv-x="1177" 
d="M106 512v53h773q-17 162 -110 249t-249 87q-91 0 -186.5 -23.5t-155.5 -58.5v189q175 53 354 53q262 0 403.5 -147t141.5 -410q0 -234 -140.5 -377t-352.5 -143q-227 0 -352.5 133.5t-125.5 394.5zM586 139q118 0 196 76.5t95 206.5h-566q0 -132 76.5 -207.5t198.5 -75.5
z" />
    <glyph glyph-name="Gcaron" unicode="&#x1e6;" horiz-adv-x="1464" 
d="M848 -20q-354 0 -551 197t-197 540q0 338 203 537.5t555 199.5q130 0 240.5 -25.5t169.5 -56.5v-196q-58 38 -169 68t-241 30q-248 0 -394.5 -150t-146.5 -407q0 -264 141.5 -410.5t407.5 -146.5q127 0 232 18v422h-332v180h532v-741q-182 -59 -450 -59zM682 1536
l-213 246h205l121 -164l120 164h205l-213 -246h-225z" />
    <glyph glyph-name="gcaron" unicode="&#x1e7;" horiz-adv-x="1290" 
d="M565 -467q-96 0 -192.5 17.5t-145.5 35.5l-49 17v184q7 -4 20 -10.5t54 -23.5t84 -30t106 -23.5t123 -10.5q183 0 273 90t90 274v109h-6q-51 -75 -143 -118.5t-199 -43.5q-208 0 -344 144t-136 384q0 124 38.5 225.5t105.5 168t157 103t193 36.5q200 0 340 -166h6v149
h180v-991q0 -262 -135.5 -391t-419.5 -129zM621 156q133 0 219 99t86 273q0 180 -89.5 278.5t-228.5 98.5q-132 0 -217.5 -94.5t-85.5 -269.5q0 -173 92 -279t224 -106zM512 1249l-205 267h156l141 -173l141 173h156l-205 -267h-184z" />
    <glyph glyph-name="uni0218" unicode="&#x218;" horiz-adv-x="1085" 
d="M457 -20q-161 0 -328 59v188q66 -29 162.5 -48t169.5 -19q135 0 215 67.5t80 163.5q0 28 -8.5 53.5t-20.5 45.5t-36 41.5t-42 35t-54 34t-56 30.5l-62 31q-48 23 -75.5 37t-71.5 40t-70 46.5t-57.5 52.5t-48.5 64.5t-29 75t-12 89.5q0 174 125 280.5t356 106.5
q168 0 311 -51v-189q-138 60 -311 60q-135 0 -199.5 -50t-64.5 -130q0 -36 15.5 -68.5t35.5 -54.5t61.5 -49t69 -41t82.5 -41q42 -20 68 -33t66 -35t65 -41t56.5 -46t51 -56t37.5 -64t26.5 -77t8.5 -89q0 -189 -134.5 -304t-381.5 -115zM346 -512l82 410h219l-143 -410h-158
z" />
    <glyph glyph-name="uni0219" unicode="&#x219;" horiz-adv-x="962" 
d="M434 -16q-171 0 -311 57v170q154 -70 293 -70q111 0 168 40t57 98q0 29 -13.5 52t-44 43.5t-57.5 34t-75 34.5q-15 7 -23 10q-40 18 -59.5 27t-55 26.5t-54 30.5t-45.5 33.5t-41 40t-29 45t-21 55t-6 63.5q0 132 106 209.5t299 77.5q88 0 166 -14t115 -27v-164
q-106 45 -258 45q-111 0 -165 -31t-54 -86q0 -29 14 -52.5t43 -43.5t58 -34.5t75 -34.5q8 -3 12 -5q131 -58 163 -76q130 -73 157 -182q8 -32 8 -69q0 -137 -112 -220t-310 -83zM301 -451l82 349h205l-144 -349h-143z" />
    <glyph glyph-name="uni021A" unicode="&#x21a;" horiz-adv-x="1146" 
d="M473 0v1253h-438v181h1077v-181h-438v-1253h-201zM397 -512l82 410h219l-143 -410h-158z" />
    <glyph glyph-name="uni021B" unicode="&#x21b;" horiz-adv-x="778" 
d="M694 1044v-155h-258v-563q0 -88 44.5 -127t117.5 -39q48 0 104 16v-174q-66 -18 -137 -18q-154 0 -236.5 85t-82.5 238v582h-191v155h191v261l190 69v-330h258zM276 -451l82 349h205l-143 -349h-144z" />
    <glyph glyph-name="uni0237" unicode="&#x237;" horiz-adv-x="593" 
d="M63 -467q-28 0 -52 2.5t-34 4.5l-10 3v164q31 -8 70 -8q80 0 122 48.5t42 162.5v1134h192v-1134q0 -110 -20 -183.5t-63.5 -116t-102 -60t-144.5 -17.5z" />
    <glyph glyph-name="uni0259" unicode="&#x259;" horiz-adv-x="1177" 
d="M106 512v53h773q-17 162 -110 249t-249 87q-91 0 -186.5 -23.5t-155.5 -58.5v189q175 53 354 53q262 0 403.5 -147t141.5 -410q0 -234 -140.5 -377t-352.5 -143q-227 0 -352.5 133.5t-125.5 394.5zM586 139q118 0 196 76.5t95 206.5h-566q0 -132 76.5 -207.5t198.5 -75.5
z" />
    <glyph glyph-name="uni02BC" unicode="&#x2bc;" horiz-adv-x="614" 
d="M164 1217l82 344h205l-144 -344h-143z" />
    <glyph glyph-name="circumflex" unicode="&#x2c6;" 
d="M113 1249l204 267h185l205 -267h-156l-141 172l-142 -172h-155z" />
    <glyph glyph-name="caron" unicode="&#x2c7;" 
d="M317 1249l-204 267h155l142 -173l141 173h156l-205 -267h-185z" />
    <glyph glyph-name="uni02C9" unicode="&#x2c9;" 
d="M164 1577v143h614v-143h-614z" />
    <glyph glyph-name="breve" unicode="&#x2d8;" 
d="M410 1225q-131 0 -218.5 79t-97.5 212h123q13 -62 58.5 -105t134.5 -43t134 43t58 105h123q-10 -133 -97 -212t-218 -79z" />
    <glyph glyph-name="dotaccent" unicode="&#x2d9;" 
d="M301 1257v218h217v-218h-217z" />
    <glyph glyph-name="ring" unicode="&#x2da;" 
d="M410 1180q-86 0 -147.5 61.5t-61.5 147.5t61.5 147t147.5 61t147 -61t61 -147t-61 -147.5t-147 -61.5zM410 1262q54 0 90.5 36.5t36.5 90.5t-36.5 90.5t-90.5 36.5t-90.5 -36.5t-36.5 -90.5t36.5 -90.5t90.5 -36.5z" />
    <glyph glyph-name="ogonek" unicode="&#x2db;" 
d="M399 -455q-215 0 -215 181q0 185 348 337l41 -63q-125 -90 -171 -145t-46 -105q0 -42 22.5 -67t61.5 -25q24 0 47.5 4.5t35.5 9.5l12 4l28 -100q-76 -31 -164 -31z" />
    <glyph glyph-name="tilde" unicode="&#x2dc;" 
d="M80 1262q7 97 54 163t132 66q28 0 54 -8.5t106 -42.5q3 -1 34.5 -15.5t54 -21t46.5 -6.5q72 0 90 94h90q-30 -229 -186 -229q-29 0 -58 9.5t-104 41.5q-3 1 -34.5 15.5t-54 21t-46.5 6.5q-72 0 -90 -94h-88z" />
    <glyph glyph-name="hungarumlaut" unicode="&#x2dd;" 
d="M500 1249l180 267h225l-262 -267h-143zM129 1249l180 267h226l-263 -267h-143z" />
    <glyph glyph-name="gravecomb" unicode="&#x300;" horiz-adv-x="0" 
d="M-694 1249l-242 267h246l160 -267h-164z" />
    <glyph glyph-name="acutecomb" unicode="&#x301;" horiz-adv-x="0" 
d="M-700 1249l159 267h246l-242 -267h-163z" />
    <glyph glyph-name="uni0302" unicode="&#x302;" 
d="M113 1249l204 267h185l205 -267h-156l-141 172l-142 -172h-155z" />
    <glyph glyph-name="tildecomb" unicode="&#x303;" 
d="M80 1262q7 97 54 163t132 66q28 0 54 -8.5t106 -42.5q3 -1 34.5 -15.5t54 -21t46.5 -6.5q72 0 90 94h90q-30 -229 -186 -229q-29 0 -58 9.5t-104 41.5q-3 1 -34.5 15.5t-54 21t-46.5 6.5q-72 0 -90 -94h-88z" />
    <glyph glyph-name="uni0307" unicode="&#x307;" 
d="M301 1257v218h217v-218h-217z" />
    <glyph glyph-name="uni0308" unicode="&#x308;" 
d="M504 1270v205h192v-205h-192zM123 1270v205h192v-205h-192z" />
    <glyph glyph-name="uni030A" unicode="&#x30a;" 
d="M410 1180q-86 0 -147.5 61.5t-61.5 147.5t61.5 147t147.5 61t147 -61t61 -147t-61 -147.5t-147 -61.5zM410 1262q54 0 90.5 36.5t36.5 90.5t-36.5 90.5t-90.5 36.5t-90.5 -36.5t-36.5 -90.5t36.5 -90.5t90.5 -36.5z" />
    <glyph glyph-name="uni0326" unicode="&#x326;" 
d="M242 -451l82 349h204l-143 -349h-143z" />
    <glyph glyph-name="uni0327" unicode="&#x327;" 
d="M379 -397q-74 0 -141 51l43 82q46 -27 86 -27q37 0 62.5 18.5t25.5 55.5t-26.5 55.5t-68.5 18.5q-25 0 -53 -7l23 168h108l-10 -75q158 -5 158 -152q0 -83 -58.5 -135.5t-148.5 -52.5z" />
    <glyph glyph-name="uni0394" unicode="&#x394;" horiz-adv-x="1433" 
d="M33 0l579 1434h215l574 -1434h-1368zM315 168h797l-399 1073z" />
    <glyph glyph-name="uni03A9" unicode="&#x3a9;" horiz-adv-x="1556" 
d="M133 0l-24 301l161 10l13 -147h237v90q-185 44 -292 198t-107 363q0 293 178.5 466t478.5 173q302 0 480 -175t178 -464q0 -204 -109 -361.5t-293 -199.5v-90h240l10 147l164 -10l-27 -301h-555v336q168 24 260.5 151t92.5 320q0 214 -120.5 340.5t-320.5 126.5
q-206 0 -323 -125.5t-117 -341.5q0 -196 91 -321.5t261 -149.5v-336h-557z" />
    <glyph glyph-name="mu" unicode="&#x3bc;" horiz-adv-x="1228" 
d="M170 -459v1503h192v-552q0 -192 56.5 -272.5t163.5 -80.5q127 0 205.5 105.5t78.5 308.5v491h193v-1044h-193v150h-4q-114 -166 -321 -166q-91 0 -174 47l-5 -4v-486h-192z" />
    <glyph glyph-name="pi" unicode="&#x3c0;" horiz-adv-x="1341" 
d="M1188 -16q-117 0 -179.5 63.5t-62.5 183.5v658h-502v-889h-192v883h-19q-29 0 -86.5 -24.5t-95.5 -67.5l-94 116q119 137 350 137h955v-155h-123v-608q0 -64 13 -95t34.5 -37.5t64.5 -3.5v-155q-18 -6 -63 -6z" />
    <glyph glyph-name="uni0401" unicode="&#x401;" horiz-adv-x="1105" 
d="M190 0v1434h805v-181h-604v-419h563v-181h-563v-473h604v-180h-805zM266 1536v205h217v-205h-217zM705 1536v205h217v-205h-217z" />
    <glyph glyph-name="uni0402" unicode="&#x402;" horiz-adv-x="1454" 
d="M1141 1434v-181h-606v-428q175 93 356 93q116 0 207 -37.5t147.5 -104t85.5 -153.5t29 -189q0 -134 -50.5 -276t-147 -270t-222.5 -212l-115 129q147 104 243.5 285.5t96.5 343.5q0 141 -75.5 226t-227.5 85q-157 0 -327 -104v-641h-201v1253h-293v181h1100z" />
    <glyph glyph-name="uni0403" unicode="&#x403;" horiz-adv-x="1064" 
d="M190 0v1434h803v-181h-602v-1253h-201zM442 1536l146 256h246l-228 -256h-164z" />
    <glyph glyph-name="uni0404" unicode="&#x404;" horiz-adv-x="1310" 
d="M879 160q89 0 172 18t121 36l38 17v-200q-15 -6 -42 -14.5t-113.5 -22.5t-175.5 -14q-361 0 -570 199t-209 538q0 338 205.5 537.5t552.5 199.5q98 0 186 -15t127 -31l39 -15v-201q-5 3 -15.5 8.5t-45 20t-72.5 25t-97.5 19.5t-121.5 9q-215 0 -361 -119t-175 -328h598
v-180h-603q23 -230 171 -358.5t391 -128.5z" />
    <glyph glyph-name="uni0405" unicode="&#x405;" horiz-adv-x="1085" 
d="M457 -20q-161 0 -328 59v188q66 -29 162.5 -48t169.5 -19q135 0 215 67.5t80 163.5q0 28 -8.5 53.5t-20.5 45.5t-36 41.5t-42 35t-54 34t-56 30.5l-62 31q-48 23 -75.5 37t-71.5 40t-70 46.5t-57.5 52.5t-48.5 64.5t-29 75t-12 89.5q0 174 125 280.5t356 106.5
q168 0 311 -51v-189q-138 60 -311 60q-135 0 -199.5 -50t-64.5 -130q0 -36 15.5 -68.5t35.5 -54.5t61.5 -49t69 -41t82.5 -41q42 -20 68 -33t66 -35t65 -41t56.5 -46t51 -56t37.5 -64t26.5 -77t8.5 -89q0 -189 -134.5 -304t-381.5 -115z" />
    <glyph glyph-name="uni0406" unicode="&#x406;" horiz-adv-x="634" 
d="M217 0v1434h201v-1434h-201z" />
    <glyph glyph-name="uni0407" unicode="&#x407;" horiz-adv-x="634" 
d="M217 0v1434h201v-1434h-201zM72 1536v205h196v-205h-196zM367 1536v205h196v-205h-196z" />
    <glyph glyph-name="uni0408" unicode="&#x408;" horiz-adv-x="778" 
d="M186 -20q-103 0 -157 20v180q73 -20 129 -20q129 0 181 68t52 208v998h201v-1063q0 -197 -105 -294t-301 -97z" />
    <glyph glyph-name="uni0409" unicode="&#x409;" horiz-adv-x="1945" 
d="M55 -4v178q31 -10 66 -10q72 0 111 75.5t60 299.5t21 649v246h836v-537h203q258 0 390 -116t132 -332t-132 -332.5t-390 -116.5h-404v1253h-438v-65q0 -251 -7 -431.5t-24.5 -318t-43 -223.5t-66.5 -140t-91 -74.5t-120 -20.5q-27 0 -53 4t-38 8zM1149 180h203
q305 0 305 269q0 268 -305 268h-203v-537z" />
    <glyph glyph-name="uni040A" unicode="&#x40a;" horiz-adv-x="1945" 
d="M190 0v1434h201v-578h574v578h200v-578h187q258 0 390 -111t132 -317t-132 -317t-390 -111h-387v676h-574v-676h-201zM1165 180h187q305 0 305 248t-305 248h-187v-496z" />
    <glyph glyph-name="uni040B" unicode="&#x40b;" horiz-adv-x="1495" 
d="M1141 1434v-181h-606v-417q216 82 407 82q444 0 444 -418v-500h-200v430q0 160 -66 233.5t-227 73.5q-181 0 -358 -78v-659h-201v1253h-293v181h1100z" />
    <glyph glyph-name="uni040C" unicode="&#x40c;" horiz-adv-x="1320" 
d="M190 0v1434h201v-590h211l414 590h248l-492 -678l539 -756h-250l-461 664h-209v-664h-201zM565 1536l146 256h245l-227 -256h-164z" />
    <glyph glyph-name="uni040E" unicode="&#x40e;" horiz-adv-x="1269" 
d="M240 176q70 -26 118 -26q129 0 189 169l-522 1115h215l395 -885h10l391 885h209l-518 -1145q-78 -171 -152 -240t-194 -69q-71 0 -141 24v172zM635 1516q-146 0 -238.5 70.5t-99.5 207.5h154q15 -135 184 -135t184 135h154q-7 -137 -99.5 -207.5t-238.5 -70.5z" />
    <glyph glyph-name="uni040F" unicode="&#x40f;" horiz-adv-x="1443" 
d="M623 -319v319h-433v1434h201v-1254h662v1254h200v-1434h-430v-319h-200z" />
    <glyph glyph-name="uni0410" unicode="&#x410;" horiz-adv-x="1413" 
d="M31 0l567 1434h217l567 -1434h-225l-137 369h-635l-137 -369h-217zM702 1219l-256 -687h515l-254 687h-5z" />
    <glyph glyph-name="uni0411" unicode="&#x411;" horiz-adv-x="1249" 
d="M190 0v1434h865v-181h-664v-364h266q254 0 382 -117.5t128 -329.5q0 -211 -131 -326.5t-399 -115.5h-447zM391 180h246q317 0 317 262q0 129 -74 198t-223 69h-266v-529z" />
    <glyph glyph-name="uni0412" unicode="&#x412;" horiz-adv-x="1249" 
d="M190 0v1434h424q512 0 512 -369q0 -252 -264 -322v-4q305 -65 305 -348q0 -193 -121.5 -292t-390.5 -99h-465zM391 168h264q295 0 295 244q0 241 -295 241h-264v-485zM391 821h223q306 0 306 223q0 222 -306 222h-223v-445z" />
    <glyph glyph-name="uni0413" unicode="&#x413;" horiz-adv-x="1064" 
d="M190 0v1434h803v-181h-602v-1253h-201z" />
    <glyph glyph-name="uni0414" unicode="&#x414;" horiz-adv-x="1525" 
d="M23 -319v499h137q106 165 139 362t33 525v367h960v-1254h162v-499h-201v319h-1030v-319h-200zM522 1176q0 -122 -1.5 -203.5t-10 -212.5t-24.5 -224.5t-47.5 -192.5t-76.5 -163h730v1073h-570v-77z" />
    <glyph glyph-name="uni0415" unicode="&#x415;" horiz-adv-x="1105" 
d="M190 0v1434h805v-181h-604v-419h563v-181h-563v-473h604v-180h-805z" />
    <glyph glyph-name="uni0416" unicode="&#x416;" horiz-adv-x="1925" 
d="M1665 0l-442 664h-160v-664h-201v664h-162l-440 -664h-250l518 756l-471 678h248l395 -590h162v590h201v-590h160l397 590h248l-473 -678l520 -756h-250z" />
    <glyph glyph-name="uni0417" unicode="&#x417;" horiz-adv-x="1105" 
d="M510 -20q-72 0 -143.5 8.5t-121.5 20t-90 23.5t-59 20l-20 9v193q7 -4 21 -10t59 -22.5t93 -29t120 -22.5t143 -10q299 0 299 246q0 118 -74 182.5t-225 64.5h-170v168h129q153 0 226 60.5t73 167.5q0 225 -299 225q-84 0 -172.5 -21t-134.5 -42l-47 -21v192
q18 8 49.5 20t124.5 32t180 20q251 0 381.5 -101.5t130.5 -275.5q0 -234 -254 -334v-2q295 -75 295 -340q0 -183 -139 -302t-375 -119z" />
    <glyph glyph-name="uni0418" unicode="&#x418;" horiz-adv-x="1515" 
d="M190 0v1434h201v-1047l-4 -123h4l78 133l602 1037h254v-1434h-201v1030l4 144h-4l-69 -121l-611 -1053h-254z" />
    <glyph glyph-name="uni0419" unicode="&#x419;" horiz-adv-x="1515" 
d="M190 0v1434h201v-1047l-4 -123h4l78 133l602 1037h254v-1434h-201v1030l4 144h-4l-69 -121l-611 -1053h-254zM758 1516q-146 0 -238.5 70.5t-99.5 207.5h153q15 -135 185 -135q169 0 184 135h154q-7 -137 -99.5 -207.5t-238.5 -70.5z" />
    <glyph glyph-name="uni041A" unicode="&#x41a;" horiz-adv-x="1320" 
d="M190 0v1434h201v-590h211l414 590h248l-492 -678l539 -756h-250l-461 664h-209v-664h-201z" />
    <glyph glyph-name="uni041B" unicode="&#x41b;" horiz-adv-x="1474" 
d="M158 -20q-28 0 -54 4t-38 8l-11 4v178q31 -10 66 -10q72 0 111 75.5t60 299.5t21 649v246h971v-1434h-201v1253h-573v-65q0 -250 -7 -431t-25 -318.5t-43.5 -223.5t-66.5 -139.5t-90.5 -74.5t-119.5 -21z" />
    <glyph glyph-name="uni041C" unicode="&#x41c;" horiz-adv-x="1761" 
d="M190 0v1434h326l369 -789l370 789h316v-1434h-201v1237h-6l-401 -827h-164l-402 827h-6v-1237h-201z" />
    <glyph glyph-name="uni041D" unicode="&#x41d;" horiz-adv-x="1474" 
d="M190 0v1434h201v-600h692v600h201v-1434h-201v653h-692v-653h-201z" />
    <glyph glyph-name="uni041E" unicode="&#x41e;" horiz-adv-x="1536" 
d="M768 -20q-206 0 -358.5 95.5t-231 261.5t-78.5 380q0 215 79.5 381.5t232 261t356.5 94.5q205 0 358 -96t231.5 -262t78.5 -379q0 -216 -79.5 -382.5t-232 -260.5t-356.5 -94zM768 160q143 0 248 77t156 201.5t51 278.5q0 157 -52.5 282t-157 200t-245.5 75
q-142 0 -247 -76.5t-156.5 -201t-51.5 -279.5q0 -157 51.5 -281.5t156.5 -200t247 -75.5z" />
    <glyph glyph-name="uni041F" unicode="&#x41f;" horiz-adv-x="1454" 
d="M190 0v1434h1074v-1434h-201v1253h-672v-1253h-201z" />
    <glyph glyph-name="uni0420" unicode="&#x420;" horiz-adv-x="1228" 
d="M190 0v1434h459q261 0 390.5 -116.5t129.5 -336.5t-129.5 -336.5t-390.5 -116.5h-258v-528h-201zM391 709h258q307 0 307 272t-307 272h-258v-544z" />
    <glyph glyph-name="uni0421" unicode="&#x421;" horiz-adv-x="1290" 
d="M850 -20q-348 0 -549 199t-201 538q0 163 53.5 300t150 233t237 150t309.5 54q86 0 171 -14t127 -28l42 -15v-197q-17 8 -46.5 20.5t-118.5 33t-175 20.5q-247 0 -392 -150t-145 -407t145 -407t392 -150q86 0 171 16t127 32l42 15v-196q-17 -5 -46.5 -13t-118.5 -21
t-175 -13z" />
    <glyph glyph-name="uni0422" unicode="&#x422;" horiz-adv-x="1146" 
d="M473 0v1253h-438v181h1077v-181h-438v-1253h-201z" />
    <glyph glyph-name="uni0423" unicode="&#x423;" horiz-adv-x="1269" 
d="M240 176q70 -26 118 -26q129 0 189 169l-522 1115h215l395 -885h10l391 885h209l-518 -1145q-78 -171 -152 -240t-194 -69q-71 0 -141 24v172z" />
    <glyph glyph-name="uni0424" unicode="&#x424;" horiz-adv-x="1781" 
d="M791 -20v178h-54q-299 0 -478 160.5t-179 418.5t179 419t478 161h54v174h200v-174h53q299 0 478.5 -161t179.5 -419t-179.5 -418.5t-478.5 -160.5h-53v-178h-200zM754 326h37v823h-37q-224 0 -342.5 -106.5t-118.5 -305.5q0 -198 118.5 -304.5t342.5 -106.5zM991 326h37
q224 0 342.5 106.5t118.5 304.5q0 199 -118.5 305.5t-342.5 106.5h-37v-823z" />
    <glyph glyph-name="uni0425" unicode="&#x425;" horiz-adv-x="1413" 
d="M1114 0l-420 606l-407 -606h-246l526 745l-479 689h246l381 -551l377 551h233l-481 -684l528 -750h-258z" />
    <glyph glyph-name="uni0426" unicode="&#x426;" horiz-adv-x="1505" 
d="M1233 -319v319h-1043v1434h201v-1254h680v1254h201v-1254h162v-499h-201z" />
    <glyph glyph-name="uni0427" unicode="&#x427;" horiz-adv-x="1331" 
d="M940 0v600q-191 -49 -369 -49q-227 0 -344.5 107t-117.5 313v463h200v-430q0 -152 71 -212.5t234 -60.5q169 0 326 47v656h201v-1434h-201z" />
    <glyph glyph-name="uni0428" unicode="&#x428;" horiz-adv-x="1974" 
d="M190 0v1434h201v-1254h496v1254h200v-1254h496v1254h201v-1434h-1594z" />
    <glyph glyph-name="uni0429" unicode="&#x429;" horiz-adv-x="2027" 
d="M190 0v1434h201v-1254h496v1254h200v-1254h496v1254h201v-1254h172v-499h-201v319h-1565z" />
    <glyph glyph-name="uni042A" unicode="&#x42a;" horiz-adv-x="1351" 
d="M334 0v1253h-293v181h498l-4 -4v-521h233q257 0 384.5 -117t127.5 -337q0 -221 -127.5 -338t-384.5 -117h-434zM535 180h233q295 0 295 275q0 274 -295 274h-233v-549z" />
    <glyph glyph-name="uni042B" unicode="&#x42b;" horiz-adv-x="1792" 
d="M190 0v1434h201v-533h219q257 0 384.5 -115.5t127.5 -334.5t-127.5 -335t-384.5 -116h-420zM391 180h219q295 0 295 271q0 135 -72 202.5t-223 67.5h-219v-541zM1401 0v1434h201v-1434h-201z" />
    <glyph glyph-name="uni042C" unicode="&#x42c;" horiz-adv-x="1208" 
d="M190 0v1434h201v-525h234q257 0 384.5 -117t127.5 -337q0 -221 -127.5 -338t-384.5 -117h-435zM391 180h234q295 0 295 275q0 274 -295 274h-234v-549z" />
    <glyph glyph-name="uni042D" unicode="&#x42d;" horiz-adv-x="1310" 
d="M432 160q243 0 390.5 128.5t170.5 358.5h-602v180h598q-29 209 -175 328t-361 119q-98 0 -186.5 -20.5t-127.5 -41.5l-39 -20v201q15 7 43 17t120 27t190 17q347 0 552 -199.5t205 -537.5q0 -339 -208.5 -538t-569.5 -199q-89 0 -172 12.5t-122 25.5l-38 13v200
q5 -3 15 -7.5t43.5 -17t70 -22t92 -17t111.5 -7.5z" />
    <glyph glyph-name="uni042E" unicode="&#x42e;" horiz-adv-x="2037" 
d="M1266 -20q-191 0 -339 86.5t-231 239t-92 347.5h-213v-653h-201v1434h201v-600h221q34 286 209.5 453t444.5 167q205 0 358.5 -95.5t233 -262t79.5 -379.5q0 -161 -46.5 -297t-132 -233.5t-212 -152t-280.5 -54.5zM1266 160q144 0 248.5 77t155 201t50.5 279
q0 157 -52 282t-156.5 200t-245.5 75q-143 0 -248 -76.5t-156 -201t-51 -279.5q0 -117 30 -217.5t86.5 -176.5t143.5 -119.5t195 -43.5z" />
    <glyph glyph-name="uni042F" unicode="&#x42f;" horiz-adv-x="1290" 
d="M33 0l334 569q-123 53 -189.5 157.5t-66.5 246.5q0 221 136.5 341t395.5 120h457v-1434h-201v522h-276h-54l-288 -522h-248zM643 692h256v561h-256q-153 0 -234 -71.5t-81 -208.5t81 -209t234 -72z" />
    <glyph glyph-name="uni0430" unicode="&#x430;" horiz-adv-x="1142" 
d="M438 -16q-164 0 -260 84t-96 229q0 173 134.5 263.5t404.5 90.5h192v35q0 109 -75.5 162t-209.5 53q-185 0 -350 -90v180q162 70 375 70q453 0 453 -412v-649h-197v160h-4q-62 -91 -160.5 -133.5t-206.5 -42.5zM485 147q141 0 234.5 84.5t93.5 206.5v66h-184
q-342 0 -342 -195q0 -77 52.5 -119.5t145.5 -42.5z" />
    <glyph glyph-name="uni0431" unicode="&#x431;" horiz-adv-x="1269" 
d="M645 -16q-545 0 -545 788q0 632 478 754q96 24 247.5 29.5t251.5 31.5v-170q-81 -22 -220 -29t-191 -16q-369 -63 -385 -475l-2 -51h10q60 99 162.5 157t230.5 58q221 0 354 -149.5t133 -389.5q0 -236 -146 -387t-378 -151zM645 139q143 0 231.5 111t88.5 272
q0 104 -37.5 190t-111.5 139.5t-171 53.5q-146 0 -233.5 -111.5t-87.5 -271.5q0 -163 90 -273t231 -110z" />
    <glyph glyph-name="uni0432" unicode="&#x432;" horiz-adv-x="1120" 
d="M1001 770q0 -80 -39 -133t-118 -86v-4q198 -65 198 -242q0 -135 -105 -220t-304 -85h-463v1044h422q212 0 310.5 -74.5t98.5 -199.5zM362 156h271q101 0 151 40t50 113t-50 114.5t-151 41.5h-271v-309zM362 621h230q99 0 150 38t51 97t-50.5 96t-150.5 37h-230v-268z" />
    <glyph glyph-name="uni0433" unicode="&#x433;" horiz-adv-x="890" 
d="M170 0v1044h664v-155h-472v-889h-192z" />
    <glyph glyph-name="uni0434" unicode="&#x434;" horiz-adv-x="1218" 
d="M29 156h129q72 119 96.5 266t30.5 446l4 176h741v-888h152v-451h-185v295h-784v-295h-184v451zM455 807q-7 -256 -30.5 -395.5t-96.5 -255.5h510v733h-381z" />
    <glyph glyph-name="uni0435" unicode="&#x435;" horiz-adv-x="1177" 
d="M1071 479h-772q17 -161 112 -248.5t253 -87.5q90 0 182 23.5t153 58.5v-188q-175 -53 -348 -53q-263 0 -407 147.5t-144 409.5q0 234 141 377t353 143q227 0 352 -134t125 -395v-53zM592 905q-119 0 -196.5 -76t-96.5 -206h567q0 132 -76 207t-198 75z" />
    <glyph glyph-name="uni0436" unicode="&#x436;" horiz-adv-x="1679" 
d="M1415 0l-319 467h-160v-467h-193v467h-161l-320 -467h-239l387 549l-338 495h227l283 -421h161v421h193v-421h162l282 421h228l-338 -495l387 -549h-242z" />
    <glyph glyph-name="uni0437" unicode="&#x437;" horiz-adv-x="983" 
d="M426 -16q-96 0 -179.5 12.5t-120 24t-36.5 14.5v166q14 -7 39.5 -17.5t108 -27.5t168.5 -17q145 0 219.5 44.5t74.5 125.5q0 74 -62 116t-183 42h-168v151h137q119 0 177 39t58 105q0 68 -60 105.5t-177 37.5q-71 0 -144.5 -13.5t-111.5 -26.5l-37 -13v168q127 41 305 41
q215 0 322.5 -75t107.5 -202q0 -172 -184 -233v-2q108 -24 166.5 -94t58.5 -166q0 -135 -118.5 -220t-360.5 -85z" />
    <glyph glyph-name="uni0438" unicode="&#x438;" horiz-adv-x="1259" 
d="M170 0v1044h192v-819h5l479 819h244v-1044h-193v819h-4l-479 -819h-244z" />
    <glyph glyph-name="uni0439" unicode="&#x439;" horiz-adv-x="1259" 
d="M170 0v1044h192v-819h5l479 819h244v-1044h-193v819h-4l-479 -819h-244zM637 1262q-137 0 -227.5 71t-96.5 207h146q10 -66 58 -102.5t120 -36.5q71 0 116.5 36t55.5 103h139q-6 -137 -91 -207.5t-220 -70.5z" />
    <glyph glyph-name="uni043A" unicode="&#x43a;" horiz-adv-x="1157" 
d="M170 0v1044h192v-421h195l303 421h225l-356 -495l406 -549h-240l-340 467h-193v-467h-192z" />
    <glyph glyph-name="uni043B" unicode="&#x43b;" horiz-adv-x="1208" 
d="M125 -16q-22 0 -46 3t-37 6.5t-13 4.5v174q30 -10 59 -10q101 0 140.5 180t39.5 621v81h770v-1044h-192v889h-404v-29q0 -316 -34.5 -509.5t-103.5 -280t-179 -86.5z" />
    <glyph glyph-name="uni043C" unicode="&#x43c;" horiz-adv-x="1495" 
d="M170 0v1044h297l285 -595l284 595h289v-1044h-192v860h-5l-284 -594h-193l-284 594h-5v-860h-192z" />
    <glyph glyph-name="uni043D" unicode="&#x43d;" horiz-adv-x="1249" 
d="M170 0v1044h192v-423h525v423h192v-1044h-192v465h-525v-465h-192z" />
    <glyph glyph-name="uni043E" unicode="&#x43e;" horiz-adv-x="1269" 
d="M635 -16q-237 0 -386 149.5t-149 388.5t149 389t386 150q236 0 385 -150t149 -389t-148.5 -388.5t-385.5 -149.5zM635 139q139 0 234.5 106t95.5 277q0 170 -96 276.5t-234 106.5q-139 0 -234.5 -106t-95.5 -277t95.5 -277t234.5 -106z" />
    <glyph glyph-name="uni043F" unicode="&#x43f;" horiz-adv-x="1228" 
d="M170 0v1044h889v-1044h-193v889h-504v-889h-192z" />
    <glyph glyph-name="uni0440" unicode="&#x440;" horiz-adv-x="1290" 
d="M362 137v-596h-192v1503h184v-149h4q125 166 349 166q150 0 260.5 -70t166.5 -189t56 -272q0 -150 -55.5 -273t-164.5 -198t-253 -75q-117 0 -206.5 44.5t-139.5 108.5h-9zM672 139q143 0 228 108.5t85 289.5q0 167 -83.5 267.5t-223.5 100.5q-144 0 -230 -105t-86 -280
q0 -173 84.5 -277t225.5 -104z" />
    <glyph glyph-name="uni0441" unicode="&#x441;" horiz-adv-x="993" 
d="M623 -16q-241 0 -382 147t-141 391q0 242 143.5 390.5t381.5 148.5q74 0 139 -10.5t93 -20.5l28 -10v-166q-11 6 -31.5 14.5t-83 22.5t-125.5 14q-163 0 -251.5 -100t-88.5 -283t88.5 -283t249.5 -100q64 0 124.5 13.5t88.5 27.5l29 13v-168q-11 -5 -32 -11.5t-89.5 -18
t-140.5 -11.5z" />
    <glyph glyph-name="uni0442" unicode="&#x442;" horiz-adv-x="983" 
d="M395 0v889h-364v155h921v-155h-364v-889h-193z" />
    <glyph glyph-name="uni0443" unicode="&#x443;" horiz-adv-x="1126" 
d="M248 -459q-24 0 -46 2.5t-32 4.5l-10 3v158q37 -6 76 -6q83 0 125 44.5t81 150.5l19 51l-428 1095h211l317 -856h14l324 856h195l-435 -1085q-35 -86 -58 -138t-53 -105t-57 -81.5t-63.5 -52t-79.5 -32.5t-100 -9z" />
    <glyph glyph-name="uni0444" unicode="&#x444;" horiz-adv-x="1617" 
d="M629 -16q-238 0 -383.5 141t-145.5 399q0 249 143 393t373 144q18 0 54 -3t43 -3v501h192v-503q44 8 101 8q237 0 374.5 -136t137.5 -395q0 -249 -148 -397.5t-381 -148.5h-84v-445h-192v445h-84zM989 911q-34 0 -84 -8v-770h56q167 0 259.5 98t92.5 306q0 192 -85.5 283
t-238.5 91zM305 518q0 -194 93 -289.5t259 -95.5h56v772q-41 6 -80 6q-70 0 -127.5 -21.5t-103.5 -66.5t-71.5 -123t-25.5 -182z" />
    <glyph glyph-name="uni0445" unicode="&#x445;" horiz-adv-x="1105" 
d="M41 0l395 547l-368 497h239l258 -387l262 387h215l-364 -497l387 -547h-238l-278 418l-279 -418h-229z" />
    <glyph glyph-name="uni0446" unicode="&#x446;" horiz-adv-x="1228" 
d="M1008 -295v295h-838v1044h192v-888h486v888h192v-888h152v-451h-184z" />
    <glyph glyph-name="uni0447" unicode="&#x447;" horiz-adv-x="1157" 
d="M795 0v403q-147 -28 -281 -28q-187 0 -292 76t-105 229v364h192v-307q0 -120 52 -163.5t198 -43.5q119 0 236 19v495h192v-1044h-192z" />
    <glyph glyph-name="uni0448" unicode="&#x448;" horiz-adv-x="1761" 
d="M170 0v1044h192v-888h422v888h193v-888h422v888h192v-1044h-1421z" />
    <glyph glyph-name="uni0449" unicode="&#x449;" horiz-adv-x="1781" 
d="M170 0v1044h192v-888h422v888h193v-888h422v888h192v-888h154v-451h-184v295h-1391z" />
    <glyph glyph-name="uni044A" unicode="&#x44a;" horiz-adv-x="1167" 
d="M252 0v889h-236v155h428v-360h248q216 0 323 -90.5t107 -251.5t-107 -251.5t-323 -90.5h-440zM692 528h-248v-372h248q119 0 176.5 49t57.5 137t-58 137t-176 49z" />
    <glyph glyph-name="uni044B" unicode="&#x44b;" horiz-adv-x="1587" 
d="M170 0v1044h192v-360h211q216 0 323.5 -91t107.5 -253q0 -160 -107 -250t-324 -90h-403zM362 156h211q118 0 176 48t58 136q0 89 -58 138.5t-176 49.5h-211v-372zM1225 0v1044h192v-1044h-192z" />
    <glyph glyph-name="uni044C" unicode="&#x44c;" horiz-adv-x="1085" 
d="M170 0v1044h192v-360h248q216 0 323 -90.5t107 -251.5t-107 -251.5t-323 -90.5h-440zM610 528h-248v-372h248q119 0 176.5 49t57.5 137t-58 137t-176 49z" />
    <glyph glyph-name="uni044D" unicode="&#x44d;" horiz-adv-x="1024" 
d="M367 145q162 0 247.5 78t100.5 232h-432v155h430q-37 291 -346 291q-68 0 -130.5 -14.5t-90.5 -29.5l-29 -15v172q11 5 32.5 13t87.5 21t134 13q259 0 406 -144t147 -395t-148 -394.5t-411 -143.5q-70 0 -134 12t-93 24l-29 11v178q11 -7 31.5 -17.5t88 -28.5t138.5 -18z
" />
    <glyph glyph-name="uni044E" unicode="&#x44e;" horiz-adv-x="1716" 
d="M170 0v1044h192v-423h226q28 201 163 320.5t345 119.5q154 0 273.5 -70.5t183 -193t63.5 -275.5q0 -235 -144.5 -386.5t-375.5 -151.5q-220 0 -357.5 130t-154.5 351h-222v-465h-192zM1096 139q144 0 229.5 111t85.5 272q0 165 -88 274t-227 109q-143 0 -229.5 -109.5
t-86.5 -273.5t85.5 -273.5t230.5 -109.5z" />
    <glyph glyph-name="uni044F" unicode="&#x44f;" horiz-adv-x="1146" 
d="M61 0l242 410q-84 39 -135 116t-51 183q0 157 99 246t294 89h467v-1044h-193v373h-290l-205 -373h-228zM510 528h274v361h-274q-97 0 -147 -48.5t-50 -133.5q0 -84 50.5 -131.5t146.5 -47.5z" />
    <glyph glyph-name="uni0451" unicode="&#x451;" horiz-adv-x="1177" 
d="M1071 479h-772q17 -161 112 -248.5t253 -87.5q90 0 182 23.5t153 58.5v-188q-175 -53 -348 -53q-263 0 -407 147.5t-144 409.5q0 234 141 377t353 143q227 0 352 -134t125 -395v-53zM592 905q-119 0 -196.5 -76t-96.5 -206h567q0 132 -76 207t-198 75zM303 1270v205h193
v-205h-193zM688 1270v205h193v-205h-193z" />
    <glyph glyph-name="uni0452" unicode="&#x452;" horiz-adv-x="1249" 
d="M-18 1237v156h188v163h192v-163h447v-156h-447v-193l-2 -149h7q117 166 348 166q189 0 293 -112t104 -335v-665q0 -225 -72.5 -320.5t-253.5 -95.5q-15 0 -35 2.5t-33 4.5l-13 3v164q30 -8 69 -8q74 0 110 47.5t36 163.5v643q0 193 -63 272.5t-183 79.5q-144 0 -228 -104
t-84 -309v-492h-192v1237h-188z" />
    <glyph glyph-name="uni0453" unicode="&#x453;" horiz-adv-x="890" 
d="M170 0v1044h664v-155h-472v-889h-192zM401 1249l160 267h246l-242 -267h-164z" />
    <glyph glyph-name="uni0454" unicode="&#x454;" horiz-adv-x="1024" 
d="M657 145q71 0 135.5 16t93.5 32l29 16v-178q-11 -5 -31.5 -13t-87.5 -21t-137 -13q-263 0 -411 143.5t-148 394.5t147 395t406 144q68 0 131.5 -11.5t93.5 -23.5l29 -12v-172q-11 7 -31.5 16.5t-85.5 26t-133 16.5q-309 0 -346 -291h430v-155h-432q15 -154 100.5 -232
t247.5 -78z" />
    <glyph glyph-name="uni0455" unicode="&#x455;" horiz-adv-x="962" 
d="M434 -16q-171 0 -311 57v170q154 -70 293 -70q111 0 168 40t57 98q0 29 -13.5 52t-44 43.5t-57.5 34t-75 34.5q-15 7 -23 10q-40 18 -59.5 27t-55 26.5t-54 30.5t-45.5 33.5t-41 40t-29 45t-21 55t-6 63.5q0 132 106 209.5t299 77.5q88 0 166 -14t115 -27v-164
q-106 45 -258 45q-111 0 -165 -31t-54 -86q0 -29 14 -52.5t43 -43.5t58 -34.5t75 -34.5q8 -3 12 -5q131 -58 163 -76q130 -73 157 -182q8 -32 8 -69q0 -137 -112 -220t-310 -83z" />
    <glyph glyph-name="uni0456" unicode="&#x456;" horiz-adv-x="593" 
d="M201 0v1044h192v-1044h-192zM188 1257v218h218v-218h-218z" />
    <glyph glyph-name="uni0457" unicode="&#x457;" horiz-adv-x="593" 
d="M201 0v1044h192v-1044h-192zM84 1270v205h172v-205h-172zM338 1270v205h172v-205h-172z" />
    <glyph glyph-name="uni0458" unicode="&#x458;" horiz-adv-x="593" 
d="M63 -467q-28 0 -52 2.5t-34 4.5l-10 3v164q31 -8 70 -8q80 0 122 48.5t42 162.5v1134h192v-1134q0 -110 -20 -183.5t-63.5 -116t-102 -60t-144.5 -17.5zM188 1257v218h218v-218h-218z" />
    <glyph glyph-name="uni0459" unicode="&#x459;" horiz-adv-x="1689" 
d="M29 -2v174q30 -10 59 -10q101 0 140.5 180t39.5 621v81h731v-401h215q216 0 323.5 -85t107.5 -236t-107.5 -236.5t-323.5 -85.5h-407v889h-365v-29q0 -318 -34 -510t-103.5 -279t-183.5 -87q-19 0 -41.5 3t-36.5 6.5t-14 4.5zM999 156h215q119 0 176.5 44t57.5 122
t-58 121.5t-176 43.5h-215v-331z" />
    <glyph glyph-name="uni045A" unicode="&#x45a;" horiz-adv-x="1689" 
d="M170 0v1044h192v-401h445v401h192v-401h215q216 0 323.5 -85t107.5 -236t-107.5 -236.5t-323.5 -85.5h-407v487h-445v-487h-192zM999 156h215q119 0 176.5 44t57.5 122t-58 121.5t-176 43.5h-215v-331z" />
    <glyph glyph-name="uni045B" unicode="&#x45b;" horiz-adv-x="1249" 
d="M-18 1237v156h188v163h192v-163h447v-156h-447v-193l-2 -149h7q117 166 348 166q189 0 293 -112t104 -335v-614h-192v553q0 193 -63 272.5t-183 79.5q-144 0 -228 -104t-84 -309v-492h-192v1237h-188z" />
    <glyph glyph-name="uni045C" unicode="&#x45c;" horiz-adv-x="1157" 
d="M170 0v1044h192v-421h195l303 421h225l-356 -495l406 -549h-240l-340 467h-193v-467h-192zM494 1249l159 267h246l-242 -267h-163z" />
    <glyph glyph-name="uni045E" unicode="&#x45e;" horiz-adv-x="1126" 
d="M248 -459q-24 0 -46 2.5t-32 4.5l-10 3v158q37 -6 76 -6q83 0 125 44.5t81 150.5l19 51l-428 1095h211l317 -856h14l324 856h195l-435 -1085q-35 -86 -58 -138t-53 -105t-57 -81.5t-63.5 -52t-79.5 -32.5t-100 -9zM559 1262q-137 0 -227 71t-96 207h145q10 -66 58 -102.5
t120 -36.5q71 0 116.5 36t55.5 103h139q-6 -137 -91 -207.5t-220 -70.5z" />
    <glyph glyph-name="uni045F" unicode="&#x45f;" horiz-adv-x="1218" 
d="M518 -295v295h-348v1044h192v-888h494v888h193v-1044h-347v-295h-184z" />
    <glyph glyph-name="uni0462" unicode="&#x462;" horiz-adv-x="1290" 
d="M-10 1063v164h282v207h201v-207h410v-164h-410v-154h234q257 0 384.5 -117t127.5 -337q0 -221 -127.5 -338t-384.5 -117h-435v1063h-282zM473 180h234q294 0 294 275q0 137 -72 205.5t-222 68.5h-234v-549z" />
    <glyph glyph-name="uni0463" unicode="&#x463;" horiz-adv-x="1167" 
d="M16 889v155h236v512h192v-512h365v-155h-365v-205h248q216 0 323 -90.5t107 -251.5t-107 -251.5t-323 -90.5h-440v889h-236zM444 156h248q119 0 176.5 49t57.5 137t-58 137t-176 49h-248v-372z" />
    <glyph glyph-name="uni0472" unicode="&#x472;" horiz-adv-x="1536" 
d="M768 -20q-206 0 -358.5 95.5t-231 261.5t-78.5 380q0 215 79.5 381.5t232 261t356.5 94.5q205 0 358 -96t231.5 -262t78.5 -379q0 -216 -79.5 -382.5t-232 -260.5t-356.5 -94zM768 160q130 0 229 64t153.5 169.5t68.5 241.5h-902q21 -211 139.5 -343t311.5 -132z
M768 1274q-189 0 -307 -128.5t-142 -330.5h898q-26 204 -144 331.5t-305 127.5z" />
    <glyph glyph-name="uni0473" unicode="&#x473;" horiz-adv-x="1269" 
d="M635 -16q-237 0 -386 149.5t-149 388.5t149 389t386 150q236 0 385 -150t149 -389t-148.5 -388.5t-385.5 -149.5zM635 139q124 0 215 86.5t111 231.5h-652q18 -145 109.5 -231.5t216.5 -86.5zM635 905q-120 0 -210 -80t-114 -215h645q-24 134 -114 214.5t-207 80.5z" />
    <glyph glyph-name="uni0474" unicode="&#x474;" horiz-adv-x="1372" 
d="M547 0l-522 1434h223l428 -1254h4l330 1045q34 109 106 169t172 60q31 0 76 -10v-180q-68 9 -109 -18t-69 -111l-383 -1135h-256z" />
    <glyph glyph-name="uni0475" unicode="&#x475;" horiz-adv-x="1136" 
d="M438 0l-415 1044h210l320 -851h12l246 663q76 209 250 209q43 0 96 -12v-148q-14 2 -37 2q-61 0 -91.5 -28.5t-57.5 -96.5l-303 -782h-230z" />
    <glyph glyph-name="uni0490" unicode="&#x490;" horiz-adv-x="1064" 
d="M190 0v1434h603v319h200v-500h-602v-1253h-201z" />
    <glyph glyph-name="uni0491" unicode="&#x491;" horiz-adv-x="901" 
d="M170 0v1044h489v295h185v-450h-482v-889h-192z" />
    <glyph glyph-name="uni0492" unicode="&#x492;" horiz-adv-x="1105" 
d="M231 0v621h-208v163h208v650h803v-181h-602v-469h469v-163h-469v-621h-201z" />
    <glyph glyph-name="uni0493" unicode="&#x493;" horiz-adv-x="911" 
d="M190 0v420h-149v155h149v469h664v-155h-471v-314h336v-155h-336v-420h-193z" />
    <glyph glyph-name="uni0494" unicode="&#x494;" horiz-adv-x="1300" 
d="M823 -410q-86 0 -166 25v176q70 -20 136 -20q117 0 168 69t51 205v363q0 160 -63.5 233.5t-219.5 73.5q-175 0 -338 -70v-645h-201v1434h848v-181h-647v-432q203 74 387 74q434 0 434 -418v-452q0 -435 -389 -435z" />
    <glyph glyph-name="uni0495" unicode="&#x495;" horiz-adv-x="1064" 
d="M170 0v1044h664v-155h-472v-324q128 39 242 39q106 0 187 -31.5t131.5 -104t50.5 -179.5v-303q0 -242 -75.5 -347.5t-264.5 -105.5q-32 0 -82 10v164q24 -8 70 -8q82 0 120.5 55.5t38.5 186.5v290q0 213 -211 213q-81 0 -207 -34v-410h-192z" />
    <glyph glyph-name="uni0496" unicode="&#x496;" horiz-adv-x="1925" 
d="M1665 0l-442 664h-160v-664h-201v664h-162l-440 -664h-250l518 756l-471 678h248l395 -590h162v590h201v-590h160l397 590h248l-473 -678l395 -576h125v-499h-201v319h-49z" />
    <glyph glyph-name="uni0497" unicode="&#x497;" horiz-adv-x="1699" 
d="M1415 0l-319 467h-160v-467h-193v467h-161l-320 -467h-239l387 549l-338 495h227l283 -421h161v421h193v-421h162l282 421h228l-338 -495l276 -393h117v-451h-184v295h-64z" />
    <glyph glyph-name="uni0498" unicode="&#x498;" horiz-adv-x="1105" 
d="M639 -319h-201v301q-97 6 -187.5 26t-132.5 36l-42 17v193q7 -4 21 -10t59 -22.5t93 -29t120 -22.5t143 -10q299 0 299 246q0 118 -74 182.5t-225 64.5h-170v168h129q153 0 226 60.5t73 167.5q0 225 -299 225q-84 0 -172.5 -21t-134.5 -42l-47 -21v192q18 8 49.5 20
t124.5 32t180 20q251 0 381.5 -101.5t130.5 -275.5q0 -234 -254 -334v-2q295 -75 295 -340q0 -156 -102.5 -267.5t-282.5 -141.5v-311z" />
    <glyph glyph-name="uni0499" unicode="&#x499;" horiz-adv-x="983" 
d="M565 -295h-184v279q-83 3 -155.5 15.5t-104 23t-31.5 12.5v166q14 -7 39.5 -17.5t108 -27.5t168.5 -17q145 0 219.5 44.5t74.5 125.5q0 74 -62 116t-183 42h-168v151h137q119 0 177 39t58 105q0 68 -60 105.5t-177 37.5q-71 0 -144.5 -13.5t-111.5 -26.5l-37 -13v168
q127 41 305 41q215 0 322.5 -75t107.5 -202q0 -172 -184 -233v-2q108 -24 166.5 -94t58.5 -166q0 -113 -84.5 -193t-255.5 -102v-289z" />
    <glyph glyph-name="uni049A" unicode="&#x49a;" horiz-adv-x="1320" 
d="M190 0v1434h201v-590h211l414 590h248l-492 -678l410 -576h129v-499h-201v319h-49l-461 664h-209v-664h-201z" />
    <glyph glyph-name="uni049B" unicode="&#x49b;" horiz-adv-x="1177" 
d="M170 0v1044h192v-421h195l303 421h225l-356 -495l291 -393h121v-451h-185v295h-63v2l-338 465h-193v-467h-192z" />
    <glyph glyph-name="uni049C" unicode="&#x49c;" horiz-adv-x="1454" 
d="M1194 0l-461 664h-80v-279h-143v279h-119v-664h-201v1434h201v-590h119v252h143v-252h82l414 590h248l-482 -666v-25l529 -743h-250z" />
    <glyph glyph-name="uni049D" unicode="&#x49d;" horiz-adv-x="1280" 
d="M1014 0l-338 467h-68v-236h-143v236h-103v-467h-192v1044h192v-421h103v231h143v-231h72l313 421h215l-374 -495l423 -549h-243z" />
    <glyph glyph-name="uni04A0" unicode="&#x4a0;" horiz-adv-x="1464" 
d="M334 0v1253h-293v181h498l-4 -4v-586h210l414 590h248l-492 -678l539 -756h-250l-461 664h-208v-664h-201z" />
    <glyph glyph-name="uni04A1" unicode="&#x4a1;" horiz-adv-x="1239" 
d="M252 0v889h-236v155h439l-11 -8v-413h195l303 421h225l-356 -495l406 -549h-240l-340 467h-193v-467h-192z" />
    <glyph glyph-name="uni04A2" unicode="&#x4a2;" horiz-adv-x="1525" 
d="M1253 -319v319h-170v653h-692v-653h-201v1434h201v-600h692v600h201v-1254h170v-499h-201z" />
    <glyph glyph-name="uni04A3" unicode="&#x4a3;" horiz-adv-x="1269" 
d="M1049 -295v295h-162v465h-525v-465h-192v1044h192v-423h525v423h192v-888h154v-451h-184z" />
    <glyph glyph-name="uni04A4" unicode="&#x4a4;" horiz-adv-x="1884" 
d="M190 0v1434h201v-600h631v600h764v-181h-563v-1253h-201v653h-631v-653h-201z" />
    <glyph glyph-name="uni04A5" unicode="&#x4a5;" horiz-adv-x="1536" 
d="M170 0v1044h192v-423h474v423h643v-155h-451v-889h-192v465h-474v-465h-192z" />
    <glyph glyph-name="uni04AA" unicode="&#x4aa;" horiz-adv-x="1290" 
d="M850 -20h-14v-299h-201v321q-254 59 -394.5 246.5t-140.5 468.5q0 163 53.5 300t150 233t237 150t309.5 54q86 0 171 -14t127 -28l42 -15v-197q-17 8 -46.5 20.5t-118.5 33t-175 20.5q-247 0 -392 -150t-145 -407t145 -407t392 -150q86 0 171 16t127 32l42 15v-196
q-17 -5 -46.5 -13t-118.5 -21t-175 -13z" />
    <glyph glyph-name="uni04AB" unicode="&#x4ab;" horiz-adv-x="993" 
d="M653 -295h-184v297q-173 43 -271 181t-98 339q0 242 143.5 390.5t381.5 148.5q74 0 139 -10.5t93 -20.5l28 -10v-166q-11 6 -31.5 14.5t-83 22.5t-125.5 14q-163 0 -251.5 -100t-88.5 -283t88.5 -283t249.5 -100q64 0 124.5 13.5t88.5 27.5l29 13v-168q-89 -35 -232 -41
v-279z" />
    <glyph glyph-name="uni04AE" unicode="&#x4ae;" horiz-adv-x="1331" 
d="M25 1434h239l402 -676h4l397 676h240l-539 -883v-551h-201v551z" />
    <glyph glyph-name="uni04AF" unicode="&#x4af;" horiz-adv-x="1105" 
d="M23 1044h210l320 -851h12l326 851h192l-434 -1089v-414h-192v414z" />
    <glyph glyph-name="uni04B0" unicode="&#x4b0;" horiz-adv-x="1331" 
d="M25 1434h239l402 -676h4l397 676h240l-521 -852h340v-164h-358v-418h-201v418h-342v164h324z" />
    <glyph glyph-name="uni04B1" unicode="&#x4b1;" horiz-adv-x="1105" 
d="M23 1044h210l320 -851h12l326 851h192l-415 -1042h307v-154h-326v-307h-192v307h-326v154h307z" />
    <glyph glyph-name="uni04B2" unicode="&#x4b2;" horiz-adv-x="1413" 
d="M1114 0l-420 606l-407 -606h-246l526 745l-479 689h246l381 -551l377 551h233l-481 -684l401 -570h127v-499h-201v319h-57z" />
    <glyph glyph-name="uni04B3" unicode="&#x4b3;" horiz-adv-x="1126" 
d="M41 0l395 547l-368 497h239l258 -387l262 387h215l-364 -497l276 -391h136v-451h-185v295h-78l-278 418l-279 -418h-229z" />
    <glyph glyph-name="uni04B6" unicode="&#x4b6;" horiz-adv-x="1382" 
d="M940 0v600q-191 -49 -369 -49q-227 0 -344.5 107t-117.5 313v463h200v-430q0 -152 71 -212.5t234 -60.5q169 0 326 47v656h201v-1254h170v-499h-201v319h-170z" />
    <glyph glyph-name="uni04B7" unicode="&#x4b7;" horiz-adv-x="1177" 
d="M795 0v403q-147 -28 -281 -28q-187 0 -292 76t-105 229v364h192v-307q0 -120 52 -163.5t198 -43.5q119 0 236 19v495h192v-888h154v-451h-185v295h-161z" />
    <glyph glyph-name="uni04B8" unicode="&#x4b8;" horiz-adv-x="1351" 
d="M565 993h144v-284q119 9 252 47v678h200v-1434h-200v580q-145 -33 -252 -41v-256h-144v256q-212 11 -334 118t-122 316v461h200v-457q0 -238 256 -268v284z" />
    <glyph glyph-name="uni04B9" unicode="&#x4b9;" horiz-adv-x="1177" 
d="M492 784h143v-247q95 3 180 18v489h193v-1044h-193v410q-99 -18 -180 -25v-223h-143v219q-179 8 -277 81.5t-98 217.5v364h192v-307q0 -102 39.5 -145.5t143.5 -52.5v245z" />
    <glyph glyph-name="uni04BA" unicode="&#x4ba;" horiz-adv-x="1351" 
d="M391 1434v-598q216 82 408 82q444 0 444 -418v-500h-201v430q0 160 -65.5 233.5t-226.5 73.5q-182 0 -359 -78v-659h-201v1434h201z" />
    <glyph glyph-name="uni04BB" unicode="&#x4bb;" horiz-adv-x="1249" 
d="M170 0v1556h192v-512l-2 -149h7q117 166 348 166q189 0 293 -112t104 -335v-614h-192v553q0 193 -63 272.5t-183 79.5q-144 0 -228 -104t-84 -309v-492h-192z" />
    <glyph glyph-name="uni04C0" unicode="&#x4c0;" horiz-adv-x="634" 
d="M217 0v1434h201v-1434h-201z" />
    <glyph glyph-name="uni04C3" unicode="&#x4c3;" horiz-adv-x="1320" 
d="M190 0v1434h201v-590h172l453 590h250l-521 -666q539 -257 539 -664q0 -243 -122.5 -378.5t-334.5 -135.5q-57 0 -151 17v178q58 -12 119 -12q134 0 212 86t78 239q0 340 -518 566h-176v-664h-201z" />
    <glyph glyph-name="uni04C4" unicode="&#x4c4;" horiz-adv-x="1157" 
d="M170 0v1044h192v-421h199l303 421h223l-358 -495q397 -254 397 -610q0 -180 -101 -293t-259 -113q-21 0 -61 4v170q118 -9 175.5 56.5t57.5 177.5q0 292 -375 526h-201v-467h-192z" />
    <glyph glyph-name="uni04C7" unicode="&#x4c7;" horiz-adv-x="1474" 
d="M885 -410q-86 0 -166 25v176q70 -20 133 -20q123 0 177 64t54 185v633h-692v-653h-201v1434h201v-600h692v600h201v-1434q0 -202 -100 -306t-299 -104z" />
    <glyph glyph-name="uni04C8" unicode="&#x4c8;" horiz-adv-x="1249" 
d="M750 -467q-28 0 -52.5 2.5t-34.5 4.5l-10 3v164q31 -8 70 -8q80 0 122 48.5t42 162.5v555h-525v-465h-192v1044h192v-423h525v423h192v-1134q0 -110 -20 -183.5t-63 -116t-101.5 -60t-144.5 -17.5z" />
    <glyph glyph-name="uni04CF" unicode="&#x4cf;" horiz-adv-x="593" 
d="M201 0v1561h192v-1561h-192z" />
    <glyph glyph-name="uni04D0" unicode="&#x4d0;" horiz-adv-x="1413" 
d="M31 0l567 1434h217l567 -1434h-225l-137 369h-635l-137 -369h-217zM702 1219l-256 -687h515l-254 687h-5zM707 1516q-146 0 -238.5 70.5t-99.5 207.5h153q15 -135 185 -135q169 0 184 135h153q-7 -137 -99 -207.5t-238 -70.5z" />
    <glyph glyph-name="uni04D1" unicode="&#x4d1;" horiz-adv-x="1142" 
d="M438 -16q-164 0 -260 84t-96 229q0 173 134.5 263.5t404.5 90.5h192v35q0 109 -75.5 162t-209.5 53q-185 0 -350 -90v180q162 70 375 70q453 0 453 -412v-649h-197v160h-4q-62 -91 -160.5 -133.5t-206.5 -42.5zM485 147q141 0 234.5 84.5t93.5 206.5v66h-184
q-342 0 -342 -195q0 -77 52.5 -119.5t145.5 -42.5zM582 1262q-137 0 -227.5 71t-96.5 207h145q10 -66 58.5 -102.5t120.5 -36.5q71 0 116.5 36t55.5 103h139q-6 -137 -91 -207.5t-220 -70.5z" />
    <glyph glyph-name="uni04D2" unicode="&#x4d2;" horiz-adv-x="1413" 
d="M31 0l567 1434h217l567 -1434h-225l-137 369h-635l-137 -369h-217zM702 1219l-256 -687h515l-254 687h-5zM379 1536v205h217v-205h-217zM817 1536v205h217v-205h-217z" />
    <glyph glyph-name="uni04D3" unicode="&#x4d3;" horiz-adv-x="1142" 
d="M438 -16q-164 0 -260 84t-96 229q0 173 134.5 263.5t404.5 90.5h192v35q0 109 -75.5 162t-209.5 53q-185 0 -350 -90v180q162 70 375 70q453 0 453 -412v-649h-197v160h-4q-62 -91 -160.5 -133.5t-206.5 -42.5zM485 147q141 0 234.5 84.5t93.5 206.5v66h-184
q-342 0 -342 -195q0 -77 52.5 -119.5t145.5 -42.5zM287 1270v205h192v-205h-192zM672 1270v205h192v-205h-192z" />
    <glyph glyph-name="uni04D4" unicode="&#x4d4;" horiz-adv-x="1832" 
d="M-37 0l883 1434h876v-181h-569l25 -422h505v-180h-495l29 -471h505v-180h-696l-20 360h-598l-218 -360h-227zM950 1253l-440 -725h485l-41 725h-4z" />
    <glyph glyph-name="uni04D5" unicode="&#x4d5;" horiz-adv-x="1812" 
d="M567 1061q262 0 375 -152h4q130 152 330 152q201 0 315.5 -132.5t114.5 -387.5v-54h-721q15 -163 108 -253.5t240 -90.5q80 0 161 23t140 59v-188q-162 -53 -301 -53q-305 0 -448 245h-6q-68 -117 -183.5 -181t-249.5 -64q-166 0 -265 84t-99 229q0 334 553 334h182v55
q0 109 -72 162t-202 53q-188 0 -353 -90v180q162 70 377 70zM500 147q136 0 226.5 84.5t90.5 206.5v49h-174q-190 0 -273 -46t-83 -132q0 -75 57 -118.5t156 -43.5zM1260 905q-112 0 -183 -72.5t-88 -201.5h512q0 128 -67 201t-174 73z" />
    <glyph glyph-name="uni04D6" unicode="&#x4d6;" horiz-adv-x="1105" 
d="M190 0v1434h805v-181h-604v-419h563v-181h-563v-473h604v-180h-805zM594 1516q-146 0 -238.5 70.5t-99.5 207.5h154q15 -135 184 -135t184 135h154q-7 -137 -99.5 -207.5t-238.5 -70.5z" />
    <glyph glyph-name="uni04D7" unicode="&#x4d7;" horiz-adv-x="1177" 
d="M1071 479h-772q17 -161 112 -248.5t253 -87.5q90 0 182 23.5t153 58.5v-188q-175 -53 -348 -53q-263 0 -407 147.5t-144 409.5q0 234 141 377t353 143q227 0 352 -134t125 -395v-53zM592 905q-119 0 -196.5 -76t-96.5 -206h567q0 132 -76 207t-198 75zM598 1262
q-137 0 -227.5 71t-96.5 207h146q10 -66 58 -102.5t120 -36.5q71 0 116.5 36t55.5 103h139q-6 -137 -91 -207.5t-220 -70.5z" />
    <glyph glyph-name="uni04D8" unicode="&#x4d8;" horiz-adv-x="1474" 
d="M100 700v68h1055q-13 226 -131.5 366t-329.5 140q-192 0 -405 -115v203q117 49 214 70.5t208 21.5q209 0 360.5 -96.5t227 -261.5t75.5 -379q0 -161 -44 -297t-125 -233.5t-201.5 -152t-266.5 -54.5q-195 0 -341.5 97.5t-221 259.5t-74.5 363zM737 160q167 0 274 118.5
t136 309.5h-821q29 -192 136 -310t275 -118z" />
    <glyph glyph-name="uni04D9" unicode="&#x4d9;" horiz-adv-x="1177" 
d="M106 512v53h773q-17 162 -110 249t-249 87q-91 0 -186.5 -23.5t-155.5 -58.5v189q175 53 354 53q262 0 403.5 -147t141.5 -410q0 -234 -140.5 -377t-352.5 -143q-227 0 -352.5 133.5t-125.5 394.5zM586 139q118 0 196 76.5t95 206.5h-566q0 -132 76.5 -207.5t198.5 -75.5
z" />
    <glyph glyph-name="uni04DA" unicode="&#x4da;" horiz-adv-x="1474" 
d="M100 700v68h1055q-13 226 -131.5 366t-329.5 140q-192 0 -405 -115v203q117 49 214 70.5t208 21.5q209 0 360.5 -96.5t227 -261.5t75.5 -379q0 -161 -44 -297t-125 -233.5t-201.5 -152t-266.5 -54.5q-195 0 -341.5 97.5t-221 259.5t-74.5 363zM737 160q167 0 274 118.5
t136 309.5h-821q29 -192 136 -310t275 -118zM410 1536v205h217v-205h-217zM848 1536v205h217v-205h-217z" />
    <glyph glyph-name="uni04DB" unicode="&#x4db;" horiz-adv-x="1177" 
d="M106 512v53h773q-17 162 -110 249t-249 87q-91 0 -186.5 -23.5t-155.5 -58.5v189q175 53 354 53q262 0 403.5 -147t141.5 -410q0 -234 -140.5 -377t-352.5 -143q-227 0 -352.5 133.5t-125.5 394.5zM586 139q118 0 196 76.5t95 206.5h-566q0 -132 76.5 -207.5t198.5 -75.5
zM283 1270v205h192v-205h-192zM668 1270v205h192v-205h-192z" />
    <glyph glyph-name="uni04DC" unicode="&#x4dc;" horiz-adv-x="1925" 
d="M1665 0l-442 664h-160v-664h-201v664h-162l-440 -664h-250l518 756l-471 678h248l395 -590h162v590h201v-590h160l397 590h248l-473 -678l520 -756h-250zM635 1536v205h217v-205h-217zM1073 1536v205h217v-205h-217z" />
    <glyph glyph-name="uni04DD" unicode="&#x4dd;" horiz-adv-x="1679" 
d="M1415 0l-319 467h-160v-467h-193v467h-161l-320 -467h-239l387 549l-338 495h227l283 -421h161v421h193v-421h162l282 421h228l-338 -495l387 -549h-242zM551 1270v205h192v-205h-192zM936 1270v205h192v-205h-192z" />
    <glyph glyph-name="uni04DE" unicode="&#x4de;" horiz-adv-x="1105" 
d="M510 -20q-72 0 -143.5 8.5t-121.5 20t-90 23.5t-59 20l-20 9v193q7 -4 21 -10t59 -22.5t93 -29t120 -22.5t143 -10q299 0 299 246q0 118 -74 182.5t-225 64.5h-170v168h129q153 0 226 60.5t73 167.5q0 225 -299 225q-84 0 -172.5 -21t-134.5 -42l-47 -21v192
q18 8 49.5 20t124.5 32t180 20q251 0 381.5 -101.5t130.5 -275.5q0 -234 -254 -334v-2q295 -75 295 -340q0 -183 -139 -302t-375 -119zM193 1536v205h217v-205h-217zM631 1536v205h217v-205h-217z" />
    <glyph glyph-name="uni04DF" unicode="&#x4df;" horiz-adv-x="983" 
d="M426 -16q-96 0 -179.5 12.5t-120 24t-36.5 14.5v166q14 -7 39.5 -17.5t108 -27.5t168.5 -17q145 0 219.5 44.5t74.5 125.5q0 74 -62 116t-183 42h-168v151h137q119 0 177 39t58 105q0 68 -60 105.5t-177 37.5q-71 0 -144.5 -13.5t-111.5 -26.5l-37 -13v168q127 41 305 41
q215 0 322.5 -75t107.5 -202q0 -172 -184 -233v-2q108 -24 166.5 -94t58.5 -166q0 -135 -118.5 -220t-360.5 -85zM172 1270v205h193v-205h-193zM557 1270v205h193v-205h-193z" />
    <glyph glyph-name="uni04E2" unicode="&#x4e2;" horiz-adv-x="1515" 
d="M190 0v1434h201v-1047l-4 -123h4l78 133l602 1037h254v-1434h-201v1030l4 144h-4l-69 -121l-611 -1053h-254zM451 1577v143h614v-143h-614z" />
    <glyph glyph-name="uni04E3" unicode="&#x4e3;" horiz-adv-x="1259" 
d="M170 0v1044h192v-819h5l479 819h244v-1044h-193v819h-4l-479 -819h-244zM324 1341v144h614v-144h-614z" />
    <glyph glyph-name="uni04E4" unicode="&#x4e4;" horiz-adv-x="1515" 
d="M190 0v1434h201v-1047l-4 -123h4l78 133l602 1037h254v-1434h-201v1030l4 144h-4l-69 -121l-611 -1053h-254zM430 1536v205h217v-205h-217zM868 1536v205h217v-205h-217z" />
    <glyph glyph-name="uni04E5" unicode="&#x4e5;" horiz-adv-x="1259" 
d="M170 0v1044h192v-819h5l479 819h244v-1044h-193v819h-4l-479 -819h-244zM342 1270v205h193v-205h-193zM727 1270v205h193v-205h-193z" />
    <glyph glyph-name="uni04E6" unicode="&#x4e6;" horiz-adv-x="1536" 
d="M768 -20q-206 0 -358.5 95.5t-231 261.5t-78.5 380q0 215 79.5 381.5t232 261t356.5 94.5q205 0 358 -96t231.5 -262t78.5 -379q0 -216 -79.5 -382.5t-232 -260.5t-356.5 -94zM768 160q143 0 248 77t156 201.5t51 278.5q0 157 -52.5 282t-157 200t-245.5 75
q-142 0 -247 -76.5t-156.5 -201t-51.5 -279.5q0 -157 51.5 -281.5t156.5 -200t247 -75.5zM440 1536v205h217v-205h-217zM879 1536v205h217v-205h-217z" />
    <glyph glyph-name="uni04E7" unicode="&#x4e7;" horiz-adv-x="1269" 
d="M635 -16q-237 0 -386 149.5t-149 388.5t149 389t386 150q236 0 385 -150t149 -389t-148.5 -388.5t-385.5 -149.5zM635 139q139 0 234.5 106t95.5 277q0 170 -96 276.5t-234 106.5q-139 0 -234.5 -106t-95.5 -277t95.5 -277t234.5 -106zM346 1270v205h193v-205h-193z
M731 1270v205h193v-205h-193z" />
    <glyph glyph-name="uni04E8" unicode="&#x4e8;" horiz-adv-x="1536" 
d="M768 -20q-206 0 -358.5 95.5t-231 261.5t-78.5 380q0 215 79.5 381.5t232 261t356.5 94.5q205 0 358 -96t231.5 -262t78.5 -379q0 -216 -79.5 -382.5t-232 -260.5t-356.5 -94zM768 160q130 0 229 64t153.5 169.5t68.5 241.5h-902q21 -211 139.5 -343t311.5 -132z
M768 1274q-189 0 -307 -128.5t-142 -330.5h898q-26 204 -144 331.5t-305 127.5z" />
    <glyph glyph-name="uni04E9" unicode="&#x4e9;" horiz-adv-x="1269" 
d="M635 -16q-237 0 -386 149.5t-149 388.5t149 389t386 150q236 0 385 -150t149 -389t-148.5 -388.5t-385.5 -149.5zM635 139q124 0 215 86.5t111 231.5h-652q18 -145 109.5 -231.5t216.5 -86.5zM635 905q-120 0 -210 -80t-114 -215h645q-24 134 -114 214.5t-207 80.5z" />
    <glyph glyph-name="uni04EA" unicode="&#x4ea;" horiz-adv-x="1536" 
d="M768 -20q-206 0 -358.5 95.5t-231 261.5t-78.5 380q0 215 79.5 381.5t232 261t356.5 94.5q205 0 358 -96t231.5 -262t78.5 -379q0 -216 -79.5 -382.5t-232 -260.5t-356.5 -94zM768 160q130 0 229 64t153.5 169.5t68.5 241.5h-902q21 -211 139.5 -343t311.5 -132z
M768 1274q-189 0 -307 -128.5t-142 -330.5h898q-26 204 -144 331.5t-305 127.5zM440 1536v205h217v-205h-217zM879 1536v205h217v-205h-217z" />
    <glyph glyph-name="uni04EB" unicode="&#x4eb;" horiz-adv-x="1269" 
d="M635 -16q-237 0 -386 149.5t-149 388.5t149 389t386 150q236 0 385 -150t149 -389t-148.5 -388.5t-385.5 -149.5zM635 139q124 0 215 86.5t111 231.5h-652q18 -145 109.5 -231.5t216.5 -86.5zM635 905q-120 0 -210 -80t-114 -215h645q-24 134 -114 214.5t-207 80.5z
M729 1270v205h193v-205h-193zM348 1270v205h193v-205h-193z" />
    <glyph glyph-name="uni04EE" unicode="&#x4ee;" horiz-adv-x="1269" 
d="M240 176q70 -26 118 -26q129 0 189 169l-522 1115h215l395 -885h10l391 885h209l-518 -1145q-78 -171 -152 -240t-194 -69q-71 0 -141 24v172zM328 1577v143h614v-143h-614z" />
    <glyph glyph-name="uni04EF" unicode="&#x4ef;" horiz-adv-x="1126" 
d="M248 -459q-24 0 -46 2.5t-32 4.5l-10 3v158q37 -6 76 -6q83 0 125 44.5t81 150.5l19 51l-428 1095h211l317 -856h14l324 856h195l-435 -1085q-35 -86 -58 -138t-53 -105t-57 -81.5t-63.5 -52t-79.5 -32.5t-100 -9zM246 1341v144h614v-144h-614z" />
    <glyph glyph-name="uni04F0" unicode="&#x4f0;" horiz-adv-x="1269" 
d="M240 176q70 -26 118 -26q129 0 189 169l-522 1115h215l395 -885h10l391 885h209l-518 -1145q-78 -171 -152 -240t-194 -69q-71 0 -141 24v172zM307 1536v205h217v-205h-217zM745 1536v205h218v-205h-218z" />
    <glyph glyph-name="uni04F1" unicode="&#x4f1;" horiz-adv-x="1126" 
d="M248 -459q-24 0 -46 2.5t-32 4.5l-10 3v158q37 -6 76 -6q83 0 125 44.5t81 150.5l19 51l-428 1095h211l317 -856h14l324 856h195l-435 -1085q-35 -86 -58 -138t-53 -105t-57 -81.5t-63.5 -52t-79.5 -32.5t-100 -9zM264 1270v205h193v-205h-193zM649 1270v205h193v-205
h-193z" />
    <glyph glyph-name="uni04F2" unicode="&#x4f2;" horiz-adv-x="1269" 
d="M240 176q70 -26 118 -26q129 0 189 169l-522 1115h215l395 -885h10l391 885h209l-518 -1145q-78 -171 -152 -240t-194 -69q-71 0 -141 24v172zM727 1536l180 266h226l-263 -266h-143zM356 1536l181 266h225l-262 -266h-144z" />
    <glyph glyph-name="uni04F3" unicode="&#x4f3;" horiz-adv-x="1126" 
d="M248 -459q-24 0 -46 2.5t-32 4.5l-10 3v158q37 -6 76 -6q83 0 125 44.5t81 150.5l19 51l-428 1095h211l317 -856h14l324 856h195l-435 -1085q-35 -86 -58 -138t-53 -105t-57 -81.5t-63.5 -52t-79.5 -32.5t-100 -9zM643 1249l180 267h226l-263 -267h-143zM272 1249
l181 267h225l-262 -267h-144z" />
    <glyph glyph-name="uni04F4" unicode="&#x4f4;" horiz-adv-x="1331" 
d="M940 0v600q-191 -49 -369 -49q-227 0 -344.5 107t-117.5 313v463h200v-430q0 -152 71 -212.5t234 -60.5q169 0 326 47v656h201v-1434h-201zM305 1536v205h217v-205h-217zM743 1536v205h218v-205h-218z" />
    <glyph glyph-name="uni04F5" unicode="&#x4f5;" horiz-adv-x="1157" 
d="M795 0v403q-147 -28 -281 -28q-187 0 -292 76t-105 229v364h192v-307q0 -120 52 -163.5t198 -43.5q119 0 236 19v495h192v-1044h-192zM291 1270v205h192v-205h-192zM676 1270v205h192v-205h-192z" />
    <glyph glyph-name="uni04F8" unicode="&#x4f8;" horiz-adv-x="1792" 
d="M190 0v1434h201v-533h219q257 0 384.5 -115.5t127.5 -334.5t-127.5 -335t-384.5 -116h-420zM391 180h219q295 0 295 271q0 135 -72 202.5t-223 67.5h-219v-541zM1401 0v1434h201v-1434h-201zM569 1536v205h217v-205h-217zM1008 1536v205h217v-205h-217z" />
    <glyph glyph-name="uni04F9" unicode="&#x4f9;" horiz-adv-x="1587" 
d="M170 0v1044h192v-360h211q216 0 323.5 -91t107.5 -253q0 -160 -107 -250t-324 -90h-403zM362 156h211q118 0 176 48t58 136q0 89 -58 138.5t-176 49.5h-211v-372zM1225 0v1044h192v-1044h-192zM506 1270v205h192v-205h-192zM891 1270v205h192v-205h-192z" />
    <glyph glyph-name="uni058D" unicode="&#x58d;" horiz-adv-x="1638" 
d="M819 -16q-109 0 -186 55q137 33 230 145.5t93 255.5q0 97 -53 197q111 -20 180.5 -111t69.5 -204q0 -85 -43.5 -162.5t-121.5 -126.5t-169 -49zM530 109q-133 0 -213.5 74t-103.5 182q92 -64 223 -64q78 0 151 28.5t139 98.5t97 172q47 -73 47 -176q0 -60 -24.5 -116.5
t-67.5 -101t-108 -71t-140 -26.5zM428 387q-84 0 -162.5 45.5t-128 122t-49.5 160.5q0 112 49 182q34 -128 140 -221.5t255 -93.5q117 0 207 51q-25 -107 -112 -176.5t-199 -69.5zM530 668q-127 0 -222 94.5t-95 245.5q0 130 75.5 211t180.5 104q-26 -42 -43.5 -102
t-17.5 -121q0 -56 16.5 -112.5t49.5 -110.5t92 -98t136 -68q-88 -43 -172 -43zM1174 104q59 105 59 228q0 57 -16.5 113.5t-50.5 111t-93.5 98t-138.5 66.5q84 43 176 43q126 0 220.5 -94.5t94.5 -245.5q0 -137 -72 -218t-179 -102zM735 797q-108 25 -178 112t-70 201
q0 85 42 163t120.5 127.5t173.5 49.5q106 0 183 -55q-143 -29 -232.5 -141t-89.5 -261q0 -107 51 -196zM1499 530q-14 65 -45 121.5t-79.5 103t-120 73t-158.5 26.5q-109 0 -197 -53q25 107 112.5 176.5t200.5 69.5q142 0 240 -99.5t98 -232.5q0 -112 -51 -185zM813 829
q-43 84 -43 179q0 60 24.5 116.5t67.5 101t108 71t140 26.5q132 0 212 -75t103 -181q-97 63 -219 63q-58 0 -114.5 -17t-111 -51t-99 -94t-68.5 -139z" />
    <glyph glyph-name="uni058E" unicode="&#x58e;" horiz-adv-x="2048" 
d="M1481 -16l-1223 415l707 803q22 22 22 47q0 22 -22 47l-68 68l104 86l117 -129q29 -32 29 -68q0 -58 -39 -100l-600 -676l973 -348v-145zM1239 686v92h483v-92h-483zM1427 877q-153 0 -153 174v260h90v-279q0 -34 17.5 -64t54.5 -30q44 0 72 37t28 90v281q0 63 25.5 83.5
t72.5 20.5q40 0 88 -14v-72q-48 20 -71 20q-25 0 -25 -34v-467h-76v61q-38 -67 -123 -67z" />
    <glyph glyph-name="uni058F" unicode="&#x58f;" horiz-adv-x="1187" 
d="M393 545v143h357v236q0 193 -56.5 275.5t-173.5 82.5t-173 -81.5t-56 -274.5v-56h-205v56q0 528 434 528t434 -530v-236h189v-143h-189v-135h189v-144h-189v-266h-204v266h-357v144h357v135h-357z" />
    <glyph glyph-name="uni1E9E" unicode="&#x1e9e;" horiz-adv-x="1372" 
d="M784 -20q-114 0 -237 26v180q97 -26 213 -26q158 0 238.5 74.5t80.5 209.5q0 80 -26 134.5t-79 84.5t-121.5 42t-166.5 12h-29v100l287 400q-101 53 -246 53q-162 0 -236.5 -69t-74.5 -218v-983h-201v983q0 227 130.5 347t375.5 120q311 0 527 -174l-314 -422
q196 -33 293.5 -140.5t97.5 -279.5q0 -201 -141 -327.5t-371 -126.5z" />
    <glyph glyph-name="uni2010" unicode="&#x2010;" 
d="M113 524v181h594v-181h-594z" />
    <glyph glyph-name="uni2011" unicode="&#x2011;" 
d="M113 524v181h594v-181h-594z" />
    <glyph glyph-name="figuredash" unicode="&#x2012;" horiz-adv-x="1126" 
d="M41 657v181h1044v-181h-1044z" />
    <glyph glyph-name="endash" unicode="&#x2013;" horiz-adv-x="1126" 
d="M41 524v181h1044v-181h-1044z" />
    <glyph glyph-name="emdash" unicode="&#x2014;" horiz-adv-x="1843" 
d="M102 524v181h1639v-181h-1639z" />
    <glyph glyph-name="uni2015" unicode="&#x2015;" horiz-adv-x="1843" 
d="M102 524v181h1639v-181h-1639z" />
    <glyph glyph-name="quoteleft" unicode="&#x2018;" horiz-adv-x="552" 
d="M98 930l197 504h160l-127 -504h-230z" />
    <glyph glyph-name="quoteright" unicode="&#x2019;" horiz-adv-x="552" 
d="M98 930l127 504h230l-181 -504h-176z" />
    <glyph glyph-name="quotesinglbase" unicode="&#x201a;" horiz-adv-x="573" 
d="M96 -272l129 501h228l-174 -501h-183z" />
    <glyph glyph-name="quotedblleft" unicode="&#x201c;" horiz-adv-x="1024" 
d="M528 930l199 504h158l-131 -504h-226zM139 930l203 504h154l-127 -504h-230z" />
    <glyph glyph-name="quotedblright" unicode="&#x201d;" horiz-adv-x="1024" 
d="M528 930l129 504h228l-174 -504h-183zM139 930l129 504h228l-174 -504h-183z" />
    <glyph glyph-name="quotedblbase" unicode="&#x201e;" horiz-adv-x="1024" 
d="M500 -272l129 501h227l-174 -501h-182zM111 -272l129 501h227l-174 -501h-182z" />
    <glyph glyph-name="dagger" unicode="&#x2020;" horiz-adv-x="1331" 
d="M563 -287v1176h-420v155h420v390h205v-390h420v-155h-420v-1176h-205z" />
    <glyph glyph-name="daggerdbl" unicode="&#x2021;" horiz-adv-x="1331" 
d="M563 -287v389h-420v156h420v631h-420v155h420v390h205v-390h420v-155h-420v-631h420v-156h-420v-389h-205z" />
    <glyph glyph-name="bullet" unicode="&#x2022;" horiz-adv-x="1024" 
d="M512 373q-143 0 -242.5 100t-99.5 244q0 143 100 242.5t242 99.5q144 0 243 -99.5t99 -242.5q0 -145 -98.5 -244.5t-243.5 -99.5z" />
    <glyph glyph-name="ellipsis" unicode="&#x2026;" horiz-adv-x="1863" 
d="M1462 0v229h230v-229h-230zM172 0v229h229v-229h-229zM817 0v229h230v-229h-230z" />
    <glyph glyph-name="perthousand" unicode="&#x2030;" horiz-adv-x="2682" 
d="M348 0l1000 1434h147l-999 -1434h-148zM453 754q-164 0 -249 91t-85 259q0 162 87 256t247 94q167 0 252.5 -91t85.5 -259q0 -161 -89 -255.5t-249 -94.5zM453 877q94 0 139 54.5t45 172.5t-44.5 172.5t-139.5 54.5q-181 0 -181 -227t181 -227zM1386 -20
q-164 0 -248.5 91t-84.5 259q0 163 86.5 256.5t246.5 93.5q167 0 252.5 -91t85.5 -259q0 -161 -89 -255.5t-249 -94.5zM1386 102q94 0 139.5 55t45.5 173t-44.5 172.5t-140.5 54.5q-180 0 -180 -227q0 -228 180 -228zM2226 -20q-164 0 -249 91t-85 259q0 162 87 256t247 94
q167 0 252.5 -91t85.5 -259q0 -161 -89 -255.5t-249 -94.5zM2226 102q93 0 138.5 54.5t45.5 173.5q0 118 -44.5 172.5t-139.5 54.5q-180 0 -180 -227q0 -228 180 -228z" />
    <glyph glyph-name="guilsinglleft" unicode="&#x2039;" horiz-adv-x="716" 
d="M395 199l-286 413l286 414h180l-260 -414l260 -413h-180z" />
    <glyph glyph-name="guilsinglright" unicode="&#x203a;" horiz-adv-x="716" 
d="M608 612l-286 -413h-181l260 413l-260 414h181z" />
    <glyph glyph-name="fraction" unicode="&#x2044;" horiz-adv-x="696" 
d="M-225 0l999 1434h148l-1000 -1434h-147z" />
    <glyph glyph-name="foursuperior" unicode="&#x2074;" 
d="M479 569v170h-424v125l367 570h223v-551h115v-144h-115v-170h-166zM223 883h256v397h-4z" />
    <glyph glyph-name="franc" unicode="&#x20a3;" horiz-adv-x="1187" 
d="M254 0v260h-150v143h150v1031h774v-181h-582v-419h562v-181h-562v-250h293v-143h-293v-260h-192z" />
    <glyph glyph-name="Euro" unicode="&#x20ac;" horiz-adv-x="1187" 
d="M0 514l37 143h88q-2 18 -2 60q0 53 2 80h-121l33 143h110q59 238 235.5 376t432.5 138q99 0 184 -23t131 -51l-45 -182q-40 29 -113 52.5t-157 23.5q-162 0 -276.5 -91t-163.5 -243h653l-33 -143h-651q-4 -27 -4 -80q0 -42 2 -60h621l-33 -143h-561q49 -163 170 -258.5
t297 -95.5q88 0 171 20.5t132 46.5v-196q-47 -20 -130.5 -35.5t-172.5 -15.5q-276 0 -458 143.5t-235 390.5h-143z" />
    <glyph glyph-name="uni20B4" unicode="&#x20b4;" horiz-adv-x="1187" 
d="M106 805v143h605q92 99 92 182q0 148 -248 148q-188 0 -365 -59v188q162 47 390 47q109 0 191.5 -19.5t129 -49t75 -70.5t37.5 -76t9 -74q0 -112 -94 -217h153v-143h-305q-35 -29 -196 -150h501v-143h-643q-69 -96 -69 -176q0 -61 39.5 -102t96 -57.5t124.5 -16.5
q177 0 407 67v-188q-198 -59 -405 -59q-124 0 -219 26t-150.5 71.5t-83.5 102t-28 121.5q0 110 75 211h-119v143h256q66 62 181 150h-437z" />
    <glyph glyph-name="uni20B8" unicode="&#x20b8;" horiz-adv-x="1187" 
d="M496 0v977h-406v143h1008v-143h-406v-977h-196zM90 1290v144h1008v-144h-1008z" />
    <glyph glyph-name="uni20BC" unicode="&#x20bc;" horiz-adv-x="1187" 
d="M51 0q0 1074 451 1165v269h184v-269q451 -91 451 -1165h-197q0 258 -18.5 444t-54 296.5t-79.5 168.5t-102 80v-989h-184v989q-59 -22 -103.5 -80t-79.5 -169t-53 -296.5t-18 -443.5h-197z" />
    <glyph glyph-name="uni20BD" unicode="&#x20bd;" horiz-adv-x="1187" 
d="M254 0v260h-150v143h150v187h-150v164h150v680h346q115 0 207 -23.5t161 -71.5t106.5 -126.5t37.5 -182.5q0 -145 -64 -246t-170.5 -147.5t-246.5 -46.5h-185v-187h293v-143h-293v-260h-192zM446 754h187q124 0 199 63.5t75 183.5q0 129 -83.5 190.5t-219.5 61.5h-158
v-499z" />
    <glyph glyph-name="uni20BE" unicode="&#x20be;" horiz-adv-x="1187" 
d="M451 717v516q-146 -113 -146 -496q0 -275 108 -416t300 -141h286v-180h-872v180h192q-93 78 -151.5 229.5t-58.5 342.5q0 270 84.5 448t255.5 230v208h106v-190q10 2 35 2q8 0 23.5 -1t23.5 -1v190h106v-215q165 -60 246.5 -246t81.5 -460h-197q0 381 -133 504v-504h-98
v555q-24 6 -53 6q-17 0 -41 -4v-557h-98z" />
    <glyph glyph-name="uni2116" unicode="&#x2116;" horiz-adv-x="2048" 
d="M190 0v1434h265l516 -996l82 -159h4v1155h194v-1434h-247l-547 1051l-68 129h-4v-1180h-195zM1647 809q-130 0 -203.5 89t-73.5 232t73 231.5t204 88.5q132 0 205 -86.5t73 -233.5q0 -148 -74.5 -234.5t-203.5 -86.5zM1647 928q131 0 131 202q0 43 -5.5 76t-19 63
t-40.5 46t-66 16q-32 0 -56 -12t-37.5 -30.5t-22 -46.5t-11 -54t-2.5 -58q0 -202 129 -202zM1391 578v143h522v-143h-522z" />
    <glyph glyph-name="uni2117" unicode="&#x2117;" horiz-adv-x="1802" 
d="M666 311v811h231q176 0 249 -61t73 -195q0 -133 -71.5 -194.5t-238.5 -61.5h-96v-299h-147zM813 727h96q83 0 118.5 33t35.5 106q0 74 -37 106t-129 32h-84v-277zM901 -20q-205 0 -374 97t-266 266t-97 374t97 374t266 266t374 97t374 -97t266 -266t97 -374t-97 -374
t-266 -266t-374 -97zM901 115q122 0 234 48t193 128.5t129 192t48 233.5t-48 234t-129 193t-193 129t-234 48t-234 -48t-193 -129t-129 -193t-48 -234t48 -233.5t129 -192t193 -128.5t234 -48z" />
    <glyph glyph-name="trademark" unicode="&#x2122;" horiz-adv-x="1966" 
d="M930 580v854h250l196 -467l199 467h244v-854h-156v737h-2l-209 -494h-156l-209 494h-2v-737h-155zM369 580v710h-263v144h680v-144h-262v-710h-155z" />
    <glyph glyph-name="uni2126" unicode="&#x2126;" horiz-adv-x="1556" 
d="M133 0l-24 301l161 10l13 -147h237v90q-185 44 -292 198t-107 363q0 293 178.5 466t478.5 173q302 0 480 -175t178 -464q0 -204 -109 -361.5t-293 -199.5v-90h240l10 147l164 -10l-27 -301h-555v336q168 24 260.5 151t92.5 320q0 214 -120.5 340.5t-320.5 126.5
q-206 0 -323 -125.5t-117 -341.5q0 -196 91 -321.5t261 -149.5v-336h-557z" />
    <glyph glyph-name="arrowleft" unicode="&#x2190;" horiz-adv-x="1433" 
d="M502 256l-461 461l461 461h225l-371 -371h1037v-180h-1037l371 -371h-225z" />
    <glyph glyph-name="arrowup" unicode="&#x2191;" horiz-adv-x="1433" 
d="M627 0v1118l-371 -370v225l461 461l461 -461v-225l-371 370v-1118h-180z" />
    <glyph glyph-name="arrowright" unicode="&#x2192;" horiz-adv-x="1433" 
d="M707 256l370 371h-1036v180h1036l-370 371h225l461 -461l-461 -461h-225z" />
    <glyph glyph-name="arrowdown" unicode="&#x2193;" horiz-adv-x="1433" 
d="M717 0l-461 461v225l371 -371v1119h180v-1119l371 371v-225z" />
    <glyph glyph-name="partialdiff" unicode="&#x2202;" horiz-adv-x="1269" 
d="M627 -16q-234 0 -380.5 151t-146.5 387q0 237 142 388t364 151q131 0 219.5 -51.5t155.5 -163.5h8v28q0 63 -21 128t-72 134t-126.5 125.5t-194.5 100.5t-266 61l33 164q220 -32 380 -104.5t257.5 -183t143.5 -251.5t46 -319q0 -135 -17 -245t-56 -204.5t-100.5 -158.5
t-155 -100.5t-213.5 -36.5zM625 139q141 0 230 109.5t89 273.5q0 104 -37 190t-111 139.5t-171 53.5t-171 -53.5t-111.5 -139.5t-37.5 -190q0 -161 88.5 -272t231.5 -111z" />
    <glyph glyph-name="uni2206" unicode="&#x2206;" horiz-adv-x="1433" 
d="M33 0l579 1434h215l574 -1434h-1368zM315 168h797l-399 1073z" />
    <glyph glyph-name="product" unicode="&#x220f;" horiz-adv-x="1495" 
d="M100 -430v180h111v1503h-111v181h1295v-181h-117v-1503h117v-180h-428v180h110v1503h-665v-1503h110v-180h-422z" />
    <glyph glyph-name="summation" unicode="&#x2211;" horiz-adv-x="1331" 
d="M139 -430v184l529 795l-518 700v185h976v-394h-200v213h-541l520 -702l-526 -801h584v234h200v-414h-1024z" />
    <glyph glyph-name="minus" unicode="&#x2212;" horiz-adv-x="1187" 
d="M82 627v180h1024v-180h-1024z" />
    <glyph glyph-name="uni2215" unicode="&#x2215;" horiz-adv-x="1187" 
d="M-29 0l1022 1434h224l-1022 -1434h-224z" />
    <glyph glyph-name="uni2219" unicode="&#x2219;" horiz-adv-x="614" 
d="M184 598v242h246v-242h-246z" />
    <glyph glyph-name="radical" unicode="&#x221a;" horiz-adv-x="1320" 
d="M563 -205l-297 1069h-164v180h314l252 -913l274 1520h320v-181h-168l-303 -1675h-228z" />
    <glyph glyph-name="infinity" unicode="&#x221e;" horiz-adv-x="1536" 
d="M430 391q-127 0 -217 92t-90 232q0 144 88 235.5t221 91.5q104 0 185.5 -58.5t152.5 -160.5q147 219 334 219q132 0 220.5 -91t88.5 -232q0 -143 -90 -235.5t-217 -92.5q-97 0 -186 57t-154 146q-150 -203 -336 -203zM1094 899q-69 0 -128 -50.5t-126 -143.5
q51 -79 116.5 -124.5t135.5 -45.5q71 0 118 53.5t47 128.5q0 77 -43.5 129.5t-119.5 52.5zM449 535q71 0 128 45.5t115 128.5q-61 93 -119 141.5t-127 48.5q-79 0 -123 -52.5t-44 -127.5q0 -76 48 -130t122 -54z" />
    <glyph glyph-name="integral" unicode="&#x222b;" horiz-adv-x="839" 
d="M168 -307q-36 0 -72 4t-54 8l-17 4v156q50 -17 122 -17q93 0 135 55t42 193v1241q0 215 84 309.5t264 94.5q36 0 72 -4.5t54 -8.5l17 -4v-155q-51 16 -123 16q-92 0 -134 -55t-42 -193v-1241q0 -215 -84 -309t-264 -94z" />
    <glyph glyph-name="approxequal" unicode="&#x2248;" horiz-adv-x="1187" 
d="M815 756q-66 0 -156.5 35t-171.5 69.5t-122 34.5q-90 0 -164 -129l-123 98q97 199 264 199q52 0 121 -21.5t124 -48t114 -48t92 -21.5q54 0 107.5 42.5t78.5 86.5l131 -92q-39 -82 -119.5 -143.5t-175.5 -61.5zM815 371q-52 0 -121 21.5t-124 48t-113.5 48t-91.5 21.5
q-90 0 -164 -129l-123 98q97 199 262 199q65 0 159.5 -35t178 -69.5t121.5 -34.5q50 0 102.5 42.5t77.5 86.5l131 -93q-39 -82 -119.5 -143t-175.5 -61z" />
    <glyph glyph-name="notequal" unicode="&#x2260;" horiz-adv-x="1187" 
d="M82 842v180h596l135 260h145l-135 -260h283v-180h-375l-127 -250h502v-180h-594l-137 -269h-146l138 269h-285v180h377l127 250h-504z" />
    <glyph glyph-name="lessequal" unicode="&#x2264;" horiz-adv-x="1187" 
d="M1032 522v-205l-901 400v205l901 399v-205l-663 -297zM1032 293v-180h-901v180h901z" />
    <glyph glyph-name="greaterequal" unicode="&#x2265;" horiz-adv-x="1187" 
d="M156 317v205l663 297l-663 297v205l901 -399v-205zM156 113v180h901v-180h-901z" />
    <glyph glyph-name="dotmath" unicode="&#x22c5;" horiz-adv-x="1187" 
d="M471 598v242h246v-242h-246z" />
    <glyph glyph-name="lozenge" unicode="&#x25ca;" horiz-adv-x="1351" 
d="M676 -20l-535 737l535 737l534 -737zM676 272l321 445l-321 440l-322 -440z" />
    <glyph glyph-name="uniF400" unicode="&#xf400;" horiz-adv-x="4" 
d="M-670 1249l160 267h246l-242 -267h-164z" />
    <glyph glyph-name="uniF401" unicode="&#xf401;" horiz-adv-x="4" 
d="M-838 1536l164 246h266l-233 -246h-197z" />
    <glyph glyph-name="uniF406" unicode="&#xf406;" 
d="M410 1524q-124 0 -220.5 65.5t-130.5 192.5h144q39 -115 207 -115q167 0 206 115h144q-34 -127 -130 -192.5t-220 -65.5z" />
    <glyph glyph-name="uniF407" unicode="&#xf407;" 
d="M373 -455q-83 0 -160 58l47 94q53 -31 98 -31q42 0 71.5 21.5t29.5 62.5q0 42 -29.5 63t-77.5 21q-34 0 -61 -6l26 190h123l-12 -86q180 -6 180 -172q0 -95 -66.5 -155t-168.5 -60z" />
    <glyph glyph-name="uniF408" unicode="&#xf408;" 
d="M84 1536l213 246h225l213 -246h-196l-129 150l-129 -150h-197z" />
    <glyph glyph-name="uniF409" unicode="&#xf409;" 
d="M233 -512l82 410h220l-144 -410h-158z" />
    <glyph glyph-name="uniF40A" unicode="&#xf40a;" 
d="M291 1024l82 410h225l-152 -410h-155z" />
    <glyph glyph-name="uniF40B" unicode="&#xf40b;" 
d="M295 1540v209h229v-209h-229z" />
    <glyph glyph-name="uniF40C" unicode="&#xf40c;" 
d="M410 1462q-86 0 -147.5 61.5t-61.5 147.5t61.5 147.5t147.5 61.5t147 -61.5t61 -147.5t-61 -147.5t-147 -61.5zM410 1544q54 0 90.5 36.5t36.5 90.5t-36.5 90.5t-90.5 36.5t-90.5 -36.5t-36.5 -90.5t36.5 -90.5t90.5 -36.5z" />
    <glyph glyph-name="uniF40D" unicode="&#xf40d;" 
d="M61 1532q6 94 58.5 161.5t138.5 67.5q50 0 159 -47t150 -47t61.5 23.5t30.5 70.5h99q-32 -229 -195 -229q-48 0 -159.5 47t-153.5 47q-43 0 -62 -24t-28 -70h-99z" />
    <glyph glyph-name="uniF40E" unicode="&#xf40e;" 
d="M399 -455q-215 0 -215 181q0 185 348 337l41 -63q-125 -90 -171 -145t-46 -105q0 -42 22.5 -67t61.5 -25q24 0 47.5 4.5t35.5 9.5l12 4l28 -100q-76 -31 -164 -31z" />
    <glyph glyph-name="uniF410" unicode="&#xf410;" horiz-adv-x="4" 
d="M-752 1536l-217 254h246l135 -254h-164z" />
    <glyph glyph-name="uniF47E" unicode="&#xf47e;" horiz-adv-x="1474" 
d="M737 -20q-263 0 -407 155t-144 455v844h201v-824q0 -239 87 -344.5t263 -105.5t263 105.5t87 344.5v824h201v-844q0 -300 -144 -455t-407 -155zM623 1540v209h229v-209h-229z" />
    <glyph glyph-name="uniF47F" unicode="&#xf47f;" horiz-adv-x="1249" 
d="M1079 1044v-1044h-192v150h-4q-120 -166 -348 -166q-189 0 -293.5 112t-104.5 334v614h193v-552q0 -193 62.5 -273t182.5 -80q144 0 228 104.5t84 309.5v491h192zM506 1257v218h217v-218h-217z" />
    <glyph glyph-name="uniF4C6" unicode="&#xf4c6;" horiz-adv-x="1331" 
d="M571 551q-233 0 -347.5 91t-114.5 292v500h200v-430q0 -152 70 -212.5t229 -60.5q183 0 332 47v656h201v-1434q-5 -205 -102 -307.5t-304 -102.5q-80 0 -160 25v176q70 -20 136 -20q229 0 229 249v580q-191 -49 -369 -49z" />
    <glyph glyph-name="uniF4C7" unicode="&#xf4c7;" horiz-adv-x="1157" 
d="M657 -467q-28 0 -52 2.5t-34 4.5l-10 3v164q31 -8 70 -8q80 0 122 48.5t42 162.5v493q-147 -28 -281 -28q-187 0 -292 76t-105 229v364h192v-307q0 -120 52 -163.5t198 -43.5q119 0 236 19v495h192v-1134q0 -110 -20 -183.5t-63.5 -116t-102 -60t-144.5 -17.5z" />
    <glyph glyph-name="uniF4C8" unicode="&#xf4c8;" horiz-adv-x="1290" 
d="M737 -455q-82 0 -159 58l47 94q53 -31 98 -31q42 0 71 21t29 63t-29 63t-77 21q-35 0 -62 -6l23 166q-272 47 -425 238.5t-153 484.5q0 163 53.5 300t150 233t237 150t309.5 54q86 0 171 -14t127 -28l42 -15v-197q-17 8 -46.5 20.5t-118.5 33t-175 20.5q-247 0 -392 -150
t-145 -407t145 -407t392 -150q86 0 171 16t127 32l42 15v-196q-17 -5 -46.5 -13t-118.5 -21t-175 -13q-35 0 -51 2l-6 -50q180 -6 180 -172q0 -95 -67 -155t-169 -60z" />
    <glyph glyph-name="uniF4C9" unicode="&#xf4c9;" horiz-adv-x="993" 
d="M524 -397q-74 0 -141 51l43 82q46 -27 86 -27q37 0 62.5 18.5t25.5 55.5t-26 55.5t-68 18.5q-25 0 -53 -7l20 150q-176 43 -274.5 181.5t-98.5 340.5q0 242 143.5 390.5t381.5 148.5q74 0 139 -10.5t93 -20.5l28 -10v-166q-11 6 -31.5 14.5t-83 22.5t-125.5 14
q-163 0 -251.5 -100t-88.5 -283t88.5 -283t249.5 -100q64 0 124.5 13.5t88.5 27.5l29 13v-168q-11 -5 -32 -11.5t-89.5 -18t-140.5 -11.5q-7 0 -21.5 1t-21.5 1l-7 -43q158 -5 158 -152q0 -83 -58.5 -135.5t-148.5 -52.5z" />
    <glyph glyph-name="uniF4CC" unicode="&#xf4cc;" horiz-adv-x="1269" 
d="M240 176q70 -26 118 -26q129 0 189 169l-522 1115h215l395 -885h10l391 885h209l-518 -1145q-78 -171 -152 -240t-194 -69q-71 0 -141 24v172zM545 1536l145 256h246l-227 -256h-164z" />
    <glyph glyph-name="uniF4CD" unicode="&#xf4cd;" horiz-adv-x="1126" 
d="M248 -459q-24 0 -46 2.5t-32 4.5l-10 3v158q37 -6 76 -6q83 0 125 44.5t81 150.5l19 51l-428 1095h211l317 -856h14l324 856h195l-435 -1085q-35 -86 -58 -138t-53 -105t-57 -81.5t-63.5 -52t-79.5 -32.5t-100 -9zM467 1249l160 267h245l-241 -267h-164z" />
    <glyph glyph-name="zero.tab" unicode="&#xf4e0;" horiz-adv-x="1187" 
d="M594 -16q-229 0 -356 182t-127 551t128 551t351 182q232 0 359.5 -180.5t127.5 -552.5q0 -192 -35.5 -335t-101 -229t-152 -127.5t-194.5 -41.5zM594 156q93 0 155 53.5t97 179.5t35 328q0 156 -20 266t-59 174t-91 92.5t-121 28.5q-65 0 -114.5 -28t-88.5 -91
t-59.5 -174.5t-20.5 -267.5q0 -561 287 -561z" />
    <glyph glyph-name="one.tab" unicode="&#xf4e1;" horiz-adv-x="1187" 
d="M86 180h457v1010l-289 -211l-98 139l409 316h172v-1254h330v-180h-981v180z" />
    <glyph glyph-name="two.tab" unicode="&#xf4e2;" horiz-adv-x="1187" 
d="M90 0v205q119 99 254 207q109 87 176.5 144t133 121.5t99.5 115t55 107t21 114.5q0 128 -81 192t-224 64q-199 0 -383 -101v197q201 84 416 84q97 0 180 -24.5t148.5 -73t103 -127t37.5 -178.5q0 -88 -33 -171.5t-71 -143.5t-138.5 -153.5t-162 -143t-215.5 -169.5
q-22 -17 -33 -26l-74 -58v-2h748v-180h-957z" />
    <glyph glyph-name="three.tab" unicode="&#xf4e3;" horiz-adv-x="1187" 
d="M512 -16q-211 0 -395 67v189q168 -76 381 -76q171 0 264.5 64.5t93.5 181.5q0 122 -97 187t-278 65h-174v167h164q180 0 262 61.5t82 166.5q0 104 -83 158.5t-243 54.5q-194 0 -348 -70v186q165 64 377 64q232 0 363 -95t131 -268q0 -131 -83 -221.5t-227 -113.5v-4
q92 -12 161 -44.5t109.5 -80t60.5 -103.5t20 -121q0 -89 -32 -161t-84.5 -118.5t-123.5 -77.5t-146 -44.5t-155 -13.5z" />
    <glyph glyph-name="four.tab" unicode="&#xf4e4;" horiz-adv-x="1187" 
d="M723 0v336h-680v170l592 928h272v-930h219v-168h-219v-336h-184zM250 504h473v747h-4z" />
    <glyph glyph-name="five.tab" unicode="&#xf4e5;" horiz-adv-x="1187" 
d="M463 -16q-184 0 -330 53v186q104 -36 168.5 -49.5t140.5 -13.5q412 0 412 303q0 278 -360 278q-174 0 -316 -53l41 746h750v-181h-588l-21 -364q106 20 185 20q233 0 369.5 -117t136.5 -325q0 -236 -157 -359.5t-431 -123.5z" />
    <glyph glyph-name="six.tab" unicode="&#xf4e6;" horiz-adv-x="1187" 
d="M612 -20q-110 0 -195.5 38.5t-140 103t-89.5 155.5t-49.5 187.5t-14.5 207.5q0 166 38.5 307t112.5 247.5t191.5 167t265.5 60.5q122 0 232 -39v-188q-125 51 -234 51q-136 0 -235 -72.5t-147 -195.5t-46 -281q62 79 142 124.5t198 45.5q194 0 314 -121.5t120 -328.5
q0 -130 -54 -235.5t-161 -169.5t-248 -64zM612 147q126 0 196.5 84.5t70.5 217.5q0 125 -65.5 203.5t-192.5 78.5q-132 0 -206.5 -78.5t-74.5 -203.5q0 -134 68.5 -218t203.5 -84z" />
    <glyph glyph-name="seven.tab" unicode="&#xf4e7;" horiz-adv-x="1187" 
d="M215 0l647 1253h-819v181h1040v-172l-643 -1262h-225z" />
    <glyph glyph-name="eight.tab" unicode="&#xf4e8;" horiz-adv-x="1187" 
d="M598 -20q-132 0 -241.5 47t-176.5 139.5t-67 212.5q0 133 77 227.5t213 147.5v4q-130 66 -195 150.5t-65 205.5q0 109 64.5 188t163 115.5t215.5 36.5q122 0 221.5 -38.5t160 -114.5t60.5 -177q0 -46 -11 -88t-31.5 -75.5t-41.5 -60t-50 -50t-47.5 -36.5t-43.5 -28.5
t-29 -17.5v-2q132 -56 216.5 -154t84.5 -231q0 -192 -133.5 -296.5t-343.5 -104.5zM606 147q121 0 191.5 67.5t70.5 174.5q0 52 -19.5 92t-66.5 75t-94 59.5t-133 62.5q-139 -74 -188.5 -139t-49.5 -150q0 -121 83 -181.5t206 -60.5zM635 825q104 71 147 132.5t43 134.5
q0 97 -68.5 145.5t-170.5 48.5t-173 -53t-71 -141q0 -79 69.5 -139.5t223.5 -127.5z" />
    <glyph glyph-name="nine.tab" unicode="&#xf4e9;" horiz-adv-x="1187" 
d="M569 1454q109 0 196 -40.5t142 -106.5t91.5 -157t51.5 -185t15 -197q0 -139 -19.5 -256t-63 -216.5t-109 -169t-161.5 -108t-216 -38.5q-163 0 -273 38v189q118 -47 271 -47q103 0 180.5 40.5t124 115t68.5 172t20 217.5q-112 -170 -340 -170q-194 0 -314 121.5
t-120 328.5q0 134 52.5 239.5t157 167.5t246.5 62zM567 1290q-124 0 -191 -85t-67 -220q0 -125 66 -204t192 -79q132 0 206.5 79t74.5 204q0 133 -73 219t-208 86z" />
    <glyph glyph-name="uni20B8.fitted" unicode="&#xf5fd;" horiz-adv-x="1187" 
d="M496 0v977h-406v143h1008v-143h-406v-977h-196zM90 1290v144h1008v-144h-1008z" />
    <glyph glyph-name="uniF643" unicode="&#xf643;" horiz-adv-x="1187" 
d="M594 -16q-219 0 -350 143.5t-131 394.5t131 395t350 144t350 -144t131 -395t-131 -394.5t-350 -143.5zM594 152q134 0 209.5 93t75.5 277t-75.5 277.5t-209.5 93.5t-209.5 -93.5t-75.5 -277.5t75.5 -277t209.5 -93z" />
    <glyph glyph-name="uniF644" unicode="&#xf644;" horiz-adv-x="1187" 
d="M174 168h408v657l-334 -233l-98 135l454 317h182v-876h312v-168h-924v168z" />
    <glyph glyph-name="uniF645" unicode="&#xf645;" horiz-adv-x="1187" 
d="M94 0v205q222 114 359.5 194.5t209 141t95.5 103t24 91.5q0 43 -16 74t-38.5 47t-57.5 25.5t-61.5 11.5t-61.5 2q-113 0 -198 -20.5t-193 -63.5l-21 174q213 76 438 76q108 0 188.5 -19.5t125 -48.5t71 -71.5t34 -79t7.5 -80.5q0 -74 -25.5 -134t-95.5 -130.5
t-197 -149.5t-327 -180h650v-168h-910z" />
    <glyph glyph-name="uniF646" unicode="&#xf646;" horiz-adv-x="1187" 
d="M496 -414q-200 0 -390 68v188q166 -75 367 -75q169 0 266 65t97 180q0 124 -112 190t-296 66h-149v168h139q187 0 286 63t99 173q0 98 -84 153.5t-242 55.5q-192 0 -346 -70v186q158 64 375 64q231 0 362 -97.5t131 -271.5q0 -133 -84.5 -222t-232.5 -112v-4
q92 -12 160.5 -45t109.5 -82t60.5 -106t19.5 -123q0 -89 -32 -160.5t-84 -117.5t-122.5 -77t-144.5 -44t-153 -13z" />
    <glyph glyph-name="uniF647" unicode="&#xf647;" horiz-adv-x="1187" 
d="M752 -389v389h-729v170l641 874h292v-876h193v-168h-193v-389h-204zM229 168h523v709h-4z" />
    <glyph glyph-name="uniF648" unicode="&#xf648;" horiz-adv-x="1187" 
d="M496 -414q-201 0 -353 54v186q198 -68 330 -68q190 0 297 78t107 225q0 291 -379 291q-179 0 -340 -53l41 745h802v-180h-641l-20 -364q161 20 215 20q241 0 379.5 -115.5t138.5 -332.5q0 -233 -152.5 -359.5t-424.5 -126.5z" />
    <glyph glyph-name="uniF649" unicode="&#xf649;" horiz-adv-x="1187" 
d="M612 -20q-110 0 -195.5 38.5t-140 103t-89.5 155.5t-49.5 187.5t-14.5 207.5q0 166 38.5 307t112.5 247.5t191.5 167t265.5 60.5q122 0 232 -39v-188q-125 51 -234 51q-136 0 -235 -72.5t-147 -195.5t-46 -281q62 79 142 124.5t198 45.5q194 0 314 -121.5t120 -328.5
q0 -130 -54 -235.5t-161 -169.5t-248 -64zM612 147q126 0 196.5 84.5t70.5 217.5q0 125 -65.5 203.5t-192.5 78.5q-132 0 -206.5 -78.5t-74.5 -203.5q0 -134 68.5 -218t203.5 -84z" />
    <glyph glyph-name="uniF64A" unicode="&#xf64a;" horiz-adv-x="1187" 
d="M229 -389l619 1266h-752v167h965v-167l-606 -1266h-226z" />
    <glyph glyph-name="uniF64B" unicode="&#xf64b;" horiz-adv-x="1187" 
d="M598 -20q-132 0 -241.5 47t-176.5 139.5t-67 212.5q0 133 77 227.5t213 147.5v4q-130 66 -195 150.5t-65 205.5q0 109 64.5 188t163 115.5t215.5 36.5q122 0 221.5 -38.5t160 -114.5t60.5 -177q0 -46 -11 -88t-31.5 -75.5t-41.5 -60t-50 -50t-47.5 -36.5t-43.5 -28.5
t-29 -17.5v-2q132 -56 216.5 -154t84.5 -231q0 -192 -133.5 -296.5t-343.5 -104.5zM606 147q121 0 191.5 67.5t70.5 174.5q0 52 -19.5 92t-66.5 75t-94 59.5t-133 62.5q-139 -74 -188.5 -139t-49.5 -150q0 -121 83 -181.5t206 -60.5zM635 825q104 71 147 132.5t43 134.5
q0 97 -68.5 145.5t-170.5 48.5t-173 -53t-71 -141q0 -79 69.5 -139.5t223.5 -127.5z" />
    <glyph glyph-name="uniF64C" unicode="&#xf64c;" horiz-adv-x="1187" 
d="M567 1061q110 0 195.5 -38.5t140 -103t90 -155.5t50 -187.5t14.5 -207.5q0 -166 -38.5 -307.5t-112.5 -248t-191.5 -167t-265.5 -60.5q-122 0 -232 39v189q127 -52 234 -52q136 0 235 72.5t147 195.5t46 281q-62 -79 -142 -124.5t-198 -45.5q-194 0 -314.5 122
t-120.5 329q0 130 54 235.5t161 169.5t248 64zM567 893q-126 0 -196 -84t-70 -217q0 -125 66 -204t192 -79q132 0 206.5 79t74.5 204q0 133 -69 217t-204 84z" />
    <glyph glyph-name="uniF6BA" unicode="&#xf6ba;" 
d="M113 653v181h594v-181h-594z" />
    <glyph glyph-name="uniF6BB" unicode="&#xf6bb;" horiz-adv-x="1351" 
d="M113 653v181h1126v-181h-1126z" />
    <glyph glyph-name="uniF6BC" unicode="&#xf6bc;" horiz-adv-x="1843" 
d="M113 653v181h1618v-181h-1618z" />
    <glyph glyph-name="uniF6C3" unicode="&#xf6c3;" horiz-adv-x="0" 
d="M106 -451l82 349h205l-143 -349h-144z" />
    <glyph glyph-name="uniF6C9" unicode="&#xf6c9;" 
d="M319 1536l146 256h246l-228 -256h-164z" />
    <glyph glyph-name="uniF6CA" unicode="&#xf6ca;" 
d="M297 1536l-213 246h205l121 -164l120 164h205l-213 -246h-225z" />
    <glyph glyph-name="uniF6CB" unicode="&#xf6cb;" 
d="M82 1536v205h217v-205h-217zM520 1536v205h217v-205h-217z" />
    <glyph glyph-name="uniF6CC" unicode="&#xf6cc;" 
d="M338 1753l156 295h223l-242 -295h-137zM82 1536v205h217v-205h-217zM520 1536v205h217v-205h-217z" />
    <glyph glyph-name="uniF6CE" unicode="&#xf6ce;" 
d="M330 1536l-217 254h245l136 -254h-164z" />
    <glyph glyph-name="uniF6CF" unicode="&#xf6cf;" 
d="M502 1536l180 266h225l-262 -266h-143zM131 1536l180 266h226l-263 -266h-143z" />
    <glyph glyph-name="uniF6D0" unicode="&#xf6d0;" 
d="M102 1577v143h615v-143h-615z" />
    <glyph glyph-name="uniF6D1" unicode="&#xf6d1;" 
d="M410 1516q-146 0 -238.5 70.5t-99.5 207.5h153q15 -135 185 -135q169 0 184 135h154q-7 -137 -99.5 -207.5t-238.5 -70.5z" />
    <glyph glyph-name="uniF6D4" unicode="&#xf6d4;" 
d="M416 1262q-137 0 -227.5 71t-96.5 207h146q10 -66 58 -102.5t120 -36.5q71 0 116.5 36t55.5 103h139q-6 -137 -91 -207.5t-220 -70.5z" />
    <glyph glyph-name="uniF6D7" unicode="&#xf6d7;" 
d="M61 1270v205h193v-205h-193zM565 1270v205h193v-205h-193zM307 1438l154 284h235l-235 -284h-154z" />
    <glyph glyph-name="uniF6DE" unicode="&#xf6de;" horiz-adv-x="1413" 
d="M92 537v143h1229v-143h-1229z" />
    <glyph glyph-name="commainferior" unicode="&#xf6e1;" 
d="M242 -451l82 349h204l-143 -349h-143z" />
    <glyph glyph-name="commasuperior" unicode="&#xf6e2;" 
d="M291 1116l65 420h189l-119 -420h-135z" />
    <glyph glyph-name="zerooldstyle" unicode="&#xf730;" horiz-adv-x="1269" 
d="M635 -16q-236 0 -377 143.5t-141 394.5t141 395t377 144t377 -144t141 -395t-141 -394.5t-377 -143.5zM635 152q152 0 236.5 92.5t84.5 277.5t-84.5 278t-236.5 93t-237 -93.5t-85 -277.5t85 -277t237 -93z" />
    <glyph glyph-name="oneoldstyle" unicode="&#xf731;" horiz-adv-x="808" 
d="M403 2v809l-260 -223l-108 139l391 320h182v-1045h-205z" />
    <glyph glyph-name="twooldstyle" unicode="&#xf732;" horiz-adv-x="1085" 
d="M92 0v205q193 108 319.5 192t192 147.5t90.5 110.5t25 95q0 46 -19.5 77t-54.5 44t-65.5 17.5t-71.5 4.5q-104 0 -184.5 -22.5t-165.5 -67.5l-21 174q91 47 183 65.5t208 18.5q408 0 408 -303q0 -73 -26 -136t-91 -133.5t-180.5 -148.5t-290.5 -172h608v-168h-864z" />
    <glyph glyph-name="threeoldstyle" unicode="&#xf733;" horiz-adv-x="1054" 
d="M420 -414q-176 0 -354 68v188q156 -75 342 -75q160 0 251 64.5t91 178.5q0 124 -107.5 191t-280.5 67h-124v168h114q176 0 270.5 62.5t94.5 169.5q0 100 -79 156.5t-226 56.5q-179 0 -322 -70v186q149 64 350 64q223 0 348 -94.5t125 -266.5q0 -131 -82 -224t-215 -116
v-6q165 -29 247.5 -117.5t82.5 -222.5q0 -88 -31 -160.5t-82 -121.5t-120 -82.5t-142.5 -48.5t-150.5 -15z" />
    <glyph glyph-name="fouroldstyle" unicode="&#xf734;" horiz-adv-x="1167" 
d="M725 -389v389h-688v170l600 874h293v-876h196v-168h-196v-389h-205zM244 168h481v704h-4z" />
    <glyph glyph-name="fiveoldstyle" unicode="&#xf735;" horiz-adv-x="1126" 
d="M444 -414q-160 0 -294 54v186q96 -37 155.5 -51.5t130.5 -14.5q187 0 296.5 77.5t109.5 225.5q0 143 -98 215t-277 72q-161 0 -303 -53l41 747h758v-180h-596l-21 -366q103 20 174 20q239 0 378.5 -116.5t139.5 -325.5q0 -239 -159.5 -364.5t-434.5 -125.5z" />
    <glyph glyph-name="sixoldstyle" unicode="&#xf736;" horiz-adv-x="1228" 
d="M621 -20q-109 0 -196 39t-142.5 104t-92.5 155.5t-52 187.5t-15 206q0 169 40 310.5t116 247.5t195 165t269 59q121 0 228 -39v-184q-122 51 -226 51q-140 0 -242.5 -73.5t-153 -197.5t-48.5 -282q58 76 146.5 123t199.5 47q196 0 318 -121.5t122 -328.5
q0 -130 -53.5 -235t-161 -169.5t-251.5 -64.5zM621 147q129 0 199.5 84t70.5 218q0 125 -68.5 203.5t-199.5 78.5q-132 0 -207.5 -78.5t-75.5 -203.5q0 -132 72.5 -217t208.5 -85z" />
    <glyph glyph-name="sevenoldstyle" unicode="&#xf737;" horiz-adv-x="1064" 
d="M207 -389l557 1266h-698v167h907v-167l-541 -1266h-225z" />
    <glyph glyph-name="eightoldstyle" unicode="&#xf738;" horiz-adv-x="1228" 
d="M621 -20q-138 0 -253 47t-185 139.5t-70 212.5q0 134 82.5 228t230.5 147v4q-141 66 -210 148.5t-69 201.5q0 84 38.5 151t103 109t146.5 64t173 22q128 0 233 -38t168.5 -114.5t63.5 -177.5q0 -60 -20 -113.5t-49 -89.5t-66.5 -67t-66.5 -48.5t-54 -31.5q-9 -4 -12 -6
v-2q140 -55 225.5 -152t85.5 -229q0 -131 -66.5 -224t-176.5 -137t-252 -44zM629 147q127 0 201.5 65t74.5 171q0 52 -21 93t-68.5 76.5t-99 62t-138.5 63.5q-150 -74 -202 -137t-52 -146q0 -64 25 -113t68.5 -77.5t97 -43t114.5 -14.5zM657 825q111 71 157 132.5t46 134.5
q0 97 -73 145.5t-183 48.5q-107 0 -181.5 -53t-74.5 -141q0 -79 73 -139.5t236 -127.5z" />
    <glyph glyph-name="nineoldstyle" unicode="&#xf739;" horiz-adv-x="1228" 
d="M561 1061q110 0 197.5 -36.5t144.5 -99t95 -151t54.5 -187t16.5 -212.5q0 -174 -33.5 -315t-103 -248.5t-184 -166.5t-267.5 -59t-266 39v189q118 -47 264 -47q209 0 312 148.5t100 395.5q-117 -170 -342 -170q-199 0 -322 122t-123 329t120.5 338t336.5 131zM569 895
q-129 0 -198.5 -84.5t-69.5 -218.5q0 -125 68.5 -204t199.5 -79q132 0 207.5 79t75.5 204q0 132 -73.5 217.5t-209.5 85.5z" />
    <glyph glyph-name="uniFEFF" unicode="&#xfeff;" horiz-adv-x="0" 
 />
    <glyph glyph-name="uni058F.fitted" horiz-adv-x="1187" 
d="M393 545v143h357v236q0 193 -56.5 275.5t-173.5 82.5t-173 -81.5t-56 -274.5v-56h-205v56q0 528 434 528t434 -530v-236h189v-143h-189v-135h189v-144h-189v-266h-204v266h-357v144h357v135h-357z" />
    <glyph glyph-name="franc.fitted" horiz-adv-x="1187" 
d="M254 0v260h-150v143h150v1031h774v-181h-582v-419h562v-181h-562v-250h293v-143h-293v-260h-192z" />
    <glyph glyph-name="uni20BE.fitted" horiz-adv-x="1187" 
d="M451 717v516q-146 -113 -146 -496q0 -275 108 -416t300 -141h286v-180h-872v180h192q-93 78 -151.5 229.5t-58.5 342.5q0 270 84.5 448t255.5 230v208h106v-190q10 2 35 2q8 0 23.5 -1t23.5 -1v190h106v-215q165 -60 246.5 -246t81.5 -460h-197q0 381 -133 504v-504h-98
v555q-24 6 -53 6q-17 0 -41 -4v-557h-98z" />
    <glyph glyph-name="uni20BC.fitted" horiz-adv-x="1187" 
d="M51 0q0 1074 451 1165v269h184v-269q451 -91 451 -1165h-197q0 258 -18.5 444t-54 296.5t-79.5 168.5t-102 80v-989h-184v989q-59 -22 -103.5 -80t-79.5 -169t-53 -296.5t-18 -443.5h-197z" />
    <glyph glyph-name="caron.Slovak" 
d="M233 1217l82 344h205l-143 -344h-144z" />
    <glyph glyph-name="uni0326.cap" 
d="M233 -512l82 410h220l-144 -410h-158z" />
    <glyph glyph-name="dotaccent.cap" 
d="M295 1540v209h229v-209h-229z" />
    <glyph glyph-name="dieresis.cap" 
d="M82 1536v205h217v-205h-217zM520 1536v205h217v-205h-217z" />
    <glyph glyph-name="grave.cap" 
d="M330 1536l-217 254h245l136 -254h-164z" />
    <glyph glyph-name="acute.cap" 
d="M319 1536l146 256h246l-228 -256h-164z" />
    <glyph glyph-name="hungarumlaut.cap" 
d="M502 1536l180 266h225l-262 -266h-143zM131 1536l180 266h226l-263 -266h-143z" />
    <glyph glyph-name="circumflex.cap" 
d="M84 1536l213 246h225l213 -246h-196l-129 150l-129 -150h-197z" />
    <glyph glyph-name="caron.cap" 
d="M297 1536l-213 246h205l121 -164l120 164h205l-213 -246h-225z" />
    <glyph glyph-name="breve.cap" 
d="M410 1524q-124 0 -220.5 65.5t-130.5 192.5h144q39 -115 207 -115q167 0 206 115h144q-34 -127 -130 -192.5t-220 -65.5z" />
    <glyph glyph-name="ring.cap" 
d="M410 1462q-86 0 -147.5 61.5t-61.5 147.5t61.5 147.5t147.5 61.5t147 -61.5t61 -147.5t-61 -147.5t-147 -61.5zM410 1544q54 0 90.5 36.5t36.5 90.5t-36.5 90.5t-90.5 36.5t-90.5 -36.5t-36.5 -90.5t36.5 -90.5t90.5 -36.5z" />
    <glyph glyph-name="tilde.cap" 
d="M61 1532q6 94 58.5 161.5t138.5 67.5q50 0 159 -47t150 -47t61.5 23.5t30.5 70.5h99q-32 -229 -195 -229q-48 0 -159.5 47t-153.5 47q-43 0 -62 -24t-28 -70h-99z" />
    <glyph glyph-name="macron.cap" 
d="M102 1577v143h615v-143h-615z" />
    <glyph glyph-name="dieresis.narrow" 
d="M467 1270v205h192v-205h-192zM160 1270v205h192v-205h-192z" />
    <glyph glyph-name="circumflex.narrow" 
d="M154 1249l163 267h185l164 -267h-156l-100 172l-101 -172h-155z" />
    <glyph glyph-name="caron.narrow" 
d="M324 1249l-170 267h155l101 -173l100 173h156l-172 -267h-170z" />
    <glyph glyph-name="macron.narrow" 
d="M143 1341v144h533v-144h-533z" />
    <glyph glyph-name="dieresis.cap.narrow" 
d="M123 1536v205h217v-205h-217zM479 1536v205h217v-205h-217z" />
    <glyph glyph-name="circumflex.cap.narrow" 
d="M125 1536l172 246h225l172 -246h-184l-100 143l-101 -143h-184z" />
    <glyph glyph-name="caron.cap.narrow" 
d="M297 1536l-172 246h184l101 -144l100 144h184l-172 -246h-225z" />
    <glyph glyph-name="macron.cap.narrow" 
d="M164 1577v143h491v-143h-491z" />
    <glyph glyph-name="commaturn" 
d="M317 1217l144 380h143l-82 -380h-205z" />
    <glyph glyph-name="cyrdieresis.cap" 
d="M82 1536v205h217v-205h-217zM520 1536v205h217v-205h-217z" />
    <glyph glyph-name="cyrdieresis" 
d="M121 1270v205h192v-205h-192zM506 1270v205h192v-205h-192z" />
    <glyph glyph-name="cyrdieresis.narrow" 
d="M197 1270v205h172v-205h-172zM451 1270v205h172v-205h-172z" />
    <glyph glyph-name="cyrdieresis.cap.narrow" 
d="M164 1536v205h196v-205h-196zM459 1536v205h196v-205h-196z" />
    </font>
</defs>
</svg>
