<?xml version="1.0" standalone="no"?>
<!DOCTYPE svg PUBLIC "-//W3C//DTD SVG 1.1//EN" "http://www.w3.org/Graphics/SVG/1.1/DTD/svg11.dtd" >
<svg xmlns="http://www.w3.org/2000/svg" xmlns:xlink="http://www.w3.org/1999/xlink" version="1.1">
<metadata>
Created by FontForge 20170731 at Mon Apr 24 14:02:21 2023
 By Aleksey,,,
Copyright (c) 1992 ParaType Inc., ParaType Ltd. All rights reserved.
</metadata>
<defs>
<font id="VTBGroupUI-DemiBold" horiz-adv-x="819" >
  <font-face 
    font-family="VTB Group UI Demi Bold"
    font-weight="600"
    font-stretch="normal"
    units-per-em="2048"
    panose-1="2 11 7 3 5 5 4 2 2 4"
    ascent="1583"
    descent="-465"
    x-height="1069"
    cap-height="1434"
    bbox="-1014 -512 2605 2056"
    underline-thickness="102"
    underline-position="-307"
    unicode-range="U+0020-FEFF"
  />
<missing-glyph horiz-adv-x="471" 
 />
    <glyph glyph-name="IJ" unicode="IJ" horiz-adv-x="1331" 
d="M147 0v1434h340v-1434h-340zM750 -23q-90 0 -160 23v262q62 -16 98 -16q49 0 82.5 24t50 70.5t23 97.5t6.5 121v875h338v-975q0 -239 -111 -360.5t-327 -121.5z" />
    <glyph glyph-name="ij" unicode="ij" horiz-adv-x="1187" 
d="M133 0v1069h330v-1069h-330zM131 1245v256h332v-256h-332zM684 -459q-41 0 -137 17v252q54 -9 69 -9q61 0 86 42.5t25 129.5v1096h330v-1104q0 -222 -92 -323t-281 -101zM725 1245v256h332v-256h-332z" />
    <glyph glyph-name="uni0410.var.accented" unicode="&#x410;`" horiz-adv-x="1413" 
d="M16 0l494 1434h393l494 -1434h-367l-88 285h-487l-88 -285h-351zM696 1069l-159 -518h323l-160 518h-4zM594 1522l129 274h340l-240 -274h-229z" />
    <glyph glyph-name="uni0415.var.accented" unicode="&#x415;`" horiz-adv-x="1105" 
d="M147 0v1434h859v-287h-521v-275h478v-274h-478v-311h531v-287h-869zM475 1522l129 274h340l-239 -274h-230z" />
    <glyph glyph-name="uni0418.var.accented" unicode="&#x418;`" horiz-adv-x="1515" 
d="M147 0v1434h328v-744l-4 -250h10l78 162l414 832h395v-1434h-328v739l4 256h-10l-86 -178l-405 -817h-396zM645 1522l129 274h340l-240 -274h-229z" />
    <glyph glyph-name="uni041E.var.accented" unicode="&#x41e;`" horiz-adv-x="1536" 
d="M768 -23q-326 0 -504 198t-178 542q0 347 178.5 543t503.5 196q327 0 504.5 -197t177.5 -542q0 -347 -178.5 -543.5t-503.5 -196.5zM768 258q108 0 184 63.5t110 165t34 230.5q0 203 -84.5 332t-243.5 129q-108 0 -184 -64t-110 -166t-34 -231q0 -132 34.5 -233.5
t110 -163.5t183.5 -62zM655 1522l129 274h340l-239 -274h-230z" />
    <glyph glyph-name="uni0423.var.accented" unicode="&#x423;`" horiz-adv-x="1269" 
d="M199 272q76 -28 133 -28q109 0 162 100l-478 1090h369l268 -697h6l236 697h358l-456 -1112q-76 -186 -169.5 -265.5t-244.5 -79.5q-96 0 -184 39v256zM522 1522l129 274h340l-239 -274h-230z" />
    <glyph glyph-name="uni042B.var.accented" unicode="&#x42b;`" horiz-adv-x="1792" 
d="M147 0v1434h338v-490h121q277 0 406 -119t129 -354q0 -223 -134 -347t-401 -124h-459zM485 262h121q92 0 139.5 54t47.5 155q0 103 -47.5 157t-139.5 54h-121v-420zM1307 0v1434h338v-1434h-338zM784 1522l129 274h340l-239 -274h-230z" />
    <glyph glyph-name="uni042D.var.accented" unicode="&#x42d;`" horiz-adv-x="1310" 
d="M397 260q192 0 310.5 84.5t150.5 251.5h-545v262h545q-33 159 -146.5 238.5t-289.5 79.5q-180 0 -336 -72v287q152 65 360 65q368 0 573.5 -198.5t205.5 -542.5q0 -343 -209 -540.5t-590 -197.5q-173 0 -338 52v282q160 -51 309 -51zM420 1522l129 274h340l-240 -274
h-229z" />
    <glyph glyph-name="uni042E.var.accented" unicode="&#x42e;`" horiz-adv-x="2037" 
d="M1290 -23q-282 0 -448 169.5t-195 455.5h-162v-602h-338v1434h338v-555h168q39 277 208 427t429 150q318 0 490 -198.5t172 -540.5q0 -343 -172.5 -541.5t-489.5 -198.5zM1290 258q104 0 175 66t101.5 166.5t30.5 226.5q0 131 -32 232.5t-102.5 165t-172.5 63.5
q-78 0 -138 -36.5t-96.5 -101t-54.5 -146.5t-18 -177q0 -130 31.5 -231t102 -164.5t173.5 -63.5zM889 1522l129 274h340l-240 -274h-229z" />
    <glyph glyph-name="uni042F.var.accented" unicode="&#x42f;`" horiz-adv-x="1290" 
d="M20 0l302 573q-230 121 -230 392q0 220 139.5 344.5t409.5 124.5h502v-1434h-338v487h-182l-224 -487h-379zM651 743h154v428h-154q-103 0 -159 -54.5t-56 -155.5q0 -102 56.5 -160t158.5 -58zM539 1522l129 274h340l-240 -274h-229z" />
    <glyph glyph-name="uni0401.var.accented" unicode="&#x401;`" horiz-adv-x="1105" 
d="M147 0v1434h859v-287h-521v-275h478v-274h-478v-311h531v-287h-869zM481 1761l144 295h303l-262 -295h-185zM186 1522v262h256v-262h-256zM735 1522v262h254v-262h-254z" />
    <glyph glyph-name="uni0430.var.accented" unicode="&#x430;`" horiz-adv-x="1142" 
d="M389 -23q-143 0 -238.5 85.5t-95.5 242.5q0 354 518 354h138v21q0 162 -228 162q-155 0 -329 -58v250q185 53 387 53q112 0 200 -23t155.5 -72t103.5 -131.5t36 -194.5v-666h-305v166h-6q-53 -91 -142 -140t-194 -49zM508 199q84 0 143.5 74t59.5 167v43h-109
q-105 0 -161 -42.5t-56 -116.5q0 -61 35 -93t88 -32zM461 1221l133 309h340l-268 -309h-205z" />
    <glyph glyph-name="uni0435.var.accented" unicode="&#x435;`" horiz-adv-x="1177" 
d="M1094 442h-680q19 -116 87 -169.5t197 -53.5q147 0 330 43v-237q-192 -48 -360 -48q-282 0 -437 150.5t-155 411.5q0 251 145 399.5t381 148.5q241 0 366.5 -152.5t125.5 -428.5v-64zM604 850q-84 0 -132 -59.5t-62 -159.5h372q5 98 -43.5 158.5t-134.5 60.5zM485 1221
l133 309h340l-268 -309h-205z" />
    <glyph glyph-name="uni0438.var.accented" unicode="&#x438;`" horiz-adv-x="1259" 
d="M133 0v1069h324v-614h4l354 614h311v-1069h-323v618h-4l-363 -618h-303zM522 1221l133 309h340l-268 -309h-205z" />
    <glyph glyph-name="uni043E.var.accented" unicode="&#x43e;`" horiz-adv-x="1269" 
d="M635 -23q-250 0 -404.5 151t-154.5 402q0 253 156.5 405t402.5 152q248 0 403.5 -152.5t155.5 -404.5q0 -253 -154.5 -403t-404.5 -150zM635 223q100 0 159.5 85.5t59.5 221.5q0 138 -60 225t-159 87t-159 -88t-60 -224q0 -137 60 -222t159 -85zM526 1221l133 309h340
l-268 -309h-205z" />
    <glyph glyph-name="uni0443.var.accented" unicode="&#x443;`" horiz-adv-x="1126" 
d="M283 -461q-21 0 -44.5 2t-39 4.5t-41.5 6.5l-39 6v262q87 -10 102 -10q129 0 172 120l4 13l-381 1126h365l182 -709l197 709h350l-383 -1126q-73 -215 -175 -309.5t-269 -94.5zM457 1221l133 309h340l-268 -309h-205z" />
    <glyph glyph-name="uni044B.var.accented" unicode="&#x44b;`" horiz-adv-x="1587" 
d="M133 0v1069h330v-326h123q224 0 331 -98.5t107 -265.5q0 -175 -102.5 -277t-317.5 -102h-471zM459 225h88q70 0 104.5 39.5t34.5 110.5q0 67 -34.5 105t-104.5 38h-88v-293zM1124 0v1069h330v-1069h-330zM686 1221l133 309h340l-268 -309h-205z" />
    <glyph glyph-name="uni044D.var.accented" unicode="&#x44d;`" horiz-adv-x="1024" 
d="M332 221q232 0 280 213h-397v213h397q-47 197 -284 197q-114 0 -228 -29v238q153 34 258 34q125 0 230 -33.5t186.5 -99t127.5 -173t46 -246.5q0 -260 -156 -409t-432 -149q-30 0 -59 1.5t-54 5t-45.5 7t-40 8t-30.5 7.5t-25 7t-16 5v240q159 -37 242 -37zM399 1221
l133 309h340l-268 -309h-205z" />
    <glyph glyph-name="uni044E.var.accented" unicode="&#x44e;`" horiz-adv-x="1716" 
d="M133 0v1069h330v-405h151q38 198 176 310.5t332 112.5q227 0 372.5 -151t145.5 -406q0 -254 -145 -403.5t-373 -149.5q-204 0 -342 116.5t-168 324.5h-149v-418h-330zM1122 223q89 0 136 81.5t47 230.5q0 152 -48 229.5t-135 77.5q-89 0 -135.5 -78.5t-46.5 -228.5
q0 -152 47.5 -232t134.5 -80zM750 1221l133 309h340l-269 -309h-204z" />
    <glyph glyph-name="uni044F.var.accented" unicode="&#x44f;`" horiz-adv-x="1146" 
d="M27 0l229 416q-172 101 -172 301q0 164 118.5 258t356.5 94h455v-1069h-330v340h-137l-156 -340h-364zM582 549h106v305h-106q-81 0 -122.5 -39t-41.5 -110q0 -72 42 -114t122 -42zM471 1221l133 309h340l-268 -309h-205z" />
    <glyph glyph-name="uni0451.var.accented" unicode="&#x451;`" horiz-adv-x="1177" 
d="M1094 442h-680q19 -116 87 -169.5t197 -53.5q147 0 330 43v-237q-192 -48 -360 -48q-282 0 -437 150.5t-155 411.5q0 251 145 399.5t381 148.5q241 0 366.5 -152.5t125.5 -428.5v-64zM604 850q-84 0 -132 -59.5t-62 -159.5h372q5 98 -43.5 158.5t-134.5 60.5zM150 1249
v252h264v-252h-264zM774 1249v252h264v-252h-264zM451 1452l145 293h338l-256 -293h-227z" />
    <glyph glyph-name="fi" unicode="fi" horiz-adv-x="1320" 
d="M35 813v256h162v74q0 218 96 320t301 102q49 0 145 -11v-229q-27 4 -71 4q-80 0 -112 -43.5t-32 -161.5v-55h211v-256h-211v-813h-327v813h-162zM860 0v1069h330v-1069h-330zM858 1245v256h332v-256h-332z" />
    <glyph glyph-name="fl" unicode="fl" horiz-adv-x="1320" 
d="M35 813v256h162v74q0 218 96 320t301 102q49 0 145 -11v-229q-27 4 -71 4q-80 0 -112 -43.5t-32 -161.5v-55h211v-256h-211v-813h-327v813h-162zM858 0v1542h332v-1542h-332z" />
    <glyph glyph-name=".notdef" horiz-adv-x="471" 
 />
    <glyph glyph-name=".null" horiz-adv-x="0" 
 />
    <glyph glyph-name="nonmarkingreturn" horiz-adv-x="682" 
 />
    <glyph glyph-name="space" unicode=" " horiz-adv-x="471" 
 />
    <glyph glyph-name="exclam" unicode="!" horiz-adv-x="737" 
d="M248 461l-47 973h336l-48 -973h-241zM213 0v301h311v-301h-311z" />
    <glyph glyph-name="quotedbl" unicode="&#x22;" horiz-adv-x="962" 
d="M545 893v541h243v-541h-243zM174 893v541h244v-541h-244z" />
    <glyph glyph-name="numbersign" unicode="#" horiz-adv-x="1187" 
d="M156 0l51 373h-150v217h181l36 254h-157v217h188l51 373h234l-53 -373h208l54 373h233l-53 -373h151v-217h-180l-37 -254h158v-217h-188l-52 -373h-210l51 373h-232l-51 -373h-233zM471 590h209l37 254h-209z" />
    <glyph glyph-name="dollar" unicode="$" horiz-adv-x="1187" 
d="M494 -205v185q-225 7 -392 59v287q79 -41 188 -65.5t208 -29.5v400q-71 22 -120 41t-109.5 54.5t-97 76.5t-62 105.5t-25.5 144.5q0 358 428 397v188h186v-186q180 -9 316 -49v-268q-136 60 -318 67v-348q73 -21 124 -41t110 -56t95 -79.5t60.5 -112t24.5 -153.5
q0 -177 -104 -290t-322 -138v-189h-190zM811 393q0 58 -35 104.5t-94 75.5v-329q129 37 129 149zM371 1073q0 -107 141 -166v289q-72 -12 -106.5 -41.5t-34.5 -81.5z" />
    <glyph glyph-name="percent" unicode="%" horiz-adv-x="1843" 
d="M311 0l994 1434h227l-993 -1434h-228zM451 717q-173 0 -273 100.5t-100 269.5q0 167 101 268t272 101q173 0 273.5 -100t100.5 -269q0 -167 -101 -268.5t-273 -101.5zM451 909q69 0 102 40.5t33 137.5q0 95 -33.5 136t-101.5 41q-66 0 -100 -41t-34 -136t34.5 -136.5
t99.5 -41.5zM1391 -23q-172 0 -272.5 100.5t-100.5 268.5t101 269.5t272 101.5q174 0 274 -100.5t100 -270.5q0 -166 -101.5 -267.5t-272.5 -101.5zM1391 170q68 0 101.5 40.5t33.5 135.5q0 97 -33 137.5t-102 40.5q-66 0 -100 -41t-34 -137q0 -94 34.5 -135t99.5 -41z" />
    <glyph glyph-name="ampersand" unicode="&#x26;" horiz-adv-x="1515" 
d="M631 -23q-155 0 -278.5 48.5t-196.5 141.5t-74 216q0 246 278 391q-91 86 -133.5 168.5t-42.5 173.5q0 112 63 190t166 114t236 36q201 0 331 -91.5t130 -248.5q0 -126 -88.5 -220.5t-257.5 -168.5q26 -24 138.5 -125.5t184.5 -171.5q73 123 87 344h282
q-14 -320 -192 -518q108 -111 241 -256h-372l-76 88q-192 -111 -426 -111zM897 262q-113 116 -377 363q-122 -82 -119 -207q2 -96 71 -150.5t194 -54.5q127 0 231 49zM475 1098q0 -112 121 -228q118 53 170.5 108.5t52.5 121.5q0 67 -48.5 100t-125.5 33q-76 0 -123 -32.5
t-47 -102.5z" />
    <glyph glyph-name="quotesingle" unicode="'" horiz-adv-x="573" 
d="M166 893v541h242v-541h-242z" />
    <glyph glyph-name="parenleft" unicode="(" horiz-adv-x="716" 
d="M449 -287q-325 432 -328 920q10 485 330 917h266q-138 -204 -219 -440t-82 -477q3 -243 80.5 -478t210.5 -442h-258z" />
    <glyph glyph-name="parenright" unicode=")" horiz-adv-x="716" 
d="M0 -287q137 207 217.5 442.5t83.5 477.5q-3 243 -83 478t-218 439h266q323 -422 330 -917q-7 -481 -330 -920h-266z" />
    <glyph glyph-name="asterisk" unicode="*" horiz-adv-x="1126" 
d="M410 625l-187 133l215 223l-301 59l72 220l283 -134l-39 308h231l-39 -304l277 130l69 -220l-303 -59l211 -223l-190 -135l-146 270z" />
    <glyph glyph-name="plus" unicode="+" horiz-adv-x="1187" 
d="M459 184v398h-391v270h391v399h270v-399h391v-270h-391v-398h-270z" />
    <glyph glyph-name="comma" unicode="," horiz-adv-x="573" 
d="M-2 -238l133 539h309l-192 -539h-250z" />
    <glyph glyph-name="hyphen" unicode="-" 
d="M106 471v287h609v-287h-609z" />
    <glyph glyph-name="period" unicode="." horiz-adv-x="573" 
d="M131 0v301h311v-301h-311z" />
    <glyph glyph-name="slash" unicode="/" horiz-adv-x="655" 
d="M-27 0l451 1434h258l-451 -1434h-258z" />
    <glyph glyph-name="zero" unicode="0" horiz-adv-x="1269" 
d="M635 -23q-266 0 -401.5 175t-135.5 565q0 199 35.5 342t105.5 229.5t167 127t227 40.5q132 0 230 -40.5t169 -127.5t106.5 -229.5t35.5 -341.5q0 -200 -36 -343.5t-107 -230t-168.5 -126.5t-227.5 -40zM635 233q49 0 84 22t63 75t42 149.5t14 237.5q0 142 -14 239
t-42.5 149t-64 73.5t-84.5 21.5q-48 0 -82 -21t-61.5 -73t-41.5 -149t-14 -240q0 -142 14 -239t42 -149.5t62.5 -74t82.5 -21.5z" />
    <glyph glyph-name="one" unicode="1" 
d="M326 0v1047l-179 -136l-151 217l397 306h262v-1434h-329z" />
    <glyph glyph-name="two" unicode="2" horiz-adv-x="1146" 
d="M70 0v252q51 42 132 115t113 100q189 167 280 297t91 244q0 192 -233 192q-162 0 -342 -80v266q201 70 389 70q259 0 393.5 -110.5t134.5 -307.5q0 -75 -23.5 -147.5t-61.5 -136t-104 -136t-133 -134.5t-167 -146l-86 -72h594v-266h-977z" />
    <glyph glyph-name="three" unicode="3" horiz-adv-x="1146" 
d="M469 -23q-222 0 -387 54v262q70 -28 170.5 -44t183.5 -16q140 0 212.5 50t72.5 143q0 90 -65 140t-201 50h-164v236h151q256 0 256 176q0 172 -237 172q-170 0 -334 -63v260q171 59 362 59q275 0 409 -103t134 -278q0 -250 -303 -323v-4q159 -26 243.5 -118t84.5 -229
q0 -191 -158.5 -307.5t-429.5 -116.5z" />
    <glyph glyph-name="four" unicode="4" horiz-adv-x="1187" 
d="M682 0v274h-641v267l590 893h368v-904h140v-256h-140v-274h-317zM315 530h367v543h-8z" />
    <glyph glyph-name="five" unicode="5" horiz-adv-x="1146" 
d="M467 -23q-202 0 -361 48v264q162 -56 324 -56q150 0 221.5 59.5t71.5 168.5q0 233 -311 233q-140 0 -291 -37q34 352 57 777h821v-267h-583l-17 -258q107 17 170 17q235 0 363.5 -112.5t128.5 -336.5q0 -232 -154.5 -366t-439.5 -134z" />
    <glyph glyph-name="six" unicode="6" horiz-adv-x="1228" 
d="M623 -23q-255 0 -393 183t-138 514q0 373 177.5 577.5t506.5 204.5q113 0 236 -35v-262q-27 12 -98.5 26.5t-145.5 14.5q-170 0 -257 -98.5t-95 -274.5h4q124 117 293 117q192 0 309 -123.5t117 -341.5q0 -221 -139.5 -361.5t-376.5 -140.5zM623 233q90 0 139 61.5
t49 168.5q0 111 -49 176.5t-139 65.5q-91 0 -142 -65t-51 -177q0 -107 50 -168.5t143 -61.5z" />
    <glyph glyph-name="seven" unicode="7" horiz-adv-x="1126" 
d="M172 0l537 1167h-650v267h996v-250l-537 -1184h-346z" />
    <glyph glyph-name="eight" unicode="8" horiz-adv-x="1228" 
d="M616 -23q-254 0 -400 113t-146 289q0 124 78 220t217 142v4q-256 123 -256 338q0 170 132.5 271.5t370.5 101.5q232 0 363 -99.5t131 -262.5q0 -63 -22.5 -118.5t-60.5 -96t-76.5 -68t-82.5 -49.5v-2q295 -117 295 -373q0 -185 -143.5 -297.5t-399.5 -112.5zM621 231
q88 0 145 45t57 127q0 87 -61.5 142.5t-171.5 97.5q-88 -42 -136 -105.5t-48 -134.5q0 -82 62 -127t153 -45zM641 846q152 93 152 221q0 70 -49.5 102.5t-131.5 32.5t-137 -34.5t-55 -98.5q0 -126 221 -223z" />
    <glyph glyph-name="nine" unicode="9" horiz-adv-x="1228" 
d="M600 1456q255 0 396 -178.5t141 -499.5q0 -801 -625 -801q-161 0 -297 39v265q24 -12 113 -30t168 -18q164 0 235.5 94t81.5 279h-4q-121 -117 -291 -117q-194 0 -311 123.5t-117 341.5q0 227 136.5 364.5t373.5 137.5zM604 1210q-90 0 -138 -63.5t-48 -173.5
q0 -114 48.5 -179t139.5 -65t142 65t51 179q0 110 -51 173.5t-144 63.5z" />
    <glyph glyph-name="colon" unicode=":" horiz-adv-x="573" 
d="M131 760v301h311v-301h-311zM131 0v301h311v-301h-311z" />
    <glyph glyph-name="semicolon" unicode=";" horiz-adv-x="573" 
d="M-2 -238l133 539h311l-192 -539h-252zM131 760v301h311v-301h-311z" />
    <glyph glyph-name="less" unicode="&#x3c;" horiz-adv-x="1187" 
d="M1044 422v-326l-915 477v287l915 477v-336l-620 -290z" />
    <glyph glyph-name="equal" unicode="=" horiz-adv-x="1187" 
d="M68 803v270h1052v-270h-1052zM68 360v271h1052v-271h-1052z" />
    <glyph glyph-name="greater" unicode="&#x3e;" horiz-adv-x="1187" 
d="M143 96v326l621 289l-621 290v336l916 -477v-287z" />
    <glyph glyph-name="question" unicode="?" horiz-adv-x="1024" 
d="M373 461v12q0 73 22 142t53.5 122.5t62.5 103t53 103.5t22 105q0 149 -176 149q-137 0 -260 -63v260q159 61 342 61q102 0 183.5 -19.5t143 -60t94.5 -107.5t33 -157q0 -83 -29.5 -153.5t-72.5 -122.5t-86.5 -103t-77.5 -118.5t-39 -143.5v-10h-268zM352 0v301h310v-301
h-310z" />
    <glyph glyph-name="at" unicode="@" horiz-adv-x="1740" 
d="M930 -276q-190 0 -348.5 61.5t-266.5 169.5t-167.5 258t-59.5 326q0 181 61 336t168.5 264t259 171t326.5 62q174 0 317 -55t237 -150t145 -221.5t51 -271.5q0 -111 -22 -203.5t-60.5 -156t-90.5 -108t-111.5 -65t-123.5 -20.5q-92 0 -153 41t-78 119q-41 -74 -117 -117
t-164 -43q-130 0 -210.5 97t-80.5 271q0 134 52.5 247.5t146 180t205.5 66.5q144 0 205 -121h4l16 90h236l-82 -471q-18 -78 -8 -126t61 -48q76 0 134 90t58 267q0 238 -144.5 386t-414.5 148q-285 0 -462 -182.5t-177 -478.5q0 -289 174 -464t480 -175q214 0 360 71v-182
q-58 -26 -155 -44.5t-201 -18.5zM827 317q59 0 101 50t60 116.5t18 137.5q0 155 -113 155q-60 0 -104.5 -43.5t-64 -106t-19.5 -132.5q0 -83 32 -130t90 -47z" />
    <glyph glyph-name="A" unicode="A" horiz-adv-x="1413" 
d="M16 0l494 1434h393l494 -1434h-367l-88 285h-487l-88 -285h-351zM696 1069l-159 -518h323l-160 518h-4z" />
    <glyph glyph-name="B" unicode="B" horiz-adv-x="1249" 
d="M147 0v1434h527q222 0 347.5 -92t125.5 -273q0 -127 -69.5 -211.5t-198.5 -120.5v-4q62 -11 114 -33.5t97.5 -60.5t71.5 -100t26 -142q0 -134 -67.5 -224t-187 -131.5t-286.5 -41.5h-500zM485 262h142q104 0 158.5 40.5t54.5 135.5q0 96 -55.5 140.5t-166.5 44.5h-133
v-361zM485 852h113q205 0 205 170q0 80 -45.5 114.5t-141.5 34.5h-131v-319z" />
    <glyph glyph-name="C" unicode="C" horiz-adv-x="1290" 
d="M868 -23q-192 0 -342.5 55t-246 154.5t-144.5 233.5t-49 295q0 179 56.5 320.5t158.5 233t242 139.5t309 48q86 0 170.5 -14t125.5 -28l42 -15v-287q-62 27 -147.5 45.5t-168.5 18.5q-200 0 -318 -118t-118 -345q0 -228 121.5 -342.5t329.5 -114.5q154 0 301 47v-280
q-155 -46 -322 -46z" />
    <glyph glyph-name="D" unicode="D" horiz-adv-x="1474" 
d="M147 0v1434h504q170 0 304 -41.5t232 -126.5t150 -222.5t52 -322.5q0 -186 -53 -325.5t-151.5 -225.5t-232 -128t-301.5 -42h-504zM485 287h170q184 0 281.5 108t97.5 316q0 210 -98 323t-272 113h-179v-860z" />
    <glyph glyph-name="E" unicode="E" horiz-adv-x="1105" 
d="M147 0v1434h859v-287h-521v-275h478v-274h-478v-311h531v-287h-869z" />
    <glyph glyph-name="F" unicode="F" horiz-adv-x="1064" 
d="M147 0v1434h861v-277h-523v-311h494v-277h-494v-569h-338z" />
    <glyph glyph-name="G" unicode="G" horiz-adv-x="1464" 
d="M866 -23q-372 0 -576 195t-204 553q0 236 99.5 402t275 247.5t413.5 81.5q255 0 431 -61v-281q-190 64 -396 64q-231 0 -351 -119t-120 -346q0 -219 117 -345t319 -126q79 0 154 16l4 297h-252v266h559v-780q-227 -64 -473 -64z" />
    <glyph glyph-name="H" unicode="H" horiz-adv-x="1474" 
d="M147 0v1434h338v-549h504v549h338v-1434h-338v598h-504v-598h-338z" />
    <glyph glyph-name="I" unicode="I" horiz-adv-x="634" 
d="M147 0v1434h340v-1434h-340z" />
    <glyph glyph-name="J" unicode="J" horiz-adv-x="778" 
d="M197 -23q-90 0 -160 23v262q62 -16 98 -16q49 0 82.5 24t50 70.5t23 97.5t6.5 121v875h338v-975q0 -239 -111 -360.5t-327 -121.5z" />
    <glyph glyph-name="K" unicode="K" horiz-adv-x="1320" 
d="M147 0v1434h338v-551h101l334 551h376l-428 -680l451 -754h-391l-344 616h-99v-616h-338z" />
    <glyph glyph-name="L" unicode="L" horiz-adv-x="1064" 
d="M147 0v1434h338v-1147h547v-287h-885z" />
    <glyph glyph-name="M" unicode="M" horiz-adv-x="1761" 
d="M147 0v1434h441l297 -736l313 736h416v-1434h-324v1006h-8l-293 -660h-227l-281 662h-10v-1008h-324z" />
    <glyph glyph-name="N" unicode="N" horiz-adv-x="1495" 
d="M147 0v1434h426l455 -965h4l-8 149v816h324v-1434h-406l-471 995h-4l4 -151v-844h-324z" />
    <glyph glyph-name="O" unicode="O" horiz-adv-x="1536" 
d="M768 -23q-326 0 -504 198t-178 542q0 347 178.5 543t503.5 196q327 0 504.5 -197t177.5 -542q0 -347 -178.5 -543.5t-503.5 -196.5zM768 258q108 0 184 63.5t110 165t34 230.5q0 203 -84.5 332t-243.5 129q-108 0 -184 -64t-110 -166t-34 -231q0 -132 34.5 -233.5
t110 -163.5t183.5 -62z" />
    <glyph glyph-name="P" unicode="P" horiz-adv-x="1228" 
d="M147 0v1434h486q273 0 409 -122.5t136 -346.5q0 -231 -134.5 -359.5t-410.5 -128.5h-148v-477h-338zM485 739h138q108 0 160.5 57.5t52.5 164.5q0 210 -213 210h-138v-432z" />
    <glyph glyph-name="Q" unicode="Q" horiz-adv-x="1536" 
d="M768 -23q-326 0 -504 198t-178 542q0 347 178.5 543t503.5 196q327 0 504.5 -197t177.5 -542q0 -234 -83 -403t-241 -255l322 -325h-377l-229 248q-62 -5 -74 -5zM768 258q108 0 184 63.5t110 165t34 230.5q0 203 -84.5 332t-243.5 129q-108 0 -184 -64t-110 -166
t-34 -231q0 -132 34.5 -233.5t110 -163.5t183.5 -62z" />
    <glyph glyph-name="R" unicode="R" horiz-adv-x="1280" 
d="M879 0l-215 508h-17h-162v-508h-338v1434h478q278 0 416.5 -121t138.5 -340q0 -279 -213 -391l293 -582h-381zM485 764h150q97 0 149 56.5t52 152.5t-51 147t-150 51h-150v-407z" />
    <glyph glyph-name="S" unicode="S" horiz-adv-x="1085" 
d="M455 -23q-193 0 -373 56v284q88 -35 188.5 -53t178.5 -18q108 0 164.5 39t56.5 110q0 45 -35.5 83t-67 55.5t-114.5 54.5q-16 8 -25 12q-45 21 -74 35.5t-71 39t-69 47t-57 56t-48 69t-29.5 83t-11.5 100.5q0 209 149 317.5t395 108.5q179 0 332 -51v-260
q-131 45 -307 45q-217 0 -217 -127q0 -27 12.5 -51.5t28.5 -41.5t50.5 -37.5t58 -32.5t71.5 -34q142 -66 196 -102q158 -105 181 -271q4 -31 4 -65q0 -223 -152 -337t-415 -114z" />
    <glyph glyph-name="T" unicode="T" horiz-adv-x="1146" 
d="M403 0v1147h-372v287h1085v-287h-373v-1147h-340z" />
    <glyph glyph-name="U" unicode="U" horiz-adv-x="1474" 
d="M737 -23q-281 0 -437.5 146t-156.5 436v875h338v-826q0 -171 60.5 -262.5t195.5 -91.5q138 0 197 92.5t59 261.5v826h338v-875q0 -289 -157.5 -435.5t-436.5 -146.5z" />
    <glyph glyph-name="V" unicode="V" horiz-adv-x="1351" 
d="M465 0l-467 1434h373l309 -1100h6l311 1100h357l-473 -1434h-416z" />
    <glyph glyph-name="W" unicode="W" horiz-adv-x="2048" 
d="M365 0l-342 1434h366l217 -1061h4l209 1061h424l209 -1069h6l219 1069h348l-342 -1434h-430l-225 1120h-6l-225 -1120h-432z" />
    <glyph glyph-name="X" unicode="X" horiz-adv-x="1413" 
d="M981 0l-285 498l-280 -498h-391l475 752l-426 682h399l248 -441l250 441h375l-431 -682l474 -752h-408z" />
    <glyph glyph-name="Y" unicode="Y" horiz-adv-x="1331" 
d="M4 1434h373l285 -582h8l284 582h375l-493 -916v-518h-338v518z" />
    <glyph glyph-name="Z" unicode="Z" horiz-adv-x="1187" 
d="M96 0v260l602 887h-581v287h968v-254l-614 -893h621v-287h-996z" />
    <glyph glyph-name="bracketleft" unicode="[" horiz-adv-x="716" 
d="M193 -287v1837h473v-204h-205v-1426h205v-207h-473z" />
    <glyph glyph-name="backslash" unicode="\" horiz-adv-x="655" 
d="M418 0l-445 1434h265l444 -1434h-264z" />
    <glyph glyph-name="bracketright" unicode="]" horiz-adv-x="716" 
d="M524 1550v-1837h-473v207h205v1426h-205v204h473z" />
    <glyph glyph-name="asciicircum" unicode="^" horiz-adv-x="1187" 
d="M37 717l414 717h286l414 -717h-293l-264 495l-264 -495h-293z" />
    <glyph glyph-name="underscore" unicode="_" horiz-adv-x="1024" 
d="M0 -256v102h1024v-102h-1024z" />
    <glyph glyph-name="grave" unicode="`" 
d="M305 1221l-217 309h340l107 -309h-230z" />
    <glyph glyph-name="a" unicode="a" horiz-adv-x="1142" 
d="M389 -23q-143 0 -238.5 85.5t-95.5 242.5q0 354 518 354h138v21q0 162 -228 162q-155 0 -329 -58v250q185 53 387 53q112 0 200 -23t155.5 -72t103.5 -131.5t36 -194.5v-666h-305v166h-6q-53 -91 -142 -140t-194 -49zM508 199q84 0 143.5 74t59.5 167v43h-109
q-105 0 -161 -42.5t-56 -116.5q0 -61 35 -93t88 -32z" />
    <glyph glyph-name="b" unicode="b" horiz-adv-x="1290" 
d="M750 -23q-205 0 -310 162h-4l-16 -139h-287v1542h330v-579h2q121 124 293 124q108 0 196.5 -47t144 -124.5t85.5 -174.5t30 -202q0 -153 -54 -279.5t-161 -204.5t-249 -78zM666 225q93 0 150.5 84t57.5 221t-57.5 221.5t-150.5 84.5t-154 -85.5t-61 -222.5
q0 -136 60.5 -219.5t154.5 -83.5z" />
    <glyph glyph-name="c" unicode="c" horiz-adv-x="993" 
d="M641 -23q-263 0 -414 149t-151 404q0 251 148.5 404t410.5 153q152 0 262 -32v-244q-121 33 -201 33q-142 0 -212 -75.5t-70 -233.5q0 -163 80.5 -237.5t218.5 -74.5q85 0 190 37v-250q-153 -33 -262 -33z" />
    <glyph glyph-name="d" unicode="d" horiz-adv-x="1290" 
d="M541 -23q-142 0 -249.5 77.5t-161.5 204t-54 280.5q0 104 30 201t85.5 175t144 125t196.5 47q174 0 295 -129v584h330v-1542h-305v150q-106 -173 -311 -173zM627 225q93 0 153 83.5t60 219.5q0 137 -61 222.5t-154 85.5t-151 -84.5t-58 -221.5t59 -221t152 -84z" />
    <glyph glyph-name="e" unicode="e" horiz-adv-x="1177" 
d="M1094 442h-680q19 -116 87 -169.5t197 -53.5q147 0 330 43v-237q-192 -48 -360 -48q-282 0 -437 150.5t-155 411.5q0 251 145 399.5t381 148.5q241 0 366.5 -152.5t125.5 -428.5v-64zM604 850q-84 0 -132 -59.5t-62 -159.5h372q5 98 -43.5 158.5t-134.5 60.5z" />
    <glyph glyph-name="f" unicode="f" horiz-adv-x="757" 
d="M35 813v256h162v74q0 218 96 320t301 102q49 0 145 -11v-229q-27 4 -71 4q-80 0 -112 -43.5t-32 -161.5v-55h211v-256h-211v-813h-327v813h-162z" />
    <glyph glyph-name="g" unicode="g" horiz-adv-x="1290" 
d="M580 -459q-200 0 -404 60v264q206 -74 375 -74q153 0 224 75.5t71 237.5v37h-6q-55 -67 -137 -104t-175 -37q-106 0 -193 43.5t-143 118t-86 173t-30 210.5q0 154 54 276.5t159 194t243 71.5q188 0 312 -161h6v143h307v-965q0 -295 -140.5 -429t-436.5 -134zM623 248
q93 0 152 80.5t59 216.5q0 134 -59.5 212.5t-153.5 78.5q-92 0 -149.5 -77t-57.5 -210q0 -137 58 -219t151 -82z" />
    <glyph glyph-name="h" unicode="h" horiz-adv-x="1249" 
d="M133 0v1542h330v-473l-2 -176h6q128 194 328 194q168 0 258 -117.5t90 -324.5v-645h-330v551q0 130 -38 191t-118 61q-96 0 -145 -80.5t-49 -235.5v-487h-330z" />
    <glyph glyph-name="i" unicode="i" horiz-adv-x="593" 
d="M133 0v1069h330v-1069h-330zM131 1245v256h332v-256h-332z" />
    <glyph glyph-name="j" unicode="j" horiz-adv-x="593" 
d="M90 -459q-41 0 -137 17v252q54 -9 70 -9q61 0 85.5 42.5t24.5 129.5v1096h330v-1104q0 -222 -92 -323t-281 -101zM131 1245v256h332v-256h-332z" />
    <glyph glyph-name="k" unicode="k" horiz-adv-x="1136" 
d="M133 0v1542h330v-905l313 432h359l-349 -465l361 -604h-371l-233 420l-80 -101v-319h-330z" />
    <glyph glyph-name="l" unicode="l" horiz-adv-x="593" 
d="M131 0v1542h332v-1542h-332z" />
    <glyph glyph-name="m" unicode="m" horiz-adv-x="1812" 
d="M133 0v1069h303v-178h4q132 196 310 196q103 0 177 -57t115 -160q135 217 332 217q157 0 244.5 -116.5t87.5 -306.5v-664h-330v573q0 112 -29 171t-98 59q-84 0 -125 -82t-41 -223v-498h-327v573q0 113 -28.5 171.5t-96.5 58.5q-81 0 -124.5 -82.5t-43.5 -222.5v-498
h-330z" />
    <glyph glyph-name="n" unicode="n" horiz-adv-x="1249" 
d="M133 0v1069h307v-176h4q135 194 344 194q170 0 262.5 -118t92.5 -324v-645h-330v551q0 130 -38 191t-120 61q-95 0 -143.5 -80.5t-48.5 -235.5v-487h-330z" />
    <glyph glyph-name="o" unicode="o" horiz-adv-x="1269" 
d="M635 -23q-250 0 -404.5 151t-154.5 402q0 253 156.5 405t402.5 152q248 0 403.5 -152.5t155.5 -404.5q0 -253 -154.5 -403t-404.5 -150zM635 223q100 0 159.5 85.5t59.5 221.5q0 138 -60 225t-159 87t-159 -88t-60 -224q0 -137 60 -222t159 -85z" />
    <glyph glyph-name="p" unicode="p" horiz-adv-x="1290" 
d="M463 119v-557h-330v1507h307v-151h4q61 79 146 124t186 45q136 0 237 -75.5t151 -198t50 -274.5q0 -249 -124.5 -405.5t-325.5 -156.5q-95 0 -172.5 40.5t-128.5 101.5zM662 225q95 0 155 84.5t60 225.5q0 136 -59.5 218.5t-153.5 82.5q-95 0 -154 -83.5t-59 -224.5
q0 -139 58.5 -221t152.5 -82z" />
    <glyph glyph-name="q" unicode="q" horiz-adv-x="1290" 
d="M827 -438v557q-51 -61 -128.5 -101.5t-172.5 -40.5q-201 0 -325.5 156.5t-124.5 405.5q0 152 50 274.5t151 198t237 75.5q101 0 186 -45t146 -124h4v151h307v-1507h-330zM629 225q94 0 152.5 82t58.5 221q0 141 -59 224.5t-154 83.5q-94 0 -153.5 -82.5t-59.5 -218.5
q0 -141 60 -225.5t155 -84.5z" />
    <glyph glyph-name="r" unicode="r" horiz-adv-x="829" 
d="M133 0v1069h307v-178h2q15 34 26 55t32.5 51t45 47t60 30t80.5 13q48 0 98 -8v-276q-59 6 -100 6q-55 0 -94 -15.5t-63.5 -42.5t-38.5 -72.5t-19.5 -97.5t-5.5 -124v-457h-330z" />
    <glyph glyph-name="s" unicode="s" horiz-adv-x="962" 
d="M432 -23q-184 0 -344 54v243q192 -61 324 -61q131 0 131 82q0 12 -2.5 22.5t-9 20t-12.5 17t-18.5 16.5t-21.5 14.5t-26.5 14.5t-28 14.5t-32.5 15.5t-34 16q-40 18 -64.5 31t-61 35t-59.5 45.5t-46 54.5t-34 70.5t-11 85.5q0 81 33 143t92 100t135.5 57t167.5 19
q168 0 315 -59v-233q-143 57 -274 57q-143 0 -143 -76q0 -13 4 -24t13.5 -20.5t18.5 -17t26.5 -17t30 -15t35.5 -16t37 -17.5t51.5 -24t55.5 -26t51 -28t50 -34t40.5 -40t35 -50.5t20 -60.5t8.5 -75q0 -90 -34.5 -155.5t-97.5 -104t-142.5 -56.5t-178.5 -18z" />
    <glyph glyph-name="t" unicode="t" horiz-adv-x="778" 
d="M698 1069v-256h-186v-399q0 -183 127 -183q24 0 70 11v-248q-117 -17 -156 -17q-172 0 -270.5 90.5t-98.5 272.5v473h-141v256h141v227l328 95v-322h186z" />
    <glyph glyph-name="u" unicode="u" horiz-adv-x="1249" 
d="M1116 1069v-1069h-307v170h-4q-41 -58 -83.5 -97.5t-107 -67.5t-139.5 -28q-171 0 -270 120.5t-99 326.5v645h330v-551q0 -130 38 -191t118 -61q96 0 145 80.5t49 235.5v487h330z" />
    <glyph glyph-name="v" unicode="v" horiz-adv-x="1105" 
d="M358 0l-342 1069h357l186 -735h4l195 735h332l-340 -1069h-392z" />
    <glyph glyph-name="w" unicode="w" horiz-adv-x="1648" 
d="M274 0l-247 1069h356l131 -752h6l180 752h277l178 -752h6l131 752h330l-246 -1069h-381l-161 694h-3l-172 -694h-385z" />
    <glyph glyph-name="x" unicode="x" horiz-adv-x="1105" 
d="M4 0l340 563l-305 506h385l156 -309l145 309h354l-303 -506l326 -563h-383l-168 350l-186 -350h-361z" />
    <glyph glyph-name="y" unicode="y" horiz-adv-x="1126" 
d="M283 -461q-21 0 -44.5 2t-39 4.5t-41.5 6.5l-39 6v262q87 -10 102 -10q129 0 172 120l4 13l-381 1126h365l182 -709l197 709h350l-383 -1126q-73 -215 -175 -309.5t-269 -94.5z" />
    <glyph glyph-name="z" unicode="z" horiz-adv-x="1024" 
d="M82 0v233l457 580h-441v256h832v-233l-461 -580h473v-256h-860z" />
    <glyph glyph-name="braceleft" unicode="{" horiz-adv-x="716" 
d="M518 -287q-128 0 -207.5 76t-79.5 207v387q0 83 -40.5 124.5t-108.5 41.5v170q67 0 108 40t41 115v398q0 135 78.5 208.5t208.5 73.5h139v-182h-55q-64 0 -91.5 -35t-27.5 -104v-367q0 -111 -69.5 -171t-182.5 -60v-2q125 3 188.5 -59.5t63.5 -182.5v-356q0 -74 29 -105
t90 -34h55v-183h-139z" />
    <glyph glyph-name="bar" unicode="|" horiz-adv-x="532" 
d="M135 -285v1825h262v-1825h-262z" />
    <glyph glyph-name="braceright" unicode="}" horiz-adv-x="716" 
d="M199 -287h-140v183h56q61 3 89.5 34t28.5 105v356q0 120 63.5 182.5t188.5 59.5v2q-113 0 -182.5 60t-69.5 171v367q0 69 -27 104t-91 35h-56v182h140q129 0 207.5 -73.5t78.5 -208.5v-398q0 -75 41.5 -115t108.5 -40v-170q-68 0 -109 -41.5t-41 -124.5v-387
q0 -131 -79 -207t-207 -76z" />
    <glyph glyph-name="asciitilde" unicode="~" horiz-adv-x="1187" 
d="M811 502q-65 0 -132 27t-112.5 59t-103 59t-107.5 27q-63 0 -124 -39.5t-105 -108.5l-96 222q62 85 154.5 138.5t189.5 53.5q68 0 136.5 -27t114.5 -59t102 -59t103 -27q59 0 117 34t99 95l110 -203q-59 -85 -152.5 -138.5t-193.5 -53.5z" />
    <glyph glyph-name="uni00A0" unicode="&#xa0;" horiz-adv-x="471" 
 />
    <glyph glyph-name="exclamdown" unicode="&#xa1;" horiz-adv-x="737" 
d="M201 -373l47 973h241l48 -973h-336zM213 760v301h311v-301h-311z" />
    <glyph glyph-name="cent" unicode="&#xa2;" horiz-adv-x="1187" 
d="M532 -209v213q-191 46 -302 185t-111 341q0 199 110.5 339t302.5 186v215h293v-195q100 -9 187 -49v-240q-46 28 -113 44t-131 16q-145 0 -232 -85t-87 -231q0 -79 26.5 -140.5t73 -99.5t105.5 -57.5t126 -19.5q125 0 238 55v-243q-108 -35 -193 -41v-193h-293z" />
    <glyph glyph-name="sterling" unicode="&#xa3;" horiz-adv-x="1187" 
d="M111 0v266h149v387h-147v185h147v104q0 250 142.5 382t422.5 132q131 0 271 -37v-252q-95 37 -224 37q-150 0 -217 -64.5t-67 -197.5v-104h346v-185h-346v-387h497v-266h-974z" />
    <glyph glyph-name="currency" unicode="&#xa4;" horiz-adv-x="1187" 
d="M186 203l-112 114l114 115q-94 132 -94 293q0 153 94 293l-114 112l112 115l115 -115q134 95 293 95q155 0 295 -95l112 115l113 -115l-113 -112q93 -140 93 -293q0 -154 -93 -293l113 -115l-113 -114l-112 114q-137 -92 -295 -92q-156 0 -293 92zM594 465
q105 0 177.5 76t72.5 184q0 107 -72.5 182.5t-177.5 75.5q-104 0 -177 -75.5t-73 -182.5q0 -108 73.5 -184t176.5 -76z" />
    <glyph glyph-name="yen" unicode="&#xa5;" horiz-adv-x="1187" 
d="M156 561v184h174l-344 689h360l250 -578l246 578h360l-344 -689h176v-184h-274v-106h274v-185h-274v-270h-330v270h-274v185h274v106h-274z" />
    <glyph glyph-name="brokenbar" unicode="&#xa6;" horiz-adv-x="532" 
d="M135 834v706h262v-706h-262zM135 -285v754h262v-754h-262z" />
    <glyph glyph-name="section" unicode="&#xa7;" horiz-adv-x="1126" 
d="M506 -270q-214 0 -377 55l18 233q189 -67 338 -67q104 0 160.5 32.5t56.5 84.5q0 38 -33.5 70.5t-87.5 58t-119 52t-130 59t-119 72t-87.5 98t-33.5 130.5q0 85 43 148.5t131 117.5q-157 97 -157 254q0 82 39 146t107.5 103.5t155.5 60t187 20.5q170 0 332 -49l-17 -227
q-148 53 -297 53q-88 0 -140 -27t-52 -78q0 -39 34 -70t87.5 -54.5t119 -47.5t131 -55t119 -69.5t87.5 -99.5t34 -138q0 -165 -164 -277q142 -95 142 -241q0 -89 -43 -158t-116.5 -109.5t-161.5 -60.5t-187 -20zM358 651q0 -27 9 -50t30 -43t40.5 -35t57 -32t61.5 -27
t71.5 -28.5t70.5 -27.5q33 33 52.5 74.5t19.5 76.5q0 24 -9 44.5t-30.5 39.5t-41.5 33.5t-57 31.5t-62.5 28t-72 29.5t-71.5 29.5q-68 -68 -68 -144z" />
    <glyph glyph-name="dieresis" unicode="&#xa8;" 
d="M498 1249v252h264v-252h-264zM57 1249v252h265v-252h-265z" />
    <glyph glyph-name="copyright" unicode="&#xa9;" horiz-adv-x="1802" 
d="M940 299q-197 0 -309.5 118t-112.5 302q0 188 114 302t304 114q118 0 205 -41v-176q-86 51 -189 51q-111 0 -175 -68t-64 -182q0 -117 66 -184.5t175 -67.5q116 0 189 53v-178q-97 -43 -203 -43zM901 -23q-151 0 -287.5 58t-235 157t-156.5 236t-58 289t58 289
t156.5 235.5t235 156.5t287.5 58t287.5 -58t235 -156.5t156.5 -235.5t58 -289t-58 -289t-156.5 -236t-235 -157t-287.5 -58zM901 152q153 0 280.5 74.5t201 204.5t73.5 286t-73.5 286t-201 204.5t-280.5 74.5q-152 0 -279 -74.5t-200.5 -204.5t-73.5 -286t73.5 -286
t200.5 -204.5t279 -74.5z" />
    <glyph glyph-name="ordfeminine" unicode="&#xaa;" 
d="M276 549q-104 0 -171.5 68.5t-67.5 197.5q0 84 29 143.5t83.5 93.5t123.5 49t159 15h55v35q0 102 -137 102q-97 0 -241 -43v199q127 47 301 47q155 0 236 -79.5t81 -268.5v-537h-233v93h-5q-75 -115 -213 -115zM375 737q56 0 84 44.5t28 113.5v72h-47q-153 0 -153 -125
q0 -54 24 -79.5t64 -25.5z" />
    <glyph glyph-name="guillemotleft" unicode="&#xab;" horiz-adv-x="1136" 
d="M788 197l-258 417l258 416h267l-238 -416l238 -417h-267zM324 197l-261 417l261 416h266l-238 -416l238 -417h-266z" />
    <glyph glyph-name="logicalnot" unicode="&#xac;" horiz-adv-x="1187" 
d="M829 334v393h-761v270h1032v-663h-271z" />
    <glyph glyph-name="uni00AD" unicode="&#xad;" 
d="M106 471v287h609v-287h-609z" />
    <glyph glyph-name="registered" unicode="&#xae;" horiz-adv-x="1802" 
d="M901 -23q-151 0 -287.5 58t-235 157t-156.5 236t-58 289t58 289t156.5 235.5t235 156.5t287.5 58t287.5 -58t235 -156.5t156.5 -235.5t58 -289t-58 -289t-156.5 -236t-235 -157t-287.5 -58zM895 152q152 0 281 74.5t204.5 204.5t75.5 286t-73.5 286t-201 204.5
t-280.5 74.5q-152 0 -279 -74.5t-200.5 -204.5t-73.5 -286t71.5 -286t197 -204.5t278.5 -74.5zM625 307v817h278q307 0 307 -264q0 -177 -135 -237l144 -316h-185l-114 289h-121v-289h-174zM799 743h104q67 0 98 29t31 88t-31 87t-98 28h-104v-232z" />
    <glyph glyph-name="macron" unicode="&#xaf;" 
d="M68 1296v162h686v-162h-686z" />
    <glyph glyph-name="degree" unicode="&#xb0;" horiz-adv-x="778" 
d="M389 860q-132 1 -214 83t-85 214q3 131 85 212.5t214 82.5q132 -1 214 -82.5t85 -212.5q-3 -132 -85 -214t-214 -83zM391 1020q57 0 93 38.5t36 98.5t-36 97.5t-93 37.5t-95 -38t-38 -97q0 -60 38 -98.5t95 -38.5z" />
    <glyph glyph-name="plusminus" unicode="&#xb1;" horiz-adv-x="1187" 
d="M459 492v284h-391v271h391v284h270v-284h391v-271h-391v-284h-270zM68 141v271h1052v-271h-1052z" />
    <glyph glyph-name="twosuperior" unicode="&#xb2;" 
d="M78 575v175q212 161 299.5 252t87.5 172q0 102 -131 102q-112 0 -228 -55v186q137 49 295 49q165 0 248.5 -69t83.5 -177q0 -115 -88 -220t-258 -226h346v-189h-655z" />
    <glyph glyph-name="threesuperior" unicode="&#xb3;" 
d="M317 553q-141 0 -258 31v198q41 -21 113.5 -34t138.5 -13q77 0 127 23t49 76q-2 94 -178 94h-104v164h106q70 0 117 26.5t47 71.5q0 86 -172 86q-115 0 -213 -45v188q110 37 277 37q71 0 131 -10.5t114 -35t84.5 -70.5t30.5 -111q0 -81 -49 -133t-135 -70v-4
q198 -32 198 -201q0 -73 -36.5 -127t-99 -83.5t-134.5 -43.5t-154 -14z" />
    <glyph glyph-name="acute" unicode="&#xb4;" 
d="M301 1221l133 309h340l-268 -309h-205z" />
    <glyph glyph-name="uni00B5" unicode="&#xb5;" horiz-adv-x="1228" 
d="M133 -438v1507h330v-551q0 -130 32.5 -191t100.5 -61q91 0 130.5 78.5t39.5 237.5v487h330v-1069h-308v190h-4q-72 -200 -241 -200q-37 0 -78 12l-2 -2v-438h-330z" />
    <glyph glyph-name="paragraph" unicode="&#xb6;" horiz-adv-x="1372" 
d="M371 -287v1004h-39q-139 0 -235.5 105t-96.5 253q0 150 96.5 254.5t235.5 104.5h893v-1721h-330v1454h-195v-1454h-329z" />
    <glyph glyph-name="periodcentered" unicode="&#xb7;" horiz-adv-x="573" 
d="M131 575v302h311v-302h-311z" />
    <glyph glyph-name="cedilla" unicode="&#xb8;" 
d="M391 -399q-90 0 -160 51l45 98q44 -35 91 -35q34 0 55.5 18t21.5 48q0 29 -22.5 46t-63.5 17q-28 0 -55 -8l43 184h121l-18 -90q62 -2 101.5 -39.5t39.5 -109.5q0 -79 -54.5 -129.5t-144.5 -50.5z" />
    <glyph glyph-name="onesuperior" unicode="&#xb9;" 
d="M117 764h198v422l-153 -92l-101 159l273 181h211v-670h170v-189h-598v189z" />
    <glyph glyph-name="ordmasculine" unicode="&#xba;" 
d="M403 553q-177 0 -269 114.5t-95 336.5q3 223 95 337.5t269 114.5t269.5 -114.5t95.5 -337.5q-3 -222 -95.5 -336.5t-269.5 -114.5zM403 748q115 0 115 256q0 252 -115 258q-114 -6 -114 -258q0 -256 114 -256z" />
    <glyph glyph-name="guillemotright" unicode="&#xbb;" horiz-adv-x="1136" 
d="M606 614l-258 -417h-266l237 417l-237 416h266zM1073 614l-260 -417h-266l237 417l-237 416h266z" />
    <glyph glyph-name="onequarter" unicode="&#xbc;" horiz-adv-x="1843" 
d="M315 575v611l-153 -92l-101 159l273 181h211v-859h-230zM1473 -6v151h-422v185l352 526h299v-539h90v-172h-90v-151h-229zM1253 317h220v326h-5zM324 0l993 1434h227l-993 -1434h-227z" />
    <glyph glyph-name="onehalf" unicode="&#xbd;" horiz-adv-x="1843" 
d="M1130 -2v174q213 162 300.5 252.5t87.5 171.5q0 102 -132 102q-111 0 -227 -55v186q139 50 295 50q165 0 248.5 -69t83.5 -177q0 -115 -88.5 -220.5t-257.5 -226.5h346v-188h-656zM262 0l993 1434h228l-994 -1434h-227zM315 575v611l-153 -92l-101 159l273 181h211v-859
h-230z" />
    <glyph glyph-name="threequarters" unicode="&#xbe;" horiz-adv-x="1843" 
d="M317 553q-141 0 -258 31v198q41 -21 113.5 -34t138.5 -13q77 0 127 23t49 76q-2 94 -178 94h-104v164h106q70 0 117 26.5t47 71.5q0 86 -172 86q-115 0 -213 -45v188q110 37 277 37q71 0 131 -10.5t114 -35t84.5 -70.5t30.5 -111q0 -81 -49 -133t-135 -70v-4
q198 -32 198 -201q0 -73 -36.5 -127t-99 -83.5t-134.5 -43.5t-154 -14zM1473 -8v151h-422v185l352 526h299v-539h90v-172h-90v-151h-229zM1253 315h220v326h-5zM385 0l993 1434h228l-994 -1434h-227z" />
    <glyph glyph-name="questiondown" unicode="&#xbf;" horiz-adv-x="1024" 
d="M651 600v-12q0 -73 -22 -142t-53.5 -122.5t-62.5 -103t-53 -103.5t-22 -105q0 -149 176 -149q137 0 260 63v-260q-159 -61 -342 -61q-102 0 -183.5 19.5t-143 60t-94.5 107.5t-33 157q0 83 29.5 153.5t72.5 122.5t86.5 103t77.5 118.5t39 143.5v10h268zM672 1061v-301
h-310v301h310z" />
    <glyph glyph-name="Agrave" unicode="&#xc0;" horiz-adv-x="1413" 
d="M16 0l494 1434h393l494 -1434h-367l-88 285h-487l-88 -285h-351zM696 1069l-159 -518h323l-160 518h-4zM627 1522l-262 274h335l127 -274h-200z" />
    <glyph glyph-name="Aacute" unicode="&#xc1;" horiz-adv-x="1413" 
d="M16 0l494 1434h393l494 -1434h-367l-88 285h-487l-88 -285h-351zM696 1069l-159 -518h323l-160 518h-4zM594 1522l129 274h340l-240 -274h-229z" />
    <glyph glyph-name="Acircumflex" unicode="&#xc2;" horiz-adv-x="1413" 
d="M16 0l494 1434h393l494 -1434h-367l-88 285h-487l-88 -285h-351zM696 1069l-159 -518h323l-160 518h-4zM319 1522l234 274h311l230 -274h-256l-129 166l-134 -166h-256z" />
    <glyph glyph-name="Atilde" unicode="&#xc3;" horiz-adv-x="1413" 
d="M16 0l494 1434h393l494 -1434h-367l-88 285h-487l-88 -285h-351zM696 1069l-159 -518h323l-160 518h-4zM309 1524q6 110 72.5 184t175.5 74q55 0 156.5 -41t144.5 -41q26 0 51.5 18.5t32.5 63.5h162q-5 -115 -68 -186.5t-166 -71.5q-52 0 -159 36.5t-150 36.5
q-77 0 -88 -73h-164z" />
    <glyph glyph-name="Adieresis" unicode="&#xc4;" horiz-adv-x="1413" 
d="M16 0l494 1434h393l494 -1434h-367l-88 285h-487l-88 -285h-351zM696 1069l-159 -518h323l-160 518h-4zM330 1522v260h278v-260h-278zM805 1522v260h280v-260h-280z" />
    <glyph glyph-name="Aring" unicode="&#xc5;" horiz-adv-x="1413" 
d="M16 0l494 1434h393l494 -1434h-367l-88 285h-487l-88 -285h-351zM696 1069l-159 -518h323l-160 518h-4zM707 1460q-97 0 -161.5 62.5t-64.5 156.5q0 95 64.5 158.5t161.5 63.5t161 -63.5t64 -158.5q0 -94 -64 -156.5t-161 -62.5zM707 1569q46 0 77 32t31 78t-31.5 79.5
t-76.5 33.5t-77 -33.5t-32 -79.5t31.5 -78t77.5 -32z" />
    <glyph glyph-name="AE" unicode="&#xc6;" horiz-adv-x="1832" 
d="M-14 0l751 1434h998v-287h-502l12 -277h443v-274h-433l15 -309h473v-287h-787l-12 285h-444l-144 -285h-370zM905 1094l-272 -543h299l-23 543h-4z" />
    <glyph glyph-name="Ccedilla" unicode="&#xc7;" horiz-adv-x="1290" 
d="M741 -455q-102 0 -180 60l51 108q50 -37 103 -37q39 0 62.5 19.5t23.5 52.5q0 34 -25 54t-71 20q-33 0 -62 -10l41 180q-196 32 -332 133.5t-201 251t-65 338.5q0 179 56.5 320.5t158.5 233t242 139.5t309 48q86 0 170.5 -14t125.5 -28l42 -15v-287q-62 27 -147.5 45.5
t-168.5 18.5q-200 0 -318 -118t-118 -345q0 -228 121.5 -342.5t329.5 -114.5q154 0 301 47v-280q-155 -46 -322 -46q-27 0 -51 3l-12 -60q71 -3 116.5 -46t45.5 -124q0 -90 -62 -147.5t-164 -57.5z" />
    <glyph glyph-name="Egrave" unicode="&#xc8;" horiz-adv-x="1105" 
d="M147 0v1434h859v-287h-521v-275h478v-274h-478v-311h531v-287h-869zM508 1522l-262 274h336l127 -274h-201z" />
    <glyph glyph-name="Eacute" unicode="&#xc9;" horiz-adv-x="1105" 
d="M147 0v1434h859v-287h-521v-275h478v-274h-478v-311h531v-287h-869zM475 1522l129 274h340l-239 -274h-230z" />
    <glyph glyph-name="Ecircumflex" unicode="&#xca;" horiz-adv-x="1105" 
d="M147 0v1434h859v-287h-521v-275h478v-274h-478v-311h531v-287h-869zM201 1522l233 274h311l230 -274h-256l-129 166l-133 -166h-256z" />
    <glyph glyph-name="Edieresis" unicode="&#xcb;" horiz-adv-x="1105" 
d="M147 0v1434h859v-287h-521v-275h478v-274h-478v-311h531v-287h-869zM211 1522v260h278v-260h-278zM686 1522v260h281v-260h-281z" />
    <glyph glyph-name="Igrave" unicode="&#xcc;" horiz-adv-x="634" 
d="M147 0v1434h340v-1434h-340zM238 1522l-263 274h336l127 -274h-200z" />
    <glyph glyph-name="Iacute" unicode="&#xcd;" horiz-adv-x="634" 
d="M147 0v1434h340v-1434h-340zM205 1522l129 274h340l-240 -274h-229z" />
    <glyph glyph-name="Icircumflex" unicode="&#xce;" horiz-adv-x="634" 
d="M147 0v1434h340v-1434h-340zM-14 1522l178 274h311l174 -274h-243l-87 149l-90 -149h-243z" />
    <glyph glyph-name="Idieresis" unicode="&#xcf;" horiz-adv-x="634" 
d="M147 0v1434h340v-1434h-340zM2 1522v260h258v-260h-258zM375 1522v260h258v-260h-258z" />
    <glyph glyph-name="Eth" unicode="&#xd0;" horiz-adv-x="1474" 
d="M147 0v645h-116v184h116v605h504q170 0 304 -41.5t232 -126.5t150 -222.5t52 -322.5q0 -186 -53 -325.5t-151.5 -225.5t-232 -128t-301.5 -42h-504zM485 287h170q184 0 281.5 108t97.5 316q0 210 -98 323t-272 113h-179v-318h344v-184h-344v-358z" />
    <glyph glyph-name="Ntilde" unicode="&#xd1;" horiz-adv-x="1495" 
d="M147 0v1434h426l455 -965h4l-8 149v816h324v-1434h-406l-471 995h-4l4 -151v-844h-324zM387 1524q6 110 72.5 184t175.5 74q55 0 156.5 -41t144.5 -41q26 0 51.5 18.5t32.5 63.5h162q-5 -115 -68 -186.5t-166 -71.5q-52 0 -159 36.5t-150 36.5q-77 0 -88 -73h-164z" />
    <glyph glyph-name="Ograve" unicode="&#xd2;" horiz-adv-x="1536" 
d="M768 -23q-326 0 -504 198t-178 542q0 347 178.5 543t503.5 196q327 0 504.5 -197t177.5 -542q0 -347 -178.5 -543.5t-503.5 -196.5zM768 258q108 0 184 63.5t110 165t34 230.5q0 203 -84.5 332t-243.5 129q-108 0 -184 -64t-110 -166t-34 -231q0 -132 34.5 -233.5
t110 -163.5t183.5 -62zM688 1522l-262 274h336l127 -274h-201z" />
    <glyph glyph-name="Oacute" unicode="&#xd3;" horiz-adv-x="1536" 
d="M768 -23q-326 0 -504 198t-178 542q0 347 178.5 543t503.5 196q327 0 504.5 -197t177.5 -542q0 -347 -178.5 -543.5t-503.5 -196.5zM768 258q108 0 184 63.5t110 165t34 230.5q0 203 -84.5 332t-243.5 129q-108 0 -184 -64t-110 -166t-34 -231q0 -132 34.5 -233.5
t110 -163.5t183.5 -62zM655 1522l129 274h340l-239 -274h-230z" />
    <glyph glyph-name="Ocircumflex" unicode="&#xd4;" horiz-adv-x="1536" 
d="M768 -23q-326 0 -504 198t-178 542q0 347 178.5 543t503.5 196q327 0 504.5 -197t177.5 -542q0 -347 -178.5 -543.5t-503.5 -196.5zM768 258q108 0 184 63.5t110 165t34 230.5q0 203 -84.5 332t-243.5 129q-108 0 -184 -64t-110 -166t-34 -231q0 -132 34.5 -233.5
t110 -163.5t183.5 -62zM381 1522l233 274h312l229 -274h-256l-129 166l-133 -166h-256z" />
    <glyph glyph-name="Otilde" unicode="&#xd5;" horiz-adv-x="1536" 
d="M768 -23q-326 0 -504 198t-178 542q0 347 178.5 543t503.5 196q327 0 504.5 -197t177.5 -542q0 -347 -178.5 -543.5t-503.5 -196.5zM768 258q108 0 184 63.5t110 165t34 230.5q0 203 -84.5 332t-243.5 129q-108 0 -184 -64t-110 -166t-34 -231q0 -132 34.5 -233.5
t110 -163.5t183.5 -62zM371 1524q6 110 72 184t175 74q55 0 157 -41t145 -41q26 0 51.5 18.5t32.5 63.5h161q-5 -116 -67.5 -187t-165.5 -71q-52 0 -159 36.5t-150 36.5q-77 0 -88 -73h-164z" />
    <glyph glyph-name="Odieresis" unicode="&#xd6;" horiz-adv-x="1536" 
d="M768 -23q-326 0 -504 198t-178 542q0 347 178.5 543t503.5 196q327 0 504.5 -197t177.5 -542q0 -347 -178.5 -543.5t-503.5 -196.5zM768 258q108 0 184 63.5t110 165t34 230.5q0 203 -84.5 332t-243.5 129q-108 0 -184 -64t-110 -166t-34 -231q0 -132 34.5 -233.5
t110 -163.5t183.5 -62zM391 1522v260h279v-260h-279zM866 1522v260h281v-260h-281z" />
    <glyph glyph-name="multiply" unicode="&#xd7;" horiz-adv-x="1187" 
d="M260 203l-180 180l332 332l-332 329l186 187l330 -332l332 332l180 -180l-332 -332l332 -330l-186 -186l-330 332z" />
    <glyph glyph-name="Oslash" unicode="&#xd8;" horiz-adv-x="1536" 
d="M768 -23q-266 0 -440 138l-170 -187l-113 105l176 194q-135 187 -135 490q0 347 178.5 543t503.5 196q265 0 438 -137l170 186l115 -104l-176 -195q135 -192 135 -489q0 -347 -178.5 -543.5t-503.5 -196.5zM768 258q108 0 184 63.5t110 165t34 230.5q0 117 -31 215
l-520 -576q82 -98 223 -98zM440 717q0 -124 29 -215l520 575q-85 101 -221 101q-108 0 -184 -64t-110 -166t-34 -231z" />
    <glyph glyph-name="Ugrave" unicode="&#xd9;" horiz-adv-x="1474" 
d="M737 -23q-281 0 -437.5 146t-156.5 436v875h338v-826q0 -171 60.5 -262.5t195.5 -91.5q138 0 197 92.5t59 261.5v826h338v-875q0 -289 -157.5 -435.5t-436.5 -146.5zM657 1522l-262 274h336l127 -274h-201z" />
    <glyph glyph-name="Uacute" unicode="&#xda;" horiz-adv-x="1474" 
d="M737 -23q-281 0 -437.5 146t-156.5 436v875h338v-826q0 -171 60.5 -262.5t195.5 -91.5q138 0 197 92.5t59 261.5v826h338v-875q0 -289 -157.5 -435.5t-436.5 -146.5zM625 1522l129 274h340l-240 -274h-229z" />
    <glyph glyph-name="Ucircumflex" unicode="&#xdb;" horiz-adv-x="1474" 
d="M737 -23q-281 0 -437.5 146t-156.5 436v875h338v-826q0 -171 60.5 -262.5t195.5 -91.5q138 0 197 92.5t59 261.5v826h338v-875q0 -289 -157.5 -435.5t-436.5 -146.5zM350 1522l234 274h311l229 -274h-256l-129 166l-133 -166h-256z" />
    <glyph glyph-name="Udieresis" unicode="&#xdc;" horiz-adv-x="1474" 
d="M737 -23q-281 0 -437.5 146t-156.5 436v875h338v-826q0 -171 60.5 -262.5t195.5 -91.5q138 0 197 92.5t59 261.5v826h338v-875q0 -289 -157.5 -435.5t-436.5 -146.5zM360 1522v260h279v-260h-279zM836 1522v260h280v-260h-280z" />
    <glyph glyph-name="Yacute" unicode="&#xdd;" horiz-adv-x="1331" 
d="M4 1434h373l285 -582h8l284 582h375l-493 -916v-518h-338v518zM553 1522l129 274h340l-240 -274h-229z" />
    <glyph glyph-name="Thorn" unicode="&#xde;" horiz-adv-x="1228" 
d="M147 0v1434h338v-203h133q285 0 422.5 -120.5t137.5 -371.5q0 -238 -133 -367.5t-406 -129.5h-154v-242h-338zM485 504h138q213 0 213 239q0 118 -54 172t-159 54h-138v-465z" />
    <glyph glyph-name="germandbls" unicode="&#xdf;" horiz-adv-x="1280" 
d="M745 -23q-81 0 -172 15v237q54 -10 115 -10q101 0 158 60.5t57 183.5q-5 227 -237 227h-37v219h20q98 0 146.5 54.5t48.5 154.5q0 101 -50 150t-137 49q-49 0 -85 -16.5t-56.5 -42.5t-33 -65.5t-16 -77.5t-3.5 -87v-1028h-330v999q0 564 529 564q105 0 195 -25t160 -74
t110 -130t40 -185q0 -247 -266 -338v-4q157 -36 239.5 -132.5t82.5 -248.5q0 -208 -128 -328.5t-350 -120.5z" />
    <glyph glyph-name="agrave" unicode="&#xe0;" horiz-adv-x="1142" 
d="M389 -23q-143 0 -238.5 85.5t-95.5 242.5q0 354 518 354h138v21q0 162 -228 162q-155 0 -329 -58v250q185 53 387 53q112 0 200 -23t155.5 -72t103.5 -131.5t36 -194.5v-666h-305v166h-6q-53 -91 -142 -140t-194 -49zM508 199q84 0 143.5 74t59.5 167v43h-109
q-105 0 -161 -42.5t-56 -116.5q0 -61 35 -93t88 -32zM465 1221l-217 309h340l106 -309h-229z" />
    <glyph glyph-name="aacute" unicode="&#xe1;" horiz-adv-x="1142" 
d="M389 -23q-143 0 -238.5 85.5t-95.5 242.5q0 354 518 354h138v21q0 162 -228 162q-155 0 -329 -58v250q185 53 387 53q112 0 200 -23t155.5 -72t103.5 -131.5t36 -194.5v-666h-305v166h-6q-53 -91 -142 -140t-194 -49zM508 199q84 0 143.5 74t59.5 167v43h-109
q-105 0 -161 -42.5t-56 -116.5q0 -61 35 -93t88 -32zM461 1221l133 309h340l-268 -309h-205z" />
    <glyph glyph-name="acircumflex" unicode="&#xe2;" horiz-adv-x="1142" 
d="M389 -23q-143 0 -238.5 85.5t-95.5 242.5q0 354 518 354h138v21q0 162 -228 162q-155 0 -329 -58v250q185 53 387 53q112 0 200 -23t155.5 -72t103.5 -131.5t36 -194.5v-666h-305v166h-6q-53 -91 -142 -140t-194 -49zM508 199q84 0 143.5 74t59.5 167v43h-109
q-105 0 -161 -42.5t-56 -116.5q0 -61 35 -93t88 -32zM205 1221l223 309h289l217 -309h-223l-140 202l-145 -202h-221z" />
    <glyph glyph-name="atilde" unicode="&#xe3;" horiz-adv-x="1142" 
d="M389 -23q-143 0 -238.5 85.5t-95.5 242.5q0 354 518 354h138v21q0 162 -228 162q-155 0 -329 -58v250q185 53 387 53q112 0 200 -23t155.5 -72t103.5 -131.5t36 -194.5v-666h-305v166h-6q-53 -91 -142 -140t-194 -49zM508 199q84 0 143.5 74t59.5 167v43h-109
q-105 0 -161 -42.5t-56 -116.5q0 -61 35 -93t88 -32zM190 1247q10 119 67.5 197t158.5 78q70 0 172 -45q5 -2 34 -14t51.5 -17.5t47.5 -5.5q67 0 78 82h151q-11 -121 -68.5 -197t-160.5 -76q-60 0 -160 41q-9 3 -30 11t-31 11.5t-26 8t-29.5 6.5t-28.5 2q-32 0 -51.5 -22
t-22.5 -60h-152z" />
    <glyph glyph-name="adieresis" unicode="&#xe4;" horiz-adv-x="1142" 
d="M389 -23q-143 0 -238.5 85.5t-95.5 242.5q0 354 518 354h138v21q0 162 -228 162q-155 0 -329 -58v250q185 53 387 53q112 0 200 -23t155.5 -72t103.5 -131.5t36 -194.5v-666h-305v166h-6q-53 -91 -142 -140t-194 -49zM508 199q84 0 143.5 74t59.5 167v43h-109
q-105 0 -161 -42.5t-56 -116.5q0 -61 35 -93t88 -32zM657 1249v252h265v-252h-265zM217 1249v252h264v-252h-264z" />
    <glyph glyph-name="aring" unicode="&#xe5;" horiz-adv-x="1142" 
d="M389 -23q-143 0 -238.5 85.5t-95.5 242.5q0 354 518 354h138v21q0 162 -228 162q-155 0 -329 -58v250q185 53 387 53q112 0 200 -23t155.5 -72t103.5 -131.5t36 -194.5v-666h-305v166h-6q-53 -91 -142 -140t-194 -49zM508 199q84 0 143.5 74t59.5 167v43h-109
q-105 0 -161 -42.5t-56 -116.5q0 -61 35 -93t88 -32zM569 1165q-95 0 -159 64.5t-64 159.5t64 159t159 64t159.5 -64t64.5 -159t-64.5 -159.5t-159.5 -64.5zM569 1282q44 0 75.5 31.5t31.5 75.5t-31.5 75t-75.5 31t-75 -31t-31 -75t31 -75.5t75 -31.5z" />
    <glyph glyph-name="ae" unicode="&#xe6;" horiz-adv-x="1812" 
d="M518 1087q132 0 227 -32.5t162 -106.5h8q127 139 338 139q230 0 353 -150.5t123 -418.5v-61h-668q17 -120 87 -179t200 -59q132 0 315 43v-233q-163 -52 -344 -52q-157 0 -276 55t-185 158h-6q-160 -213 -434 -213q-161 0 -262 85t-101 243q0 338 537 338h143v37
q0 45 -23 78.5t-62 50.5t-82 25t-91 8q-145 0 -319 -54v240q172 59 360 59zM518 193q88 0 152.5 64t64.5 175v25h-112q-114 0 -181 -36t-67 -108q0 -60 42 -90t101 -30zM1249 852q-77 0 -125.5 -56t-62.5 -153h356q5 93 -41 151t-127 58z" />
    <glyph glyph-name="ccedilla" unicode="&#xe7;" horiz-adv-x="993" 
d="M539 -399q-90 0 -160 51l45 98q44 -35 90 -35q34 0 56 18t22 48q0 29 -22.5 46t-63.5 17q-28 0 -55 -8l36 158q-195 40 -303 180.5t-108 355.5q0 251 148.5 404t410.5 153q152 0 262 -32v-244q-121 33 -201 33q-142 0 -212 -75.5t-70 -233.5q0 -163 80.5 -237.5
t218.5 -74.5q85 0 190 37v-250q-153 -33 -262 -33q-6 0 -18 1.5t-17 1.5l-10 -50q62 -2 101.5 -39.5t39.5 -109.5q0 -79 -54 -129.5t-144 -50.5z" />
    <glyph glyph-name="egrave" unicode="&#xe8;" horiz-adv-x="1177" 
d="M1094 442h-680q19 -116 87 -169.5t197 -53.5q147 0 330 43v-237q-192 -48 -360 -48q-282 0 -437 150.5t-155 411.5q0 251 145 399.5t381 148.5q241 0 366.5 -152.5t125.5 -428.5v-64zM604 850q-84 0 -132 -59.5t-62 -159.5h372q5 98 -43.5 158.5t-134.5 60.5zM489 1221
l-217 309h340l107 -309h-230z" />
    <glyph glyph-name="eacute" unicode="&#xe9;" horiz-adv-x="1177" 
d="M1094 442h-680q19 -116 87 -169.5t197 -53.5q147 0 330 43v-237q-192 -48 -360 -48q-282 0 -437 150.5t-155 411.5q0 251 145 399.5t381 148.5q241 0 366.5 -152.5t125.5 -428.5v-64zM604 850q-84 0 -132 -59.5t-62 -159.5h372q5 98 -43.5 158.5t-134.5 60.5zM485 1221
l133 309h340l-268 -309h-205z" />
    <glyph glyph-name="ecircumflex" unicode="&#xea;" horiz-adv-x="1177" 
d="M1094 442h-680q19 -116 87 -169.5t197 -53.5q147 0 330 43v-237q-192 -48 -360 -48q-282 0 -437 150.5t-155 411.5q0 251 145 399.5t381 148.5q241 0 366.5 -152.5t125.5 -428.5v-64zM604 850q-84 0 -132 -59.5t-62 -159.5h372q5 98 -43.5 158.5t-134.5 60.5zM229 1221
l224 309h288l217 -309h-223l-139 202l-145 -202h-222z" />
    <glyph glyph-name="edieresis" unicode="&#xeb;" horiz-adv-x="1177" 
d="M1094 442h-680q19 -116 87 -169.5t197 -53.5q147 0 330 43v-237q-192 -48 -360 -48q-282 0 -437 150.5t-155 411.5q0 251 145 399.5t381 148.5q241 0 366.5 -152.5t125.5 -428.5v-64zM604 850q-84 0 -132 -59.5t-62 -159.5h372q5 98 -43.5 158.5t-134.5 60.5zM682 1249
v252h264v-252h-264zM242 1249v252h264v-252h-264z" />
    <glyph glyph-name="igrave" unicode="&#xec;" horiz-adv-x="593" 
d="M133 0v1069h330v-1069h-330zM193 1221l-218 309h340l107 -309h-229z" />
    <glyph glyph-name="iacute" unicode="&#xed;" horiz-adv-x="593" 
d="M133 0v1069h330v-1069h-330zM188 1221l134 309h340l-269 -309h-205z" />
    <glyph glyph-name="icircumflex" unicode="&#xee;" horiz-adv-x="593" 
d="M133 0v1069h330v-1069h-330zM-14 1221l170 309h288l164 -309h-217l-92 180l-94 -180h-219z" />
    <glyph glyph-name="idieresis" unicode="&#xef;" horiz-adv-x="593" 
d="M133 0v1069h330v-1069h-330zM342 1249v252h227v-252h-227zM25 1249v252h227v-252h-227z" />
    <glyph glyph-name="eth" unicode="&#xf0;" horiz-adv-x="1269" 
d="M621 -23q-242 0 -393.5 147.5t-151.5 405.5q0 140 52.5 260.5t159.5 198.5t249 78q107 0 203 -50t153 -143h4v35q0 110 -80 204t-209 161l-45 -158l-119 31l52 178q-93 32 -191 49l68 264q94 -18 198 -49l47 168l119 -33l-51 -176q263 -107 385.5 -309.5t122.5 -509.5
q0 -176 -29.5 -309.5t-95 -235t-178 -154.5t-270.5 -53zM631 223q90 0 145 81.5t55 213.5t-56 216.5t-146 84.5q-97 0 -155 -84t-58 -215q0 -132 59 -214.5t156 -82.5z" />
    <glyph glyph-name="ntilde" unicode="&#xf1;" horiz-adv-x="1249" 
d="M133 0v1069h307v-176h4q135 194 344 194q170 0 262.5 -118t92.5 -324v-645h-330v551q0 130 -38 191t-120 61q-95 0 -143.5 -80.5t-48.5 -235.5v-487h-330zM240 1247q10 119 67 197t158 78q70 0 172 -45q5 -2 34 -14t51.5 -17.5t47.5 -5.5q67 0 78 82h151
q-11 -121 -68.5 -197t-160.5 -76q-60 0 -160 41q-9 3 -30 11t-31 11.5t-26 8t-29.5 6.5t-28.5 2q-32 0 -51.5 -22t-22.5 -60h-151z" />
    <glyph glyph-name="ograve" unicode="&#xf2;" horiz-adv-x="1269" 
d="M635 -23q-250 0 -404.5 151t-154.5 402q0 253 156.5 405t402.5 152q248 0 403.5 -152.5t155.5 -404.5q0 -253 -154.5 -403t-404.5 -150zM635 223q100 0 159.5 85.5t59.5 221.5q0 138 -60 225t-159 87t-159 -88t-60 -224q0 -137 60 -222t159 -85zM530 1221l-217 309h340
l107 -309h-230z" />
    <glyph glyph-name="oacute" unicode="&#xf3;" horiz-adv-x="1269" 
d="M635 -23q-250 0 -404.5 151t-154.5 402q0 253 156.5 405t402.5 152q248 0 403.5 -152.5t155.5 -404.5q0 -253 -154.5 -403t-404.5 -150zM635 223q100 0 159.5 85.5t59.5 221.5q0 138 -60 225t-159 87t-159 -88t-60 -224q0 -137 60 -222t159 -85zM526 1221l133 309h340
l-268 -309h-205z" />
    <glyph glyph-name="ocircumflex" unicode="&#xf4;" horiz-adv-x="1269" 
d="M635 -23q-250 0 -404.5 151t-154.5 402q0 253 156.5 405t402.5 152q248 0 403.5 -152.5t155.5 -404.5q0 -253 -154.5 -403t-404.5 -150zM635 223q100 0 159.5 85.5t59.5 221.5q0 138 -60 225t-159 87t-159 -88t-60 -224q0 -137 60 -222t159 -85zM270 1221l224 309h288
l217 -309h-223l-139 202l-145 -202h-222z" />
    <glyph glyph-name="otilde" unicode="&#xf5;" horiz-adv-x="1269" 
d="M635 -23q-250 0 -404.5 151t-154.5 402q0 253 156.5 405t402.5 152q248 0 403.5 -152.5t155.5 -404.5q0 -253 -154.5 -403t-404.5 -150zM635 223q100 0 159.5 85.5t59.5 221.5q0 138 -60 225t-159 87t-159 -88t-60 -224q0 -137 60 -222t159 -85zM256 1247q10 119 67 197
t158 78q70 0 172 -45q5 -2 34 -14t51.5 -17.5t47.5 -5.5q67 0 78 82h152q-11 -121 -69 -197t-161 -76q-59 0 -159 41q-8 3 -30 11.5t-31.5 11.5t-26 7.5t-30 6.5t-28.5 2q-32 0 -51 -21.5t-22 -60.5h-152z" />
    <glyph glyph-name="odieresis" unicode="&#xf6;" horiz-adv-x="1269" 
d="M635 -23q-250 0 -404.5 151t-154.5 402q0 253 156.5 405t402.5 152q248 0 403.5 -152.5t155.5 -404.5q0 -253 -154.5 -403t-404.5 -150zM635 223q100 0 159.5 85.5t59.5 221.5q0 138 -60 225t-159 87t-159 -88t-60 -224q0 -137 60 -222t159 -85zM723 1249v252h264v-252
h-264zM283 1249v252h264v-252h-264z" />
    <glyph glyph-name="divide" unicode="&#xf7;" horiz-adv-x="1187" 
d="M68 582v270h1052v-270h-1052zM596 111q-75 0 -128.5 53t-53.5 127q0 73 53 126.5t127 53.5t127 -53.5t53 -126.5q0 -72 -53 -126t-125 -54zM596 963q-74 0 -128 53.5t-54 126.5t53 126.5t127 53.5t127 -53.5t53 -126.5q0 -72 -53 -126t-125 -54z" />
    <glyph glyph-name="oslash" unicode="&#xf8;" horiz-adv-x="1269" 
d="M635 -23q-192 0 -334 93l-145 -162l-95 86l144 160q-129 148 -129 376q0 253 156.5 405t402.5 152q188 0 328 -92l149 166l96 -88l-147 -164q133 -149 133 -379q0 -253 -154.5 -403t-404.5 -150zM635 223q100 0 159.5 85.5t59.5 221.5q0 74 -18 132l-342 -377
q59 -62 141 -62zM416 530q0 -72 14 -124l340 376q-57 60 -135 60q-99 0 -159 -88t-60 -224z" />
    <glyph glyph-name="ugrave" unicode="&#xf9;" horiz-adv-x="1249" 
d="M1116 1069v-1069h-307v170h-4q-41 -58 -83.5 -97.5t-107 -67.5t-139.5 -28q-171 0 -270 120.5t-99 326.5v645h330v-551q0 -130 38 -191t118 -61q96 0 145 80.5t49 235.5v487h330zM510 1221l-217 309h340l106 -309h-229z" />
    <glyph glyph-name="uacute" unicode="&#xfa;" horiz-adv-x="1249" 
d="M1116 1069v-1069h-307v170h-4q-41 -58 -83.5 -97.5t-107 -67.5t-139.5 -28q-171 0 -270 120.5t-99 326.5v645h330v-551q0 -130 38 -191t118 -61q96 0 145 80.5t49 235.5v487h330zM506 1221l133 309h340l-268 -309h-205z" />
    <glyph glyph-name="ucircumflex" unicode="&#xfb;" horiz-adv-x="1249" 
d="M1116 1069v-1069h-307v170h-4q-41 -58 -83.5 -97.5t-107 -67.5t-139.5 -28q-171 0 -270 120.5t-99 326.5v645h330v-551q0 -130 38 -191t118 -61q96 0 145 80.5t49 235.5v487h330zM250 1221l223 309h289l217 -309h-223l-140 202l-145 -202h-221z" />
    <glyph glyph-name="udieresis" unicode="&#xfc;" horiz-adv-x="1249" 
d="M1116 1069v-1069h-307v170h-4q-41 -58 -83.5 -97.5t-107 -67.5t-139.5 -28q-171 0 -270 120.5t-99 326.5v645h330v-551q0 -130 38 -191t118 -61q96 0 145 80.5t49 235.5v487h330zM702 1249v252h265v-252h-265zM262 1249v252h264v-252h-264z" />
    <glyph glyph-name="yacute" unicode="&#xfd;" horiz-adv-x="1126" 
d="M283 -461q-21 0 -44.5 2t-39 4.5t-41.5 6.5l-39 6v262q87 -10 102 -10q129 0 172 120l4 13l-381 1126h365l182 -709l197 709h350l-383 -1126q-73 -215 -175 -309.5t-269 -94.5zM457 1221l133 309h340l-268 -309h-205z" />
    <glyph glyph-name="thorn" unicode="&#xfe;" horiz-adv-x="1290" 
d="M463 -438h-330v1980h330v-624h2q57 79 138.5 124t178.5 45q130 0 230 -75t151 -198.5t51 -274.5q0 -247 -127 -404.5t-325 -157.5q-187 0 -299 140v-555zM662 225q95 0 155 84.5t60 225.5q0 137 -59 219t-154 82q-94 0 -153.5 -84t-59.5 -224q0 -139 58.5 -221t152.5 -82
z" />
    <glyph glyph-name="ydieresis" unicode="&#xff;" horiz-adv-x="1126" 
d="M283 -461q-21 0 -44.5 2t-39 4.5t-41.5 6.5l-39 6v262q87 -10 102 -10q129 0 172 120l4 13l-381 1126h365l182 -709l197 709h350l-383 -1126q-73 -215 -175 -309.5t-269 -94.5zM653 1249v252h265v-252h-265zM213 1249v252h264v-252h-264z" />
    <glyph glyph-name="Amacron" unicode="&#x100;" horiz-adv-x="1413" 
d="M16 0l494 1434h393l494 -1434h-367l-88 285h-487l-88 -285h-351zM696 1069l-159 -518h323l-160 518h-4zM365 1587v164h686v-164h-686z" />
    <glyph glyph-name="amacron" unicode="&#x101;" horiz-adv-x="1142" 
d="M389 -23q-143 0 -238.5 85.5t-95.5 242.5q0 354 518 354h138v21q0 162 -228 162q-155 0 -329 -58v250q185 53 387 53q112 0 200 -23t155.5 -72t103.5 -131.5t36 -194.5v-666h-305v166h-6q-53 -91 -142 -140t-194 -49zM508 199q84 0 143.5 74t59.5 167v43h-109
q-105 0 -161 -42.5t-56 -116.5q0 -61 35 -93t88 -32zM227 1296v162h686v-162h-686z" />
    <glyph glyph-name="Abreve" unicode="&#x102;" horiz-adv-x="1413" 
d="M16 0l494 1434h393l494 -1434h-367l-88 285h-487l-88 -285h-351zM696 1069l-159 -518h323l-160 518h-4zM707 1511q-161 0 -268 71t-128 214h193q13 -61 63 -88t140 -27q92 0 141.5 27.5t62.5 87.5h191q-13 -97 -70 -162.5t-139 -94t-186 -28.5z" />
    <glyph glyph-name="abreve" unicode="&#x103;" horiz-adv-x="1142" 
d="M389 -23q-143 0 -238.5 85.5t-95.5 242.5q0 354 518 354h138v21q0 162 -228 162q-155 0 -329 -58v250q185 53 387 53q112 0 200 -23t155.5 -72t103.5 -131.5t36 -194.5v-666h-305v166h-6q-53 -91 -142 -140t-194 -49zM508 199q84 0 143.5 74t59.5 167v43h-109
q-105 0 -161 -42.5t-56 -116.5q0 -61 35 -93t88 -32zM569 1206q-163 0 -260 87t-106 237h178q13 -71 61 -113.5t127 -42.5q80 0 128 43t61 113h178q-9 -151 -107.5 -237.5t-259.5 -86.5z" />
    <glyph glyph-name="Aogonek" unicode="&#x104;" horiz-adv-x="1413" 
d="M1210 -455q-99 0 -150.5 47.5t-51.5 131.5q0 150 192 276h-170l-88 285h-487l-88 -285h-351l494 1434h393l494 -1434q-115 -76 -162 -131t-47 -102q0 -34 20 -54t58 -20q46 0 96 26l33 -129q-88 -45 -185 -45zM696 1069l-159 -518h323l-160 518h-4z" />
    <glyph glyph-name="aogonek" unicode="&#x105;" horiz-adv-x="1142" 
d="M850 -455q-99 0 -151 47.5t-52 131.5q0 149 193 276h-109v166h-6q-53 -91 -142 -140t-194 -49q-143 0 -238.5 85.5t-95.5 242.5q0 354 518 354h138v21q0 162 -228 162q-155 0 -329 -58v250q185 53 387 53q112 0 200 -23t155.5 -72t103.5 -131.5t36 -194.5v-666
q-115 -76 -162 -131t-47 -102q0 -34 20 -54t58 -20q46 0 96 26l33 -129q-88 -45 -184 -45zM508 199q84 0 143.5 74t59.5 167v43h-109q-105 0 -161 -42.5t-56 -116.5q0 -61 35 -93t88 -32z" />
    <glyph glyph-name="Cacute" unicode="&#x106;" horiz-adv-x="1290" 
d="M868 -23q-192 0 -342.5 55t-246 154.5t-144.5 233.5t-49 295q0 179 56.5 320.5t158.5 233t242 139.5t309 48q86 0 170.5 -14t125.5 -28l42 -15v-287q-62 27 -147.5 45.5t-168.5 18.5q-200 0 -318 -118t-118 -345q0 -228 121.5 -342.5t329.5 -114.5q154 0 301 47v-280
q-155 -46 -322 -46zM674 1522l129 274h340l-240 -274h-229z" />
    <glyph glyph-name="cacute" unicode="&#x107;" horiz-adv-x="993" 
d="M641 -23q-263 0 -414 149t-151 404q0 251 148.5 404t410.5 153q152 0 262 -32v-244q-121 33 -201 33q-142 0 -212 -75.5t-70 -233.5q0 -163 80.5 -237.5t218.5 -74.5q85 0 190 37v-250q-153 -33 -262 -33zM451 1221l133 309h340l-269 -309h-204z" />
    <glyph glyph-name="Ccircumflex" unicode="&#x108;" horiz-adv-x="1290" 
d="M868 -23q-192 0 -342.5 55t-246 154.5t-144.5 233.5t-49 295q0 179 56.5 320.5t158.5 233t242 139.5t309 48q86 0 170.5 -14t125.5 -28l42 -15v-287q-62 27 -147.5 45.5t-168.5 18.5q-200 0 -318 -118t-118 -345q0 -228 121.5 -342.5t329.5 -114.5q154 0 301 47v-280
q-155 -46 -322 -46zM399 1522l234 274h311l230 -274h-256l-130 166l-133 -166h-256z" />
    <glyph glyph-name="ccircumflex" unicode="&#x109;" horiz-adv-x="993" 
d="M641 -23q-263 0 -414 149t-151 404q0 251 148.5 404t410.5 153q152 0 262 -32v-244q-121 33 -201 33q-142 0 -212 -75.5t-70 -233.5q0 -163 80.5 -237.5t218.5 -74.5q85 0 190 37v-250q-153 -33 -262 -33zM195 1221l223 309h289l217 -309h-224l-139 202l-145 -202h-221z
" />
    <glyph glyph-name="Cdotaccent" unicode="&#x10a;" horiz-adv-x="1290" 
d="M868 -23q-192 0 -342.5 55t-246 154.5t-144.5 233.5t-49 295q0 179 56.5 320.5t158.5 233t242 139.5t309 48q86 0 170.5 -14t125.5 -28l42 -15v-287q-62 27 -147.5 45.5t-168.5 18.5q-200 0 -318 -118t-118 -345q0 -228 121.5 -342.5t329.5 -114.5q154 0 301 47v-280
q-155 -46 -322 -46zM643 1516v274h287v-274h-287z" />
    <glyph glyph-name="cdotaccent" unicode="&#x10b;" horiz-adv-x="993" 
d="M641 -23q-263 0 -414 149t-151 404q0 251 148.5 404t410.5 153q152 0 262 -32v-244q-121 33 -201 33q-142 0 -212 -75.5t-70 -233.5q0 -163 80.5 -237.5t218.5 -74.5q85 0 190 37v-250q-153 -33 -262 -33zM393 1245v256h332v-256h-332z" />
    <glyph glyph-name="Ccaron" unicode="&#x10c;" horiz-adv-x="1290" 
d="M868 -23q-192 0 -342.5 55t-246 154.5t-144.5 233.5t-49 295q0 179 56.5 320.5t158.5 233t242 139.5t309 48q86 0 170.5 -14t125.5 -28l42 -15v-287q-62 27 -147.5 45.5t-168.5 18.5q-200 0 -318 -118t-118 -345q0 -228 121.5 -342.5t329.5 -114.5q154 0 301 47v-280
q-155 -46 -322 -46zM629 1522l-230 274h265l120 -170l125 170h265l-234 -274h-311z" />
    <glyph glyph-name="ccaron" unicode="&#x10d;" horiz-adv-x="993" 
d="M641 -23q-263 0 -414 149t-151 404q0 251 148.5 404t410.5 153q152 0 262 -32v-244q-121 33 -201 33q-142 0 -212 -75.5t-70 -233.5q0 -163 80.5 -237.5t218.5 -74.5q85 0 190 37v-250q-153 -33 -262 -33zM412 1221l-217 309h229l133 -197l135 197h232l-224 -309h-288z
" />
    <glyph glyph-name="Dcaron" unicode="&#x10e;" horiz-adv-x="1474" 
d="M147 0v1434h504q170 0 304 -41.5t232 -126.5t150 -222.5t52 -322.5q0 -186 -53 -325.5t-151.5 -225.5t-232 -128t-301.5 -42h-504zM485 287h170q184 0 281.5 108t97.5 316q0 210 -98 323t-272 113h-179v-860zM580 1522l-230 274h264l121 -170l125 170h264l-233 -274h-311
z" />
    <glyph glyph-name="dcaron" unicode="&#x10f;" horiz-adv-x="1310" 
d="M541 -23q-142 0 -249.5 77.5t-161.5 204t-54 280.5q0 104 30 201t85.5 175t144 125t196.5 47q174 0 295 -129v584h330v-1542h-305v150q-106 -173 -311 -173zM627 225q93 0 153 83.5t60 219.5q0 137 -61 222.5t-154 85.5t-151 -84.5t-58 -221.5t59 -221t152 -84z
M1223 1167l90 377h289l-166 -377h-213z" />
    <glyph glyph-name="Dcroat" unicode="&#x110;" horiz-adv-x="1474" 
d="M147 0v645h-116v184h116v605h504q170 0 304 -41.5t232 -126.5t150 -222.5t52 -322.5q0 -186 -53 -325.5t-151.5 -225.5t-232 -128t-301.5 -42h-504zM485 287h170q184 0 281.5 108t97.5 316q0 210 -98 323t-272 113h-179v-318h344v-184h-344v-358z" />
    <glyph glyph-name="dcroat" unicode="&#x111;" horiz-adv-x="1290" 
d="M545 1239v154h282v149h330v-149h162v-154h-162v-1239h-305v150q-106 -173 -311 -173q-142 0 -249.5 77.5t-161.5 204t-54 280.5q0 104 30 201t85.5 175t144 125t196.5 47q174 0 295 -129v281h-282zM627 225q93 0 153 83.5t60 219.5q0 137 -61 222.5t-154 85.5t-151 -84.5
t-58 -221.5t59 -221t152 -84z" />
    <glyph glyph-name="Emacron" unicode="&#x112;" horiz-adv-x="1105" 
d="M147 0v1434h859v-287h-521v-275h478v-274h-478v-311h531v-287h-869zM246 1587v164h686v-164h-686z" />
    <glyph glyph-name="emacron" unicode="&#x113;" horiz-adv-x="1177" 
d="M1094 442h-680q19 -116 87 -169.5t197 -53.5q147 0 330 43v-237q-192 -48 -360 -48q-282 0 -437 150.5t-155 411.5q0 251 145 399.5t381 148.5q241 0 366.5 -152.5t125.5 -428.5v-64zM604 850q-84 0 -132 -59.5t-62 -159.5h372q5 98 -43.5 158.5t-134.5 60.5zM252 1296
v162h686v-162h-686z" />
    <glyph glyph-name="Edotaccent" unicode="&#x116;" horiz-adv-x="1105" 
d="M147 0v1434h859v-287h-521v-275h478v-274h-478v-311h531v-287h-869zM444 1516v274h287v-274h-287z" />
    <glyph glyph-name="edotaccent" unicode="&#x117;" horiz-adv-x="1177" 
d="M1094 442h-680q19 -116 87 -169.5t197 -53.5q147 0 330 43v-237q-192 -48 -360 -48q-282 0 -437 150.5t-155 411.5q0 251 145 399.5t381 148.5q241 0 366.5 -152.5t125.5 -428.5v-64zM604 850q-84 0 -132 -59.5t-62 -159.5h372q5 98 -43.5 158.5t-134.5 60.5zM428 1245
v256h332v-256h-332z" />
    <glyph glyph-name="Eogonek" unicode="&#x118;" horiz-adv-x="1105" 
d="M147 0v1434h859v-287h-521v-275h478v-274h-478v-311h531v-287q-115 -76 -162 -131t-47 -102q0 -34 20 -54t58 -20q46 0 96 26l33 -129q-88 -45 -185 -45q-99 0 -150.5 47.5t-51.5 131.5q0 150 192 276h-672z" />
    <glyph glyph-name="eogonek" unicode="&#x119;" horiz-adv-x="1177" 
d="M76 539q0 251 145 399.5t381 148.5q242 0 367 -152.5t125 -428.5v-64h-680q20 -116 88.5 -169.5t195.5 -53.5q147 0 330 43v-223q-115 -89 -161 -152t-46 -118q0 -76 76 -76q46 0 96 26l33 -129q-85 -45 -184 -45t-151 48.5t-52 130.5q0 139 160 262q-61 -9 -131 -9
q-282 0 -437 150.5t-155 411.5zM410 631h372q5 98 -43 158.5t-133 60.5q-163 0 -196 -219z" />
    <glyph glyph-name="Ecaron" unicode="&#x11a;" horiz-adv-x="1105" 
d="M147 0v1434h859v-287h-521v-275h478v-274h-478v-311h531v-287h-869zM430 1522l-229 274h264l121 -170l125 170h264l-234 -274h-311z" />
    <glyph glyph-name="ecaron" unicode="&#x11b;" horiz-adv-x="1177" 
d="M1094 442h-680q19 -116 87 -169.5t197 -53.5q147 0 330 43v-237q-192 -48 -360 -48q-282 0 -437 150.5t-155 411.5q0 251 145 399.5t381 148.5q241 0 366.5 -152.5t125.5 -428.5v-64zM604 850q-84 0 -132 -59.5t-62 -159.5h372q5 98 -43.5 158.5t-134.5 60.5zM446 1221
l-217 309h230l133 -197l135 197h231l-223 -309h-289z" />
    <glyph glyph-name="Gcircumflex" unicode="&#x11c;" horiz-adv-x="1464" 
d="M866 -23q-372 0 -576 195t-204 553q0 236 99.5 402t275 247.5t413.5 81.5q255 0 431 -61v-281q-190 64 -396 64q-231 0 -351 -119t-120 -346q0 -219 117 -345t319 -126q79 0 154 16l4 297h-252v266h559v-780q-227 -64 -473 -64zM424 1522l233 274h312l229 -274h-256
l-129 166l-133 -166h-256z" />
    <glyph glyph-name="gcircumflex" unicode="&#x11d;" horiz-adv-x="1290" 
d="M580 -459q-200 0 -404 60v264q206 -74 375 -74q153 0 224 75.5t71 237.5v37h-6q-55 -67 -137 -104t-175 -37q-106 0 -193 43.5t-143 118t-86 173t-30 210.5q0 154 54 276.5t159 194t243 71.5q188 0 312 -161h6v143h307v-965q0 -295 -140.5 -429t-436.5 -134zM623 248
q93 0 152 80.5t59 216.5q0 134 -59.5 212.5t-153.5 78.5q-92 0 -149.5 -77t-57.5 -210q0 -137 58 -219t151 -82zM252 1221l223 309h289l217 -309h-223l-140 202l-145 -202h-221z" />
    <glyph glyph-name="Gbreve" unicode="&#x11e;" horiz-adv-x="1464" 
d="M866 -23q-372 0 -576 195t-204 553q0 236 99.5 402t275 247.5t413.5 81.5q255 0 431 -61v-281q-190 64 -396 64q-231 0 -351 -119t-120 -346q0 -219 117 -345t319 -126q79 0 154 16l4 297h-252v266h559v-780q-227 -64 -473 -64zM811 1511q-161 0 -267.5 71t-127.5 214
h192q13 -61 63 -88t140 -27q93 0 142.5 27.5t62.5 87.5h190q-13 -97 -70 -162.5t-139 -94t-186 -28.5z" />
    <glyph glyph-name="gbreve" unicode="&#x11f;" horiz-adv-x="1290" 
d="M580 -459q-200 0 -404 60v264q206 -74 375 -74q153 0 224 75.5t71 237.5v37h-6q-55 -67 -137 -104t-175 -37q-106 0 -193 43.5t-143 118t-86 173t-30 210.5q0 154 54 276.5t159 194t243 71.5q188 0 312 -161h6v143h307v-965q0 -295 -140.5 -429t-436.5 -134zM623 248
q93 0 152 80.5t59 216.5q0 134 -59.5 212.5t-153.5 78.5q-92 0 -149.5 -77t-57.5 -210q0 -137 58 -219t151 -82zM616 1206q-163 0 -260 87t-106 237h178q13 -71 61 -113.5t127 -42.5q80 0 128 43t61 113h178q-9 -151 -107.5 -237.5t-259.5 -86.5z" />
    <glyph glyph-name="Gdotaccent" unicode="&#x120;" horiz-adv-x="1464" 
d="M866 -23q-372 0 -576 195t-204 553q0 236 99.5 402t275 247.5t413.5 81.5q255 0 431 -61v-281q-190 64 -396 64q-231 0 -351 -119t-120 -346q0 -219 117 -345t319 -126q79 0 154 16l4 297h-252v266h559v-780q-227 -64 -473 -64zM668 1516v274h286v-274h-286z" />
    <glyph glyph-name="gdotaccent" unicode="&#x121;" horiz-adv-x="1290" 
d="M580 -459q-200 0 -404 60v264q206 -74 375 -74q153 0 224 75.5t71 237.5v37h-6q-55 -67 -137 -104t-175 -37q-106 0 -193 43.5t-143 118t-86 173t-30 210.5q0 154 54 276.5t159 194t243 71.5q188 0 312 -161h6v143h307v-965q0 -295 -140.5 -429t-436.5 -134zM623 248
q93 0 152 80.5t59 216.5q0 134 -59.5 212.5t-153.5 78.5q-92 0 -149.5 -77t-57.5 -210q0 -137 58 -219t151 -82zM451 1245v256h331v-256h-331z" />
    <glyph glyph-name="uni0122" unicode="&#x122;" horiz-adv-x="1464" 
d="M866 -23q-372 0 -576 195t-204 553q0 236 99.5 402t275 247.5t413.5 81.5q255 0 431 -61v-281q-190 64 -396 64q-231 0 -351 -119t-120 -346q0 -219 117 -345t319 -126q79 0 154 16l4 297h-252v266h559v-780q-227 -64 -473 -64zM504 -512l90 410h309l-151 -410h-248z" />
    <glyph glyph-name="uni0123" unicode="&#x123;" horiz-adv-x="1290" 
d="M580 -459q-200 0 -404 60v264q206 -74 375 -74q153 0 224 75.5t71 237.5v37h-6q-55 -67 -137 -104t-175 -37q-106 0 -193 43.5t-143 118t-86 173t-30 210.5q0 154 54 276.5t159 194t243 71.5q188 0 312 -161h6v143h307v-965q0 -295 -140.5 -429t-436.5 -134zM623 248
q93 0 152 80.5t59 216.5q0 134 -59.5 212.5t-153.5 78.5q-92 0 -149.5 -77t-57.5 -210q0 -137 58 -219t151 -82zM492 1210l165 396h234l-80 -396h-319z" />
    <glyph glyph-name="Hcircumflex" unicode="&#x124;" horiz-adv-x="1474" 
d="M147 0v1434h338v-549h504v549h338v-1434h-338v598h-504v-598h-338zM350 1522l234 274h311l229 -274h-256l-129 166l-133 -166h-256z" />
    <glyph glyph-name="hcircumflex" unicode="&#x125;" horiz-adv-x="1249" 
d="M133 0v1542h330v-473l-2 -176h6q128 194 328 194q168 0 258 -117.5t90 -324.5v-645h-330v551q0 130 -38 191t-118 61q-96 0 -145 -80.5t-49 -235.5v-487h-330zM-70 1638l224 310h288l217 -310h-223l-139 203l-145 -203h-222z" />
    <glyph glyph-name="Hbar" unicode="&#x126;" horiz-adv-x="1495" 
d="M158 0v1051h-117v184h117v199h338v-199h503v199h338v-199h117v-184h-117v-1051h-338v598h-503v-598h-338zM496 885h503v166h-503v-166z" />
    <glyph glyph-name="hbar" unicode="&#x127;" horiz-adv-x="1249" 
d="M-18 1239v154h151v149h330v-149h346v-154h-346v-170l-2 -176h6q128 194 328 194q168 0 258 -117.5t90 -324.5v-645h-330v551q0 130 -38 191t-118 61q-96 0 -145 -80.5t-49 -235.5v-487h-330v1239h-151z" />
    <glyph glyph-name="Imacron" unicode="&#x12a;" horiz-adv-x="634" 
d="M147 0v1434h340v-1434h-340zM37 1587v164h563v-164h-563z" />
    <glyph glyph-name="imacron" unicode="&#x12b;" horiz-adv-x="593" 
d="M133 0v1069h330v-1069h-330zM25 1296v162h546v-162h-546z" />
    <glyph glyph-name="Iogonek" unicode="&#x12e;" horiz-adv-x="634" 
d="M147 0v1434h340v-1434q-115 -75 -161.5 -130t-46.5 -103q0 -35 19.5 -54.5t57.5 -19.5q47 0 97 26l32 -129q-88 -45 -184 -45q-99 0 -151 47.5t-52 131.5q0 149 193 276h-144z" />
    <glyph glyph-name="iogonek" unicode="&#x12f;" horiz-adv-x="593" 
d="M133 0v1069h330v-1069q-115 -76 -162 -131t-47 -102q0 -34 20 -54t58 -20q46 0 96 26l33 -129q-88 -45 -185 -45q-99 0 -150.5 47.5t-51.5 131.5q0 150 192 276h-133zM131 1245v256h332v-256h-332z" />
    <glyph glyph-name="Idotaccent" unicode="&#x130;" horiz-adv-x="634" 
d="M147 0v1434h340v-1434h-340zM174 1516v274h287v-274h-287z" />
    <glyph glyph-name="dotlessi" unicode="&#x131;" horiz-adv-x="593" 
d="M133 0v1069h330v-1069h-330z" />
    <glyph glyph-name="Jcircumflex" unicode="&#x134;" horiz-adv-x="778" 
d="M197 -23q-90 0 -160 23v262q62 -16 98 -16q49 0 82.5 24t50 70.5t23 97.5t6.5 121v875h338v-975q0 -239 -111 -360.5t-327 -121.5zM76 1522l233 274h312l229 -274h-256l-129 166l-133 -166h-256z" />
    <glyph glyph-name="jcircumflex" unicode="&#x135;" horiz-adv-x="593" 
d="M90 -459q-41 0 -137 17v252q54 -9 70 -9q61 0 85.5 42.5t24.5 129.5v1096h330v-1104q0 -222 -92 -323t-281 -101zM-14 1221l170 309h288l164 -309h-217l-92 180l-94 -180h-219z" />
    <glyph glyph-name="uni0136" unicode="&#x136;" horiz-adv-x="1320" 
d="M147 0v1434h338v-551h101l334 551h376l-428 -680l451 -754h-391l-344 616h-99v-616h-338zM440 -512l90 410h310l-152 -410h-248z" />
    <glyph glyph-name="uni0137" unicode="&#x137;" horiz-adv-x="1136" 
d="M133 0v1542h330v-905l313 432h359l-349 -465l361 -604h-371l-233 420l-80 -101v-319h-330zM377 -492l92 390h297l-154 -390h-235z" />
    <glyph glyph-name="Lacute" unicode="&#x139;" horiz-adv-x="1064" 
d="M147 0v1434h338v-1147h547v-287h-885zM205 1522l129 274h340l-240 -274h-229z" />
    <glyph glyph-name="lacute" unicode="&#x13a;" horiz-adv-x="593" 
d="M131 0v1542h332v-1542h-332zM188 1624l134 309h340l-269 -309h-205z" />
    <glyph glyph-name="uni013B" unicode="&#x13b;" horiz-adv-x="1064" 
d="M147 0v1434h338v-1147h547v-287h-885zM303 -512l90 410h309l-151 -410h-248z" />
    <glyph glyph-name="uni013C" unicode="&#x13c;" horiz-adv-x="593" 
d="M131 0v1542h332v-1542h-332zM70 -492l92 390h297l-154 -390h-235z" />
    <glyph glyph-name="Lcaron" unicode="&#x13d;" horiz-adv-x="1064" 
d="M690 952l103 482h290l-186 -482h-207zM147 0v1434h338v-1147h547v-287h-885z" />
    <glyph glyph-name="lcaron" unicode="&#x13e;" horiz-adv-x="593" 
d="M131 0v1542h332v-1542h-332zM504 1167l90 377h289l-166 -377h-213z" />
    <glyph glyph-name="Ldot" unicode="&#x13f;" horiz-adv-x="1064" 
d="M692 621v313h314v-313h-314zM147 0v1434h338v-1147h547v-287h-885z" />
    <glyph glyph-name="ldot" unicode="&#x140;" horiz-adv-x="921" 
d="M602 633v315h311v-315h-311zM131 0v1544h332v-1544h-332z" />
    <glyph glyph-name="Lslash" unicode="&#x141;" horiz-adv-x="1064" 
d="M147 0v510l-147 -84v192l147 84v732h338v-537l334 193v-193l-334 -192v-418h547v-287h-885z" />
    <glyph glyph-name="lslash" unicode="&#x142;" horiz-adv-x="614" 
d="M141 0v569l-135 -82v213l135 82v760h332v-557l135 84v-213l-135 -84v-772h-332z" />
    <glyph glyph-name="Nacute" unicode="&#x143;" horiz-adv-x="1495" 
d="M147 0v1434h426l455 -965h4l-8 149v816h324v-1434h-406l-471 995h-4l4 -151v-844h-324zM672 1522l129 274h340l-240 -274h-229z" />
    <glyph glyph-name="nacute" unicode="&#x144;" horiz-adv-x="1249" 
d="M133 0v1069h307v-176h4q135 194 344 194q170 0 262.5 -118t92.5 -324v-645h-330v551q0 130 -38 191t-120 61q-95 0 -143.5 -80.5t-48.5 -235.5v-487h-330zM510 1221l133 309h340l-268 -309h-205z" />
    <glyph glyph-name="uni0145" unicode="&#x145;" horiz-adv-x="1495" 
d="M147 0v1434h426l455 -965h4l-8 149v816h324v-1434h-406l-471 995h-4l4 -151v-844h-324zM522 -512l90 410h310l-152 -410h-248z" />
    <glyph glyph-name="uni0146" unicode="&#x146;" horiz-adv-x="1249" 
d="M133 0v1069h307v-176h4q135 194 344 194q170 0 262.5 -118t92.5 -324v-645h-330v551q0 130 -38 191t-120 61q-95 0 -143.5 -80.5t-48.5 -235.5v-487h-330zM395 -492l92 390h297l-153 -390h-236z" />
    <glyph glyph-name="Ncaron" unicode="&#x147;" horiz-adv-x="1495" 
d="M147 0v1434h426l455 -965h4l-8 149v816h324v-1434h-406l-471 995h-4l4 -151v-844h-324zM627 1522l-230 274h265l120 -170l125 170h264l-233 -274h-311z" />
    <glyph glyph-name="ncaron" unicode="&#x148;" horiz-adv-x="1249" 
d="M133 0v1069h307v-176h4q135 194 344 194q170 0 262.5 -118t92.5 -324v-645h-330v551q0 130 -38 191t-120 61q-95 0 -143.5 -80.5t-48.5 -235.5v-487h-330zM471 1221l-217 309h229l133 -197l136 197h231l-223 -309h-289z" />
    <glyph glyph-name="Omacron" unicode="&#x14c;" horiz-adv-x="1536" 
d="M768 -23q-326 0 -504 198t-178 542q0 347 178.5 543t503.5 196q327 0 504.5 -197t177.5 -542q0 -347 -178.5 -543.5t-503.5 -196.5zM768 258q108 0 184 63.5t110 165t34 230.5q0 203 -84.5 332t-243.5 129q-108 0 -184 -64t-110 -166t-34 -231q0 -132 34.5 -233.5
t110 -163.5t183.5 -62zM426 1587v164h686v-164h-686z" />
    <glyph glyph-name="omacron" unicode="&#x14d;" horiz-adv-x="1269" 
d="M635 -23q-250 0 -404.5 151t-154.5 402q0 253 156.5 405t402.5 152q248 0 403.5 -152.5t155.5 -404.5q0 -253 -154.5 -403t-404.5 -150zM635 223q100 0 159.5 85.5t59.5 221.5q0 138 -60 225t-159 87t-159 -88t-60 -224q0 -137 60 -222t159 -85zM293 1296v162h686v-162
h-686z" />
    <glyph glyph-name="Obreve" unicode="&#x14e;" horiz-adv-x="1536" 
d="M768 -23q-326 0 -504 198t-178 542q0 347 178.5 543t503.5 196q327 0 504.5 -197t177.5 -542q0 -347 -178.5 -543.5t-503.5 -196.5zM768 258q108 0 184 63.5t110 165t34 230.5q0 203 -84.5 332t-243.5 129q-108 0 -184 -64t-110 -166t-34 -231q0 -132 34.5 -233.5
t110 -163.5t183.5 -62zM768 1511q-161 0 -267.5 71t-127.5 214h192q13 -61 63 -88t140 -27q93 0 142.5 27.5t62.5 87.5h190q-13 -97 -70 -162.5t-139 -94t-186 -28.5z" />
    <glyph glyph-name="obreve" unicode="&#x14f;" horiz-adv-x="1269" 
d="M635 -23q-250 0 -404.5 151t-154.5 402q0 253 156.5 405t402.5 152q248 0 403.5 -152.5t155.5 -404.5q0 -253 -154.5 -403t-404.5 -150zM635 223q100 0 159.5 85.5t59.5 221.5q0 138 -60 225t-159 87t-159 -88t-60 -224q0 -137 60 -222t159 -85zM635 1206
q-163 0 -260.5 87t-106.5 237h178q13 -70 61.5 -113t127.5 -43q80 0 127.5 43t60.5 113h178q-9 -151 -107 -237.5t-259 -86.5z" />
    <glyph glyph-name="Ohungarumlaut" unicode="&#x150;" horiz-adv-x="1536" 
d="M768 -23q-326 0 -504 198t-178 542q0 347 178.5 543t503.5 196q327 0 504.5 -197t177.5 -542q0 -347 -178.5 -543.5t-503.5 -196.5zM768 258q108 0 184 63.5t110 165t34 230.5q0 203 -84.5 332t-243.5 129q-108 0 -184 -64t-110 -166t-34 -231q0 -132 34.5 -233.5
t110 -163.5t183.5 -62zM862 1522l148 274h319l-266 -274h-201zM410 1522l147 274h320l-267 -274h-200z" />
    <glyph glyph-name="ohungarumlaut" unicode="&#x151;" horiz-adv-x="1269" 
d="M635 -23q-250 0 -404.5 151t-154.5 402q0 253 156.5 405t402.5 152q248 0 403.5 -152.5t155.5 -404.5q0 -253 -154.5 -403t-404.5 -150zM635 223q100 0 159.5 85.5t59.5 221.5q0 138 -60 225t-159 87t-159 -88t-60 -224q0 -137 60 -222t159 -85zM741 1221l148 309h321
l-268 -309h-201zM291 1221l145 309h322l-266 -309h-201z" />
    <glyph glyph-name="OE" unicode="&#x152;" horiz-adv-x="1925" 
d="M780 -16q-334 0 -514 190.5t-180 542.5q0 355 182.5 544t538.5 189q50 0 256.5 -8t359.5 -8h402v-287h-516v-277h471v-274h-471v-309h526v-287h-522q-61 0 -272 -8t-261 -8zM862 264q73 0 109 4v897q-60 6 -142 6q-389 0 -389 -456q0 -212 104.5 -331.5t317.5 -119.5z
" />
    <glyph glyph-name="oe" unicode="&#x153;" horiz-adv-x="1925" 
d="M1434 -23q-144 0 -256 46.5t-181 134.5q-139 -181 -385 -181q-240 0 -388 151t-148 402q0 254 149.5 405.5t386.5 151.5q118 0 217 -48t168 -134q62 88 156.5 135t212.5 47q231 0 353 -154.5t122 -430.5v-64h-663q20 -109 89.5 -162t194.5 -53q120 0 314 49v-243
q-163 -52 -342 -52zM416 530q0 -137 57 -222t152 -85q97 0 154 85.5t57 221.5q0 140 -58 226t-153 86q-96 0 -152.5 -87t-56.5 -225zM1356 850q-77 0 -123.5 -60t-58.5 -163h356q5 98 -42.5 160.5t-131.5 62.5z" />
    <glyph glyph-name="Racute" unicode="&#x154;" horiz-adv-x="1280" 
d="M879 0l-215 508h-17h-162v-508h-338v1434h478q278 0 416.5 -121t138.5 -340q0 -279 -213 -391l293 -582h-381zM485 764h150q97 0 149 56.5t52 152.5t-51 147t-150 51h-150v-407zM528 1522l129 274h340l-239 -274h-230z" />
    <glyph glyph-name="racute" unicode="&#x155;" horiz-adv-x="829" 
d="M133 0v1069h307v-178h2q15 34 26 55t32.5 51t45 47t60 30t80.5 13q48 0 98 -8v-276q-59 6 -100 6q-55 0 -94 -15.5t-63.5 -42.5t-38.5 -72.5t-19.5 -97.5t-5.5 -124v-457h-330zM311 1221l133 309h340l-268 -309h-205z" />
    <glyph glyph-name="uni0156" unicode="&#x156;" horiz-adv-x="1280" 
d="M879 0l-215 508h-17h-162v-508h-338v1434h478q278 0 416.5 -121t138.5 -340q0 -279 -213 -391l293 -582h-381zM485 764h150q97 0 149 56.5t52 152.5t-51 147t-150 51h-150v-407zM449 -512l90 410h309l-152 -410h-247z" />
    <glyph glyph-name="uni0157" unicode="&#x157;" horiz-adv-x="829" 
d="M133 0v1069h307v-178h2q15 34 26 55t32.5 51t45 47t60 30t80.5 13q48 0 98 -8v-276q-59 6 -100 6q-55 0 -94 -15.5t-63.5 -42.5t-38.5 -72.5t-19.5 -97.5t-5.5 -124v-457h-330zM68 -492l92 390h297l-154 -390h-235z" />
    <glyph glyph-name="Rcaron" unicode="&#x158;" horiz-adv-x="1280" 
d="M879 0l-215 508h-17h-162v-508h-338v1434h478q278 0 416.5 -121t138.5 -340q0 -279 -213 -391l293 -582h-381zM485 764h150q97 0 149 56.5t52 152.5t-51 147t-150 51h-150v-407zM483 1522l-229 274h264l121 -170l125 170h264l-233 -274h-312z" />
    <glyph glyph-name="rcaron" unicode="&#x159;" horiz-adv-x="829" 
d="M133 0v1069h307v-178h2q15 34 26 55t32.5 51t45 47t60 30t80.5 13q48 0 98 -8v-276q-59 6 -100 6q-55 0 -94 -15.5t-63.5 -42.5t-38.5 -72.5t-19.5 -97.5t-5.5 -124v-457h-330zM272 1221l-217 309h230l133 -197l135 197h231l-223 -309h-289z" />
    <glyph glyph-name="Sacute" unicode="&#x15a;" horiz-adv-x="1085" 
d="M455 -23q-193 0 -373 56v284q88 -35 188.5 -53t178.5 -18q108 0 164.5 39t56.5 110q0 45 -35.5 83t-67 55.5t-114.5 54.5q-16 8 -25 12q-45 21 -74 35.5t-71 39t-69 47t-57 56t-48 69t-29.5 83t-11.5 100.5q0 209 149 317.5t395 108.5q179 0 332 -51v-260
q-131 45 -307 45q-217 0 -217 -127q0 -27 12.5 -51.5t28.5 -41.5t50.5 -37.5t58 -32.5t71.5 -34q142 -66 196 -102q158 -105 181 -271q4 -31 4 -65q0 -223 -152 -337t-415 -114zM430 1522l129 274h340l-240 -274h-229z" />
    <glyph glyph-name="sacute" unicode="&#x15b;" horiz-adv-x="962" 
d="M432 -23q-184 0 -344 54v243q192 -61 324 -61q131 0 131 82q0 12 -2.5 22.5t-9 20t-12.5 17t-18.5 16.5t-21.5 14.5t-26.5 14.5t-28 14.5t-32.5 15.5t-34 16q-40 18 -64.5 31t-61 35t-59.5 45.5t-46 54.5t-34 70.5t-11 85.5q0 81 33 143t92 100t135.5 57t167.5 19
q168 0 315 -59v-233q-143 57 -274 57q-143 0 -143 -76q0 -13 4 -24t13.5 -20.5t18.5 -17t26.5 -17t30 -15t35.5 -16t37 -17.5t51.5 -24t55.5 -26t51 -28t50 -34t40.5 -40t35 -50.5t20 -60.5t8.5 -75q0 -90 -34.5 -155.5t-97.5 -104t-142.5 -56.5t-178.5 -18zM373 1221
l133 309h340l-268 -309h-205z" />
    <glyph glyph-name="Scircumflex" unicode="&#x15c;" horiz-adv-x="1085" 
d="M455 -23q-193 0 -373 56v284q88 -35 188.5 -53t178.5 -18q108 0 164.5 39t56.5 110q0 45 -35.5 83t-67 55.5t-114.5 54.5q-16 8 -25 12q-45 21 -74 35.5t-71 39t-69 47t-57 56t-48 69t-29.5 83t-11.5 100.5q0 209 149 317.5t395 108.5q179 0 332 -51v-260
q-131 45 -307 45q-217 0 -217 -127q0 -27 12.5 -51.5t28.5 -41.5t50.5 -37.5t58 -32.5t71.5 -34q142 -66 196 -102q158 -105 181 -271q4 -31 4 -65q0 -223 -152 -337t-415 -114zM156 1522l233 274h311l230 -274h-256l-129 166l-133 -166h-256z" />
    <glyph glyph-name="scircumflex" unicode="&#x15d;" horiz-adv-x="962" 
d="M432 -23q-184 0 -344 54v243q192 -61 324 -61q131 0 131 82q0 12 -2.5 22.5t-9 20t-12.5 17t-18.5 16.5t-21.5 14.5t-26.5 14.5t-28 14.5t-32.5 15.5t-34 16q-40 18 -64.5 31t-61 35t-59.5 45.5t-46 54.5t-34 70.5t-11 85.5q0 81 33 143t92 100t135.5 57t167.5 19
q168 0 315 -59v-233q-143 57 -274 57q-143 0 -143 -76q0 -13 4 -24t13.5 -20.5t18.5 -17t26.5 -17t30 -15t35.5 -16t37 -17.5t51.5 -24t55.5 -26t51 -28t50 -34t40.5 -40t35 -50.5t20 -60.5t8.5 -75q0 -90 -34.5 -155.5t-97.5 -104t-142.5 -56.5t-178.5 -18zM117 1221
l223 309h289l217 -309h-223l-140 202l-145 -202h-221z" />
    <glyph glyph-name="Scedilla" unicode="&#x15e;" horiz-adv-x="1085" 
d="M512 -455q-102 0 -180 60l51 108q50 -37 102 -37q39 0 62.5 19.5t23.5 52.5q0 34 -25 54t-71 20q-32 0 -61 -10l37 165q-191 0 -369 56v284q88 -35 188.5 -53t178.5 -18q108 0 164.5 39t56.5 110q0 45 -35.5 83t-67 55.5t-114.5 54.5q-16 8 -25 12q-45 21 -74 35.5
t-71 39t-69 47t-57 56t-48 69t-29.5 83t-11.5 100.5q0 209 149 317.5t395 108.5q179 0 332 -51v-260q-131 45 -307 45q-217 0 -217 -127q0 -27 12.5 -51.5t28.5 -41.5t50.5 -37.5t58 -32.5t71.5 -34q142 -66 196 -102q158 -105 181 -271q4 -31 4 -65q0 -192 -114 -303.5
t-318 -136.5l-15 -68q71 -3 116.5 -46t45.5 -124q0 -90 -61.5 -147.5t-163.5 -57.5z" />
    <glyph glyph-name="scedilla" unicode="&#x15f;" horiz-adv-x="962" 
d="M463 -399q-90 0 -160 51l45 98q44 -35 90 -35q34 0 56 18t22 48q0 29 -22.5 46t-63.5 17q-28 0 -55 -8l33 141q-168 3 -320 54v243q192 -61 324 -61q131 0 131 82q0 12 -2.5 22.5t-9 20t-12.5 17t-18.5 16.5t-21.5 14.5t-26.5 14.5t-28 14.5t-32.5 15.5t-34 16
q-40 18 -64.5 31t-61 35t-59.5 45.5t-46 54.5t-34 70.5t-11 85.5q0 81 33 143t92 100t135.5 57t167.5 19q168 0 315 -59v-233q-143 57 -274 57q-143 0 -143 -76q0 -13 4 -24t13.5 -20.5t18.5 -17t26.5 -17t30 -15t35.5 -16t37 -17.5t51.5 -24t55.5 -26t51 -28t50 -34
t40.5 -40t35 -50.5t20 -60.5t8.5 -75q0 -152 -95.5 -231.5t-259.5 -95.5l-10 -54q62 -2 102 -39.5t40 -109.5q0 -79 -54.5 -129.5t-144.5 -50.5z" />
    <glyph glyph-name="Scaron" unicode="&#x160;" horiz-adv-x="1085" 
d="M455 -23q-193 0 -373 56v284q88 -35 188.5 -53t178.5 -18q108 0 164.5 39t56.5 110q0 45 -35.5 83t-67 55.5t-114.5 54.5q-16 8 -25 12q-45 21 -74 35.5t-71 39t-69 47t-57 56t-48 69t-29.5 83t-11.5 100.5q0 209 149 317.5t395 108.5q179 0 332 -51v-260
q-131 45 -307 45q-217 0 -217 -127q0 -27 12.5 -51.5t28.5 -41.5t50.5 -37.5t58 -32.5t71.5 -34q142 -66 196 -102q158 -105 181 -271q4 -31 4 -65q0 -223 -152 -337t-415 -114zM385 1522l-229 274h264l121 -170l125 170h264l-234 -274h-311z" />
    <glyph glyph-name="scaron" unicode="&#x161;" horiz-adv-x="962" 
d="M432 -23q-184 0 -344 54v243q192 -61 324 -61q131 0 131 82q0 12 -2.5 22.5t-9 20t-12.5 17t-18.5 16.5t-21.5 14.5t-26.5 14.5t-28 14.5t-32.5 15.5t-34 16q-40 18 -64.5 31t-61 35t-59.5 45.5t-46 54.5t-34 70.5t-11 85.5q0 81 33 143t92 100t135.5 57t167.5 19
q168 0 315 -59v-233q-143 57 -274 57q-143 0 -143 -76q0 -13 4 -24t13.5 -20.5t18.5 -17t26.5 -17t30 -15t35.5 -16t37 -17.5t51.5 -24t55.5 -26t51 -28t50 -34t40.5 -40t35 -50.5t20 -60.5t8.5 -75q0 -90 -34.5 -155.5t-97.5 -104t-142.5 -56.5t-178.5 -18zM334 1221
l-217 309h229l133 -197l135 197h232l-223 -309h-289z" />
    <glyph glyph-name="uni0162" unicode="&#x162;" horiz-adv-x="1146" 
d="M403 0v1147h-372v287h1085v-287h-373v-1147h-100l-18 -80q71 -3 116 -46t45 -124q0 -90 -61.5 -147.5t-163.5 -57.5t-180 60l51 108q50 -37 103 -37q39 0 62.5 19.5t23.5 52.5q0 34 -25 54t-72 20q-32 0 -61 -10l41 188h-101z" />
    <glyph glyph-name="uni0163" unicode="&#x163;" horiz-adv-x="778" 
d="M416 -399q-90 0 -160 51l45 98q44 -35 90 -35q34 0 56 18t22 48q0 29 -22.5 46t-63.5 17q-28 0 -55 -8l41 174q-185 82 -185 330v473h-141v256h141v227l328 95v-322h186v-256h-186v-399q0 -183 127 -183q24 0 70 11v-248q-117 -17 -156 -17q-13 0 -70 5l-10 -52
q62 -2 101.5 -39.5t39.5 -109.5q0 -79 -54 -129.5t-144 -50.5z" />
    <glyph glyph-name="Tcaron" unicode="&#x164;" horiz-adv-x="1146" 
d="M403 0v1147h-372v287h1085v-287h-373v-1147h-340zM416 1522l-230 274h265l120 -170l125 170h265l-234 -274h-311z" />
    <glyph glyph-name="tcaron" unicode="&#x165;" horiz-adv-x="778" 
d="M698 1069v-256h-186v-399q0 -183 127 -183q24 0 70 11v-248q-117 -17 -156 -17q-172 0 -270.5 90.5t-98.5 272.5v473h-141v256h141v227l328 95v-322h186zM596 1167l90 377h289l-166 -377h-213z" />
    <glyph glyph-name="Umacron" unicode="&#x16a;" horiz-adv-x="1474" 
d="M737 -23q-281 0 -437.5 146t-156.5 436v875h338v-826q0 -171 60.5 -262.5t195.5 -91.5q138 0 197 92.5t59 261.5v826h338v-875q0 -289 -157.5 -435.5t-436.5 -146.5zM395 1587v164h686v-164h-686z" />
    <glyph glyph-name="umacron" unicode="&#x16b;" horiz-adv-x="1249" 
d="M1116 1069v-1069h-307v170h-4q-41 -58 -83.5 -97.5t-107 -67.5t-139.5 -28q-171 0 -270 120.5t-99 326.5v645h330v-551q0 -130 38 -191t118 -61q96 0 145 80.5t49 235.5v487h330zM272 1296v162h686v-162h-686z" />
    <glyph glyph-name="Ubreve" unicode="&#x16c;" horiz-adv-x="1474" 
d="M737 -23q-281 0 -437.5 146t-156.5 436v875h338v-826q0 -171 60.5 -262.5t195.5 -91.5q138 0 197 92.5t59 261.5v826h338v-875q0 -289 -157.5 -435.5t-436.5 -146.5zM737 1511q-161 0 -267.5 71t-127.5 214h193q13 -61 62.5 -88t139.5 -27q93 0 142.5 27.5t62.5 87.5h191
q-13 -97 -70.5 -162.5t-139.5 -94t-186 -28.5z" />
    <glyph glyph-name="ubreve" unicode="&#x16d;" horiz-adv-x="1249" 
d="M1116 1069v-1069h-307v170h-4q-41 -58 -83.5 -97.5t-107 -67.5t-139.5 -28q-171 0 -270 120.5t-99 326.5v645h330v-551q0 -130 38 -191t118 -61q96 0 145 80.5t49 235.5v487h330zM614 1206q-163 0 -260 87t-106 237h178q13 -71 61 -113.5t127 -42.5q80 0 128 43t61 113
h178q-9 -151 -107.5 -237.5t-259.5 -86.5z" />
    <glyph glyph-name="Uring" unicode="&#x16e;" horiz-adv-x="1474" 
d="M737 -23q-281 0 -437.5 146t-156.5 436v875h338v-826q0 -171 60.5 -262.5t195.5 -91.5q138 0 197 92.5t59 261.5v826h338v-875q0 -289 -157.5 -435.5t-436.5 -146.5zM737 1460q-97 0 -161 62.5t-64 156.5q0 95 64 158.5t161 63.5t161.5 -63.5t64.5 -158.5
q0 -94 -64.5 -156.5t-161.5 -62.5zM737 1569q46 0 77.5 32t31.5 78t-32 79.5t-77 33.5t-76.5 -33.5t-31.5 -79.5t31 -78t77 -32z" />
    <glyph glyph-name="uring" unicode="&#x16f;" horiz-adv-x="1249" 
d="M1116 1069v-1069h-307v170h-4q-41 -58 -83.5 -97.5t-107 -67.5t-139.5 -28q-171 0 -270 120.5t-99 326.5v645h330v-551q0 -130 38 -191t118 -61q96 0 145 80.5t49 235.5v487h330zM614 1165q-95 0 -159 64.5t-64 159.5t64 159t159 64t159.5 -64t64.5 -159t-64.5 -159.5
t-159.5 -64.5zM614 1282q44 0 75.5 31.5t31.5 75.5t-31.5 75t-75.5 31t-75 -31t-31 -75t31 -75.5t75 -31.5z" />
    <glyph glyph-name="Uhungarumlaut" unicode="&#x170;" horiz-adv-x="1474" 
d="M737 -23q-281 0 -437.5 146t-156.5 436v875h338v-826q0 -171 60.5 -262.5t195.5 -91.5q138 0 197 92.5t59 261.5v826h338v-875q0 -289 -157.5 -435.5t-436.5 -146.5zM831 1522l148 274h319l-266 -274h-201zM379 1522l147 274h320l-266 -274h-201z" />
    <glyph glyph-name="uhungarumlaut" unicode="&#x171;" horiz-adv-x="1249" 
d="M1116 1069v-1069h-307v170h-4q-41 -58 -83.5 -97.5t-107 -67.5t-139.5 -28q-171 0 -270 120.5t-99 326.5v645h330v-551q0 -130 38 -191t118 -61q96 0 145 80.5t49 235.5v487h330zM721 1221l147 309h322l-268 -309h-201zM270 1221l146 309h321l-266 -309h-201z" />
    <glyph glyph-name="Uogonek" unicode="&#x172;" horiz-adv-x="1474" 
d="M815 -455q-99 0 -151 50.5t-52 132.5q0 132 160 249h-33q-282 0 -439 147t-157 435v875h338v-824q0 -356 256 -356q137 0 196.5 93t59.5 263v824h338v-875q0 -101 -19.5 -183.5t-47.5 -135.5t-75.5 -100t-85 -72.5t-95.5 -57.5q-102 -61 -158.5 -116t-56.5 -123
q0 -78 77 -78q47 0 97 26l30 -129q-85 -45 -182 -45z" />
    <glyph glyph-name="uogonek" unicode="&#x173;" horiz-adv-x="1249" 
d="M930 -455q-99 0 -151 47.5t-52 131.5q0 149 193 276h-111v170h-4q-41 -58 -83.5 -97.5t-107 -67.5t-139.5 -28q-171 0 -270 120.5t-99 326.5v645h330v-551q0 -130 38 -191t118 -61q96 0 145 80.5t49 235.5v487h330v-1069q-115 -76 -162 -131t-47 -102q0 -34 20 -54
t58 -20q46 0 96 26l33 -129q-88 -45 -184 -45z" />
    <glyph glyph-name="Ydieresis" unicode="&#x178;" horiz-adv-x="1331" 
d="M4 1434h373l285 -582h8l284 582h375l-493 -916v-518h-338v518zM289 1522v260h278v-260h-278zM764 1522v260h280v-260h-280z" />
    <glyph glyph-name="Zacute" unicode="&#x179;" horiz-adv-x="1187" 
d="M96 0v260l602 887h-581v287h968v-254l-614 -893h621v-287h-996zM481 1522l129 274h340l-239 -274h-230z" />
    <glyph glyph-name="zacute" unicode="&#x17a;" horiz-adv-x="1024" 
d="M82 0v233l457 580h-441v256h832v-233l-461 -580h473v-256h-860zM403 1221l134 309h340l-269 -309h-205z" />
    <glyph glyph-name="Zdotaccent" unicode="&#x17b;" horiz-adv-x="1187" 
d="M96 0v260l602 887h-581v287h968v-254l-614 -893h621v-287h-996zM451 1516v274h286v-274h-286z" />
    <glyph glyph-name="zdotaccent" unicode="&#x17c;" horiz-adv-x="1024" 
d="M82 0v233l457 580h-441v256h832v-233l-461 -580h473v-256h-860zM346 1245v256h332v-256h-332z" />
    <glyph glyph-name="Zcaron" unicode="&#x17d;" horiz-adv-x="1187" 
d="M96 0v260l602 887h-581v287h968v-254l-614 -893h621v-287h-996zM436 1522l-229 274h264l121 -170l125 170h264l-233 -274h-312z" />
    <glyph glyph-name="zcaron" unicode="&#x17e;" horiz-adv-x="1024" 
d="M82 0v233l457 580h-441v256h832v-233l-461 -580h473v-256h-860zM365 1221l-218 309h230l133 -197l135 197h232l-224 -309h-288z" />
    <glyph glyph-name="uni018F" unicode="&#x18f;" horiz-adv-x="1474" 
d="M86 711q0 22 4 92h940q-14 188 -101.5 282.5t-269.5 94.5q-196 0 -399 -84v278q202 82 430 82q344 0 521.5 -192t177.5 -547q0 -347 -171 -543.5t-481 -196.5q-311 0 -481 198t-170 536zM737 256q116 0 188 86.5t97 230.5h-569q23 -146 95 -231.5t189 -85.5z" />
    <glyph glyph-name="florin" unicode="&#x192;" horiz-adv-x="1187" 
d="M176 694l31 185h219l33 184q32 185 134.5 289t278.5 104q115 0 224 -31l-11 -245q-103 10 -127 10q-87 0 -126.5 -35t-53.5 -115l-30 -161h221l-29 -185h-225l-137 -741q-39 -216 -139.5 -314t-268.5 -98q-61 0 -124.5 9.5t-96.5 27.5l10 238q77 -31 133 -31
q69 0 113.5 48.5t58.5 127.5l129 733h-217z" />
    <glyph glyph-name="uni01CF" unicode="&#x1cf;" horiz-adv-x="634" 
d="M147 0v1434h340v-1434h-340zM160 1522l-189 274h244l100 -149l105 149h244l-193 -274h-311z" />
    <glyph glyph-name="uni01D0" unicode="&#x1d0;" horiz-adv-x="593" 
d="M133 0v1069h330v-1069h-330zM147 1221l-161 309h219l90 -180l96 180h217l-168 -309h-293z" />
    <glyph glyph-name="uni01DD" unicode="&#x1dd;" horiz-adv-x="1177" 
d="M86 535v77h680q-17 123 -82 178.5t-192 55.5q-153 0 -336 -43v233q63 20 162 35.5t200 15.5q280 0 432 -149.5t152 -411.5q0 -251 -141 -400t-369 -149q-248 0 -377 146.5t-129 411.5zM573 217q84 0 132.5 54.5t60.5 152.5h-371q-3 -93 45 -150t133 -57z" />
    <glyph glyph-name="Gcaron" unicode="&#x1e6;" horiz-adv-x="1464" 
d="M866 -23q-372 0 -576 195t-204 553q0 236 99.5 402t275 247.5t413.5 81.5q255 0 431 -61v-281q-190 64 -396 64q-231 0 -351 -119t-120 -346q0 -219 117 -345t319 -126q79 0 154 16l4 297h-252v266h559v-780q-227 -64 -473 -64zM653 1522l-229 274h264l121 -170l125 170
h264l-233 -274h-312z" />
    <glyph glyph-name="gcaron" unicode="&#x1e7;" horiz-adv-x="1290" 
d="M580 -459q-200 0 -404 60v264q206 -74 375 -74q153 0 224 75.5t71 237.5v37h-6q-55 -67 -137 -104t-175 -37q-106 0 -193 43.5t-143 118t-86 173t-30 210.5q0 154 54 276.5t159 194t243 71.5q188 0 312 -161h6v143h307v-965q0 -295 -140.5 -429t-436.5 -134zM623 248
q93 0 152 80.5t59 216.5q0 134 -59.5 212.5t-153.5 78.5q-92 0 -149.5 -77t-57.5 -210q0 -137 58 -219t151 -82zM469 1221l-217 309h229l133 -197l136 197h231l-223 -309h-289z" />
    <glyph glyph-name="uni0218" unicode="&#x218;" horiz-adv-x="1085" 
d="M455 -23q-193 0 -373 56v284q88 -35 188.5 -53t178.5 -18q108 0 164.5 39t56.5 110q0 45 -35.5 83t-67 55.5t-114.5 54.5q-16 8 -25 12q-45 21 -74 35.5t-71 39t-69 47t-57 56t-48 69t-29.5 83t-11.5 100.5q0 209 149 317.5t395 108.5q179 0 332 -51v-260
q-131 45 -307 45q-217 0 -217 -127q0 -27 12.5 -51.5t28.5 -41.5t50.5 -37.5t58 -32.5t71.5 -34q142 -66 196 -102q158 -105 181 -271q4 -31 4 -65q0 -223 -152 -337t-415 -114zM295 -512l90 410h309l-151 -410h-248z" />
    <glyph glyph-name="uni0219" unicode="&#x219;" horiz-adv-x="962" 
d="M432 -23q-184 0 -344 54v243q192 -61 324 -61q131 0 131 82q0 12 -2.5 22.5t-9 20t-12.5 17t-18.5 16.5t-21.5 14.5t-26.5 14.5t-28 14.5t-32.5 15.5t-34 16q-40 18 -64.5 31t-61 35t-59.5 45.5t-46 54.5t-34 70.5t-11 85.5q0 81 33 143t92 100t135.5 57t167.5 19
q168 0 315 -59v-233q-143 57 -274 57q-143 0 -143 -76q0 -13 4 -24t13.5 -20.5t18.5 -17t26.5 -17t30 -15t35.5 -16t37 -17.5t51.5 -24t55.5 -26t51 -28t50 -34t40.5 -40t35 -50.5t20 -60.5t8.5 -75q0 -90 -34.5 -155.5t-97.5 -104t-142.5 -56.5t-178.5 -18zM248 -492
l92 390h297l-154 -390h-235z" />
    <glyph glyph-name="uni021A" unicode="&#x21a;" horiz-adv-x="1146" 
d="M403 0v1147h-372v287h1085v-287h-373v-1147h-340zM344 -512l90 410h309l-151 -410h-248z" />
    <glyph glyph-name="uni021B" unicode="&#x21b;" horiz-adv-x="778" 
d="M698 1069v-256h-186v-399q0 -183 127 -183q24 0 70 11v-248q-117 -17 -156 -17q-172 0 -270.5 90.5t-98.5 272.5v473h-141v256h141v227l328 95v-322h186zM201 -492l92 390h297l-154 -390h-235z" />
    <glyph glyph-name="uni0237" unicode="&#x237;" horiz-adv-x="593" 
d="M90 -459q-41 0 -137 17v252q54 -9 70 -9q61 0 85.5 42.5t24.5 129.5v1096h330v-1104q0 -222 -92 -323t-281 -101z" />
    <glyph glyph-name="uni0259" unicode="&#x259;" horiz-adv-x="1177" 
d="M86 535v77h680q-17 123 -82 178.5t-192 55.5q-153 0 -336 -43v233q63 20 162 35.5t200 15.5q280 0 432 -149.5t152 -411.5q0 -251 -141 -400t-369 -149q-248 0 -377 146.5t-129 411.5zM573 217q84 0 132.5 54.5t60.5 152.5h-371q-3 -93 45 -150t133 -57z" />
    <glyph glyph-name="uni02BC" unicode="&#x2bc;" horiz-adv-x="614" 
d="M117 1167l90 377h305l-152 -377h-243z" />
    <glyph glyph-name="circumflex" unicode="&#x2c6;" 
d="M45 1221l223 309h289l217 -309h-223l-139 202l-146 -202h-221z" />
    <glyph glyph-name="caron" unicode="&#x2c7;" 
d="M262 1221l-217 309h229l134 -197l135 197h231l-223 -309h-289z" />
    <glyph glyph-name="uni02C9" unicode="&#x2c9;" 
d="M84 1587v164h686v-164h-686z" />
    <glyph glyph-name="breve" unicode="&#x2d8;" 
d="M410 1206q-163 0 -260.5 87t-106.5 237h178q13 -70 61.5 -113t127.5 -43q80 0 127.5 43t60.5 113h178q-9 -151 -107 -237.5t-259 -86.5z" />
    <glyph glyph-name="dotaccent" unicode="&#x2d9;" 
d="M244 1245v256h331v-256h-331z" />
    <glyph glyph-name="ring" unicode="&#x2da;" 
d="M410 1165q-95 0 -159.5 64.5t-64.5 159.5t64.5 159t159.5 64t159 -64t64 -159t-64 -159.5t-159 -64.5zM410 1282q44 0 75 31.5t31 75.5t-31 75t-75 31t-75.5 -31t-31.5 -75t31.5 -75.5t75.5 -31.5z" />
    <glyph glyph-name="ogonek" unicode="&#x2db;" 
d="M373 -455q-99 0 -151 47.5t-52 131.5q0 170 250 311l139 -35q-115 -76 -162 -131t-47 -102q0 -34 20 -54t58 -20q46 0 96 26l33 -129q-88 -45 -184 -45z" />
    <glyph glyph-name="tilde" unicode="&#x2dc;" 
d="M31 1247q10 119 67 197t158 78q70 0 172 -45q5 -2 34 -14t51.5 -17.5t47.5 -5.5q67 0 78 82h152q-11 -121 -69 -197t-161 -76q-60 0 -160 41q-9 3 -30 11t-31 11.5t-26 8t-29.5 6.5t-28.5 2q-32 0 -51.5 -22t-22.5 -60h-151z" />
    <glyph glyph-name="hungarumlaut" unicode="&#x2dd;" 
d="M516 1221l148 309h321l-268 -309h-201zM66 1221l145 309h321l-266 -309h-200z" />
    <glyph glyph-name="gravecomb" unicode="&#x300;" 
d="M305 1221l-217 309h340l107 -309h-230z" />
    <glyph glyph-name="acutecomb" unicode="&#x301;" 
d="M301 1221l133 309h340l-268 -309h-205z" />
    <glyph glyph-name="uni0302" unicode="&#x302;" 
d="M45 1221l223 309h289l217 -309h-223l-139 202l-146 -202h-221z" />
    <glyph glyph-name="tildecomb" unicode="&#x303;" 
d="M31 1247q10 119 67 197t158 78q70 0 172 -45q5 -2 34 -14t51.5 -17.5t47.5 -5.5q67 0 78 82h152q-11 -121 -69 -197t-161 -76q-60 0 -160 41q-9 3 -30 11t-31 11.5t-26 8t-29.5 6.5t-28.5 2q-32 0 -51.5 -22t-22.5 -60h-151z" />
    <glyph glyph-name="uni0307" unicode="&#x307;" 
d="M244 1245v256h331v-256h-331z" />
    <glyph glyph-name="uni0308" unicode="&#x308;" 
d="M498 1249v252h264v-252h-264zM57 1249v252h265v-252h-265z" />
    <glyph glyph-name="uni030A" unicode="&#x30a;" 
d="M410 1165q-95 0 -159.5 64.5t-64.5 159.5t64.5 159t159.5 64t159 -64t64 -159t-64 -159.5t-159 -64.5zM410 1282q44 0 75 31.5t31 75.5t-31 75t-75 31t-75.5 -31t-31.5 -75t31.5 -75.5t75.5 -31.5z" />
    <glyph glyph-name="uni0327" unicode="&#x327;" 
d="M391 -399q-90 0 -160 51l45 98q44 -35 91 -35q34 0 55.5 18t21.5 48q0 29 -22.5 46t-63.5 17q-28 0 -55 -8l43 184h121l-18 -90q62 -2 101.5 -39.5t39.5 -109.5q0 -79 -54.5 -129.5t-144.5 -50.5z" />
    <glyph glyph-name="uni0394" unicode="&#x394;" horiz-adv-x="1433" 
d="M25 0l518 1434h350l516 -1434h-1384zM412 256h528l-258 809z" />
    <glyph glyph-name="uni03A9" unicode="&#x3a9;" horiz-adv-x="1556" 
d="M94 0v256h369v47q-77 24 -140.5 65.5t-116.5 104t-82.5 154.5t-29.5 204q0 293 181.5 466t502.5 173q322 0 503 -173.5t181 -465.5q0 -111 -29.5 -202.5t-82 -154.5t-116 -105t-140.5 -66v-47h370v-256h-602v449q125 22 192.5 124t67.5 242q0 175 -91.5 282t-252.5 107
q-162 0 -252 -106.5t-90 -282.5q0 -91 27.5 -167t87.5 -130t145 -69v-449h-602z" />
    <glyph glyph-name="mu" unicode="&#x3bc;" horiz-adv-x="1228" 
d="M133 -438v1507h330v-551q0 -130 32.5 -191t100.5 -61q91 0 130.5 78.5t39.5 237.5v487h330v-1069h-308v190h-4q-72 -200 -241 -200q-37 0 -78 12l-2 -2v-438h-330z" />
    <glyph glyph-name="pi" unicode="&#x3c0;" horiz-adv-x="1341" 
d="M1157 -23q-167 0 -251.5 79t-84.5 245v512h-293v-813h-329v805h-11q-26 0 -65 -15t-64 -40l-114 194q61 62 158 93.5t196 31.5h983v-256h-131v-424q0 -57 8 -91.5t25.5 -49.5t36.5 -19t51 -2v-235q-62 -15 -115 -15z" />
    <glyph glyph-name="uni0401" unicode="&#x401;" horiz-adv-x="1105" 
d="M147 0v1434h859v-287h-521v-275h478v-274h-478v-311h531v-287h-869zM211 1522v262h278v-262h-278zM686 1522v262h281v-262h-281z" />
    <glyph glyph-name="uni0402" unicode="&#x402;" horiz-adv-x="1454" 
d="M1096 1434v-287h-467v-313q147 81 303 81q111 0 197 -37t139 -102t80.5 -151t27.5 -187q0 -206 -105 -425.5t-288 -377.5l-223 199q122 107 196 269t74 313q0 233 -196 233q-94 0 -205 -57v-592h-338v1147h-262v287h1067z" />
    <glyph glyph-name="uni0403" unicode="&#x403;" horiz-adv-x="1064" 
d="M147 0v1434h861v-287h-523v-1147h-338zM420 1522l129 274h340l-240 -274h-229z" />
    <glyph glyph-name="uni0404" unicode="&#x404;" horiz-adv-x="1310" 
d="M913 260q150 0 310 51v-282q-165 -52 -338 -52q-381 0 -590 197.5t-209 540.5q0 344 205 542.5t573 198.5q209 0 361 -65v-287q-156 72 -336 72q-176 0 -289.5 -79.5t-146.5 -238.5h544v-262h-544q32 -167 150.5 -251.5t309.5 -84.5z" />
    <glyph glyph-name="uni0405" unicode="&#x405;" horiz-adv-x="1085" 
d="M455 -23q-193 0 -373 56v284q88 -35 188.5 -53t178.5 -18q108 0 164.5 39t56.5 110q0 45 -35.5 83t-67 55.5t-114.5 54.5q-16 8 -25 12q-45 21 -74 35.5t-71 39t-69 47t-57 56t-48 69t-29.5 83t-11.5 100.5q0 209 149 317.5t395 108.5q179 0 332 -51v-260
q-131 45 -307 45q-217 0 -217 -127q0 -27 12.5 -51.5t28.5 -41.5t50.5 -37.5t58 -32.5t71.5 -34q142 -66 196 -102q158 -105 181 -271q4 -31 4 -65q0 -223 -152 -337t-415 -114z" />
    <glyph glyph-name="uni0406" unicode="&#x406;" horiz-adv-x="634" 
d="M147 0v1434h340v-1434h-340z" />
    <glyph glyph-name="uni0407" unicode="&#x407;" horiz-adv-x="634" 
d="M147 0v1434h340v-1434h-340zM23 1522v262h243v-262h-243zM369 1522v262h245v-262h-245z" />
    <glyph glyph-name="uni0408" unicode="&#x408;" horiz-adv-x="778" 
d="M197 -23q-90 0 -160 23v262q62 -16 98 -16q49 0 82.5 24t50 70.5t23 97.5t6.5 121v875h338v-975q0 -239 -111 -360.5t-327 -121.5z" />
    <glyph glyph-name="uni0409" unicode="&#x409;" horiz-adv-x="1945" 
d="M31 -6v268q15 -6 39 -6q125 0 154.5 178t29.5 639v361h975v-519h133q262 0 398 -115.5t136 -334.5q0 -225 -136.5 -345t-397.5 -120h-471v1147h-313v-103q0 -196 -6.5 -337.5t-24 -267.5t-47.5 -207.5t-77 -141.5t-113 -86.5t-154 -26.5q-46 0 -125 17zM1229 262h119
q204 0 204 199q0 192 -204 192h-119v-391z" />
    <glyph glyph-name="uni040A" unicode="&#x40a;" horiz-adv-x="1945" 
d="M147 0v1434h338v-535h418v535h338v-535h135q254 0 387 -117t133 -338q0 -216 -133 -330t-387 -114h-473v623h-418v-623h-338zM1241 262h131q87 0 131.5 47t44.5 135q0 179 -176 179h-131v-361z" />
    <glyph glyph-name="uni040B" unicode="&#x40b;" horiz-adv-x="1495" 
d="M1096 1434v-287h-467v-295q157 63 317 63q224 0 338.5 -105t114.5 -327v-483h-338v414q0 128 -47 183.5t-166 55.5q-110 0 -219 -41v-612h-338v1147h-262v287h1067z" />
    <glyph glyph-name="uni040C" unicode="&#x40c;" horiz-adv-x="1320" 
d="M147 0v1434h338v-551h101l334 551h376l-428 -680l451 -754h-391l-344 616h-99v-616h-338zM559 1522l129 274h340l-240 -274h-229z" />
    <glyph glyph-name="uni040E" unicode="&#x40e;" horiz-adv-x="1269" 
d="M199 272q76 -28 133 -28q109 0 162 100l-478 1090h369l268 -697h6l236 697h358l-456 -1112q-76 -186 -169.5 -265.5t-244.5 -79.5q-96 0 -184 39v256zM635 1495q-161 0 -259.5 83t-107.5 247h226q10 -129 141 -129t141 129h225q-9 -164 -107 -247t-259 -83z" />
    <glyph glyph-name="uni040F" unicode="&#x40f;" horiz-adv-x="1443" 
d="M563 -330v330h-416v1434h338v-1147h473v1147h338v-1434h-415v-330h-318z" />
    <glyph glyph-name="uni0410" unicode="&#x410;" horiz-adv-x="1413" 
d="M16 0l494 1434h393l494 -1434h-367l-88 285h-487l-88 -285h-351zM696 1069l-159 -518h323l-160 518h-4z" />
    <glyph glyph-name="uni0411" unicode="&#x411;" horiz-adv-x="1249" 
d="M147 0v1434h934v-287h-596v-254h142q281 0 420 -102.5t139 -341.5q0 -228 -131 -338.5t-367 -110.5h-541zM485 262h152q97 0 150 41.5t53 140.5t-52 143t-153 44h-150v-369z" />
    <glyph glyph-name="uni0412" unicode="&#x412;" horiz-adv-x="1249" 
d="M147 0v1434h527q222 0 347.5 -92t125.5 -273q0 -127 -69.5 -211.5t-198.5 -120.5v-4q62 -11 114 -33.5t97.5 -60.5t71.5 -100t26 -142q0 -134 -67.5 -224t-187 -131.5t-286.5 -41.5h-500zM485 262h142q104 0 158.5 40.5t54.5 135.5q0 96 -55.5 140.5t-166.5 44.5h-133
v-361zM485 852h113q205 0 205 170q0 80 -45.5 114.5t-141.5 34.5h-131v-319z" />
    <glyph glyph-name="uni0413" unicode="&#x413;" horiz-adv-x="1064" 
d="M147 0v1434h861v-287h-523v-1147h-338z" />
    <glyph glyph-name="uni0414" unicode="&#x414;" horiz-adv-x="1525" 
d="M14 -330v621h154q80 168 101.5 327.5t21.5 442.5v373h1038v-1143h162v-621h-317v330h-842v-330h-318zM614 1044q0 -130 -3 -209t-14 -185.5t-38 -195t-70 -167.5h502v860h-377v-103z" />
    <glyph glyph-name="uni0415" unicode="&#x415;" horiz-adv-x="1105" 
d="M147 0v1434h859v-287h-521v-275h478v-274h-478v-311h531v-287h-869z" />
    <glyph glyph-name="uni0416" unicode="&#x416;" horiz-adv-x="1925" 
d="M1524 0l-314 602h-86v-602h-323v602h-88l-312 -602h-391l424 754l-403 680h377l319 -566h74v566h323v-566h72l322 566h376l-405 -680l426 -754h-391z" />
    <glyph glyph-name="uni0417" unicode="&#x417;" horiz-adv-x="1105" 
d="M457 -23q-193 0 -398 74v283q43 -18 66 -26.5t78.5 -25.5t114 -25.5t120.5 -8.5q267 0 267 184q0 86 -64 131t-213 45h-160v262h148q256 0 256 162q0 156 -232 156q-94 0 -183.5 -23t-145.5 -51v277q184 65 370 65q265 0 399 -104.5t134 -278.5q0 -121 -67.5 -206
t-190.5 -122v-4q138 -27 217.5 -114.5t79.5 -218.5q0 -91 -37.5 -168.5t-110 -136.5t-187.5 -92.5t-261 -33.5z" />
    <glyph glyph-name="uni0418" unicode="&#x418;" horiz-adv-x="1515" 
d="M147 0v1434h328v-744l-4 -250h10l78 162l414 832h395v-1434h-328v739l4 256h-10l-86 -178l-405 -817h-396z" />
    <glyph glyph-name="uni0419" unicode="&#x419;" horiz-adv-x="1515" 
d="M147 0v1434h328v-744l-4 -250h10l78 162l414 832h395v-1434h-328v739l4 256h-10l-86 -178l-405 -817h-396zM758 1495q-161 0 -259.5 83t-107.5 247h225q10 -129 142 -129q131 0 141 129h225q-9 -164 -107 -247t-259 -83z" />
    <glyph glyph-name="uni041A" unicode="&#x41a;" horiz-adv-x="1320" 
d="M147 0v1434h338v-551h101l334 551h376l-428 -680l451 -754h-391l-344 616h-99v-616h-338z" />
    <glyph glyph-name="uni041B" unicode="&#x41b;" horiz-adv-x="1474" 
d="M158 -23q-48 0 -127 17v270q16 -8 45 -8q43 0 73.5 22t50.5 77t31.5 112t16.5 165.5t6.5 196.5t1.5 244v361h1071v-1434h-338v1147h-409v-103q0 -196 -6.5 -337.5t-24 -267.5t-47.5 -207.5t-77 -141.5t-113 -86.5t-154 -26.5z" />
    <glyph glyph-name="uni041C" unicode="&#x41c;" horiz-adv-x="1761" 
d="M147 0v1434h441l297 -736l313 736h416v-1434h-324v1006h-8l-293 -660h-227l-281 662h-10v-1008h-324z" />
    <glyph glyph-name="uni041D" unicode="&#x41d;" horiz-adv-x="1474" 
d="M147 0v1434h338v-549h504v549h338v-1434h-338v598h-504v-598h-338z" />
    <glyph glyph-name="uni041E" unicode="&#x41e;" horiz-adv-x="1536" 
d="M768 -23q-326 0 -504 198t-178 542q0 347 178.5 543t503.5 196q327 0 504.5 -197t177.5 -542q0 -347 -178.5 -543.5t-503.5 -196.5zM768 258q108 0 184 63.5t110 165t34 230.5q0 203 -84.5 332t-243.5 129q-108 0 -184 -64t-110 -166t-34 -231q0 -132 34.5 -233.5
t110 -163.5t183.5 -62z" />
    <glyph glyph-name="uni041F" unicode="&#x41f;" horiz-adv-x="1454" 
d="M147 0v1434h1160v-1434h-338v1147h-484v-1147h-338z" />
    <glyph glyph-name="uni0420" unicode="&#x420;" horiz-adv-x="1228" 
d="M147 0v1434h486q273 0 409 -122.5t136 -346.5q0 -231 -134.5 -359.5t-410.5 -128.5h-148v-477h-338zM485 739h138q108 0 160.5 57.5t52.5 164.5q0 210 -213 210h-138v-432z" />
    <glyph glyph-name="uni0421" unicode="&#x421;" horiz-adv-x="1290" 
d="M868 -23q-192 0 -342.5 55t-246 154.5t-144.5 233.5t-49 295q0 179 56.5 320.5t158.5 233t242 139.5t309 48q86 0 170.5 -14t125.5 -28l42 -15v-287q-62 27 -147.5 45.5t-168.5 18.5q-200 0 -318 -118t-118 -345q0 -228 121.5 -342.5t329.5 -114.5q154 0 301 47v-280
q-155 -46 -322 -46z" />
    <glyph glyph-name="uni0422" unicode="&#x422;" horiz-adv-x="1146" 
d="M403 0v1147h-372v287h1085v-287h-373v-1147h-340z" />
    <glyph glyph-name="uni0423" unicode="&#x423;" horiz-adv-x="1269" 
d="M199 272q76 -28 133 -28q109 0 162 100l-478 1090h369l268 -697h6l236 697h358l-456 -1112q-76 -186 -169.5 -265.5t-244.5 -79.5q-96 0 -184 39v256z" />
    <glyph glyph-name="uni0424" unicode="&#x424;" horiz-adv-x="1781" 
d="M721 -23v168h-43q-280 0 -446 161.5t-166 430.5q0 270 165.5 431t448.5 161h41v168h340v-168h43q282 0 447 -161t165 -431q0 -269 -166 -430.5t-446 -161.5h-43v-168h-340zM684 412h43v651h-43q-127 0 -197.5 -80.5t-70.5 -245.5q0 -164 70.5 -244.5t197.5 -80.5z
M1055 412h43q128 0 198 80.5t70 244.5q0 166 -70 246t-198 80h-43v-651z" />
    <glyph glyph-name="uni0425" unicode="&#x425;" horiz-adv-x="1413" 
d="M981 0l-285 498l-280 -498h-391l475 752l-426 682h399l248 -441l250 441h375l-431 -682l474 -752h-408z" />
    <glyph glyph-name="uni0426" unicode="&#x426;" horiz-adv-x="1505" 
d="M1153 -330v330h-1006v1434h338v-1147h486v1147h338v-1147h161v-617h-317z" />
    <glyph glyph-name="uni0427" unicode="&#x427;" horiz-adv-x="1331" 
d="M846 0v530q-125 -32 -258 -32q-244 0 -368 106t-124 328v502h338v-443q0 -126 48 -176.5t169 -50.5q101 0 195 27v643h338v-1434h-338z" />
    <glyph glyph-name="uni0428" unicode="&#x428;" horiz-adv-x="1974" 
d="M147 0v1434h338v-1147h338v1147h328v-1147h338v1147h338v-1434h-1680z" />
    <glyph glyph-name="uni0429" unicode="&#x429;" horiz-adv-x="2027" 
d="M147 0v1434h338v-1147h338v1147h328v-1147h338v1147h338v-1147h166v-617h-318v330h-1528z" />
    <glyph glyph-name="uni042A" unicode="&#x42a;" horiz-adv-x="1351" 
d="M291 0v1147h-262v287h600v-490h127q284 0 415.5 -118.5t131.5 -354.5q0 -223 -137 -347t-410 -124h-465zM629 262h127q100 0 151 54t51 155q0 211 -202 211h-127v-420z" />
    <glyph glyph-name="uni042B" unicode="&#x42b;" horiz-adv-x="1792" 
d="M147 0v1434h338v-490h121q277 0 406 -119t129 -354q0 -223 -134 -347t-401 -124h-459zM485 262h121q92 0 139.5 54t47.5 155q0 103 -47.5 157t-139.5 54h-121v-420zM1307 0v1434h338v-1434h-338z" />
    <glyph glyph-name="uni042C" unicode="&#x42c;" horiz-adv-x="1208" 
d="M147 0v1434h338v-490h127q284 0 415.5 -118.5t131.5 -354.5q0 -223 -137 -347t-410 -124h-465zM485 262h127q100 0 151.5 54t51.5 155q0 103 -51 157t-152 54h-127v-420z" />
    <glyph glyph-name="uni042D" unicode="&#x42d;" horiz-adv-x="1310" 
d="M397 260q192 0 310.5 84.5t150.5 251.5h-545v262h545q-33 159 -146.5 238.5t-289.5 79.5q-180 0 -336 -72v287q152 65 360 65q368 0 573.5 -198.5t205.5 -542.5q0 -343 -209 -540.5t-590 -197.5q-173 0 -338 52v282q160 -51 309 -51z" />
    <glyph glyph-name="uni042E" unicode="&#x42e;" horiz-adv-x="2037" 
d="M1290 -23q-282 0 -448 169.5t-195 455.5h-162v-602h-338v1434h338v-555h168q39 277 208 427t429 150q318 0 490 -198.5t172 -540.5q0 -343 -172.5 -541.5t-489.5 -198.5zM1290 258q104 0 175 66t101.5 166.5t30.5 226.5q0 131 -32 232.5t-102.5 165t-172.5 63.5
q-78 0 -138 -36.5t-96.5 -101t-54.5 -146.5t-18 -177q0 -130 31.5 -231t102 -164.5t173.5 -63.5z" />
    <glyph glyph-name="uni042F" unicode="&#x42f;" horiz-adv-x="1290" 
d="M20 0l302 573q-230 121 -230 392q0 220 139.5 344.5t409.5 124.5h502v-1434h-338v487h-182l-224 -487h-379zM651 743h154v428h-154q-103 0 -159 -54.5t-56 -155.5q0 -102 56.5 -160t158.5 -58z" />
    <glyph glyph-name="uni0430" unicode="&#x430;" horiz-adv-x="1142" 
d="M389 -23q-143 0 -238.5 85.5t-95.5 242.5q0 354 518 354h138v21q0 162 -228 162q-155 0 -329 -58v250q185 53 387 53q112 0 200 -23t155.5 -72t103.5 -131.5t36 -194.5v-666h-305v166h-6q-53 -91 -142 -140t-194 -49zM508 199q84 0 143.5 74t59.5 167v43h-109
q-105 0 -161 -42.5t-56 -116.5q0 -61 35 -93t88 -32z" />
    <glyph glyph-name="uni0431" unicode="&#x431;" horiz-adv-x="1269" 
d="M653 -23q-158 0 -270.5 51t-179 150.5t-97 233.5t-30.5 313q0 156 17.5 272.5t61.5 218.5t118 170t188.5 112.5t271.5 60.5q31 3 90 6.5t96.5 7t97 14t120.5 27.5v-281q-65 -19 -124 -28t-141 -13.5t-110 -7.5q-205 -19 -290.5 -106.5t-96.5 -282.5l-2 -35h4
q61 105 157.5 156t206.5 51q142 0 247 -77t155.5 -197t50.5 -263q0 -259 -149 -406t-392 -147zM647 225q94 0 150.5 83t56.5 214t-56.5 214t-150.5 83q-96 0 -153.5 -83.5t-57.5 -215.5q0 -131 58.5 -213t152.5 -82z" />
    <glyph glyph-name="uni0432" unicode="&#x432;" horiz-adv-x="1120" 
d="M1038 803q0 -92 -56 -151.5t-148 -90.5v-2q114 -31 175.5 -89t61.5 -163q0 -142 -105.5 -224.5t-281.5 -82.5h-551v1069h539q170 0 268 -72t98 -194zM463 215h123q133 0 133 125q0 123 -135 123h-121v-248zM463 647h108q57 0 89 29t32 80q0 98 -121 98h-108v-207z" />
    <glyph glyph-name="uni0433" unicode="&#x433;" horiz-adv-x="890" 
d="M133 0v1069h703v-256h-373v-813h-330z" />
    <glyph glyph-name="uni0434" unicode="&#x434;" horiz-adv-x="1218" 
d="M14 256h113q63 114 81.5 246t18.5 358v209h830v-813h137v-555h-283v299h-614v-299h-283v555zM510 733q0 -117 -22.5 -252.5t-71.5 -234.5h311v567h-217v-80z" />
    <glyph glyph-name="uni0435" unicode="&#x435;" horiz-adv-x="1177" 
d="M1094 442h-680q19 -116 87 -169.5t197 -53.5q147 0 330 43v-237q-192 -48 -360 -48q-282 0 -437 150.5t-155 411.5q0 251 145 399.5t381 148.5q241 0 366.5 -152.5t125.5 -428.5v-64zM604 850q-84 0 -132 -59.5t-62 -159.5h372q5 98 -43.5 158.5t-134.5 60.5z" />
    <glyph glyph-name="uni0436" unicode="&#x436;" horiz-adv-x="1679" 
d="M1300 0l-237 426h-66v-426h-315v426h-66l-237 -426h-383l344 557l-313 512h360l238 -418h57v418h315v-418h58l237 418h361l-314 -512l344 -557h-383z" />
    <glyph glyph-name="uni0437" unicode="&#x437;" horiz-adv-x="983" 
d="M410 -23q-98 0 -190 15t-146 35v245q121 -55 288 -55q228 0 228 113q0 60 -62 88t-163 28h-134v197h134q192 0 192 105q0 102 -192 102q-134 0 -271 -43v237q53 17 150 30t198 13q90 0 168 -16t143.5 -48.5t103.5 -90.5t38 -135q0 -92 -52.5 -150t-150.5 -94v-2
q110 -26 172 -88.5t62 -163.5q0 -86 -44 -150.5t-119 -100.5t-163.5 -53.5t-189.5 -17.5z" />
    <glyph glyph-name="uni0438" unicode="&#x438;" horiz-adv-x="1259" 
d="M133 0v1069h324v-614h4l354 614h311v-1069h-323v618h-4l-363 -618h-303z" />
    <glyph glyph-name="uni0439" unicode="&#x439;" horiz-adv-x="1259" 
d="M133 0v1069h324v-614h4l354 614h311v-1069h-323v618h-4l-363 -618h-303zM633 1212q-149 0 -244.5 79t-101.5 233h213q6 -58 37.5 -87.5t95.5 -29.5q62 0 92.5 29.5t36.5 87.5h213q-6 -155 -99.5 -233.5t-242.5 -78.5z" />
    <glyph glyph-name="uni043A" unicode="&#x43a;" horiz-adv-x="1157" 
d="M133 0v1069h330v-407h72l239 407h359l-320 -512l348 -557h-379l-250 436h-69v-436h-330z" />
    <glyph glyph-name="uni043B" unicode="&#x43b;" horiz-adv-x="1208" 
d="M141 -25q-22 0 -39 2t-42.5 7.5t-28.5 5.5v250q28 -7 39 -7q34 0 58.5 15t41 50.5t26.5 78t15 116t6.5 144.5t1.5 182v250h860v-1069h-331v813h-242v-33q0 -171 -10.5 -296t-35.5 -224.5t-67 -160.5t-104.5 -92.5t-147.5 -31.5z" />
    <glyph glyph-name="uni043C" unicode="&#x43c;" horiz-adv-x="1495" 
d="M133 0v1069h399l218 -516l223 516h389v-1069h-324v653h-8l-182 -424h-201l-184 424h-6v-653h-324z" />
    <glyph glyph-name="uni043D" unicode="&#x43d;" horiz-adv-x="1249" 
d="M133 0v1069h330v-389h323v389h330v-1069h-330v424h-323v-424h-330z" />
    <glyph glyph-name="uni043E" unicode="&#x43e;" horiz-adv-x="1269" 
d="M635 -23q-250 0 -404.5 151t-154.5 402q0 253 156.5 405t402.5 152q248 0 403.5 -152.5t155.5 -404.5q0 -253 -154.5 -403t-404.5 -150zM635 223q100 0 159.5 85.5t59.5 221.5q0 138 -60 225t-159 87t-159 -88t-60 -224q0 -137 60 -222t159 -85z" />
    <glyph glyph-name="uni043F" unicode="&#x43f;" horiz-adv-x="1228" 
d="M133 0v1069h963v-1069h-330v813h-303v-813h-330z" />
    <glyph glyph-name="uni0440" unicode="&#x440;" horiz-adv-x="1290" 
d="M463 119v-557h-330v1507h307v-151h4q61 79 146 124t186 45q136 0 237 -75.5t151 -198t50 -274.5q0 -249 -124.5 -405.5t-325.5 -156.5q-95 0 -172.5 40.5t-128.5 101.5zM662 225q95 0 155 84.5t60 225.5q0 136 -59.5 218.5t-153.5 82.5q-95 0 -154 -83.5t-59 -224.5
q0 -139 58.5 -221t152.5 -82z" />
    <glyph glyph-name="uni0441" unicode="&#x441;" horiz-adv-x="993" 
d="M641 -23q-263 0 -414 149t-151 404q0 251 148.5 404t410.5 153q152 0 262 -32v-244q-121 33 -201 33q-142 0 -212 -75.5t-70 -233.5q0 -163 80.5 -237.5t218.5 -74.5q85 0 190 37v-250q-153 -33 -262 -33z" />
    <glyph glyph-name="uni0442" unicode="&#x442;" horiz-adv-x="983" 
d="M326 0v813h-297v256h925v-256h-297v-813h-331z" />
    <glyph glyph-name="uni0443" unicode="&#x443;" horiz-adv-x="1126" 
d="M283 -461q-21 0 -44.5 2t-39 4.5t-41.5 6.5l-39 6v262q87 -10 102 -10q129 0 172 120l4 13l-381 1126h365l182 -709l197 709h350l-383 -1126q-73 -215 -175 -309.5t-269 -94.5z" />
    <glyph glyph-name="uni0444" unicode="&#x444;" horiz-adv-x="1617" 
d="M625 -23q-260 0 -404.5 145t-144.5 404q0 265 143 413t402 148h24v455h328v-455h26q259 0 401 -145.5t142 -413.5q0 -255 -145.5 -403t-403.5 -148h-20v-417h-328v417h-20zM993 838h-30v-611h22q221 0 221 303q0 308 -213 308zM412 524q0 -297 221 -297h22v609
q-10 2 -28 2q-215 0 -215 -314z" />
    <glyph glyph-name="uni0445" unicode="&#x445;" horiz-adv-x="1105" 
d="M4 0l340 563l-305 506h385l156 -309l145 309h354l-303 -506l326 -563h-383l-168 350l-186 -350h-361z" />
    <glyph glyph-name="uni0446" unicode="&#x446;" horiz-adv-x="1228" 
d="M922 -299v299h-789v1069h330v-813h274v813h330v-813h137v-555h-282z" />
    <glyph glyph-name="uni0447" unicode="&#x447;" horiz-adv-x="1157" 
d="M694 0v369q-110 -21 -217 -21q-205 0 -297 84t-92 270v367h330v-311q0 -98 34.5 -134t125.5 -36q58 0 116 12v469h330v-1069h-330z" />
    <glyph glyph-name="uni0448" unicode="&#x448;" horiz-adv-x="1761" 
d="M133 0v1069h330v-813h260v813h315v-813h260v813h330v-1069h-1495z" />
    <glyph glyph-name="uni0449" unicode="&#x449;" horiz-adv-x="1781" 
d="M133 0v1069h330v-813h256v813h313v-813h256v813h330v-813h139v-555h-282v299h-1342z" />
    <glyph glyph-name="uni044A" unicode="&#x44a;" horiz-adv-x="1167" 
d="M215 0v813h-186v256h516v-334h151q221 0 333 -97t112 -261q0 -170 -112.5 -273.5t-332.5 -103.5h-481zM645 510h-100v-285h100q77 0 114.5 38t37.5 106q0 67 -37.5 104t-114.5 37z" />
    <glyph glyph-name="uni044B" unicode="&#x44b;" horiz-adv-x="1587" 
d="M133 0v1069h330v-326h123q224 0 331 -98.5t107 -265.5q0 -175 -102.5 -277t-317.5 -102h-471zM459 225h88q70 0 104.5 39.5t34.5 110.5q0 67 -34.5 105t-104.5 38h-88v-293zM1124 0v1069h330v-1069h-330z" />
    <glyph glyph-name="uni044C" unicode="&#x44c;" horiz-adv-x="1085" 
d="M133 0v1069h330v-334h151q221 0 333 -97t112 -261q0 -170 -112.5 -273.5t-332.5 -103.5h-481zM563 510h-100v-285h100q77 0 114.5 38t37.5 106q0 67 -37.5 104t-114.5 37z" />
    <glyph glyph-name="uni044D" unicode="&#x44d;" horiz-adv-x="1024" 
d="M332 221q232 0 280 213h-397v213h397q-47 197 -284 197q-114 0 -228 -29v238q153 34 258 34q125 0 230 -33.5t186.5 -99t127.5 -173t46 -246.5q0 -260 -156 -409t-432 -149q-30 0 -59 1.5t-54 5t-45.5 7t-40 8t-30.5 7.5t-25 7t-16 5v240q159 -37 242 -37z" />
    <glyph glyph-name="uni044E" unicode="&#x44e;" horiz-adv-x="1716" 
d="M133 0v1069h330v-405h151q38 198 176 310.5t332 112.5q227 0 372.5 -151t145.5 -406q0 -254 -145 -403.5t-373 -149.5q-204 0 -342 116.5t-168 324.5h-149v-418h-330zM1122 223q89 0 136 81.5t47 230.5q0 152 -48 229.5t-135 77.5q-89 0 -135.5 -78.5t-46.5 -228.5
q0 -152 47.5 -232t134.5 -80z" />
    <glyph glyph-name="uni044F" unicode="&#x44f;" horiz-adv-x="1146" 
d="M27 0l229 416q-172 101 -172 301q0 164 118.5 258t356.5 94h455v-1069h-330v340h-137l-156 -340h-364zM582 549h106v305h-106q-81 0 -122.5 -39t-41.5 -110q0 -72 42 -114t122 -42z" />
    <glyph glyph-name="uni0451" unicode="&#x451;" horiz-adv-x="1177" 
d="M1094 442h-680q19 -116 87 -169.5t197 -53.5q147 0 330 43v-237q-192 -48 -360 -48q-282 0 -437 150.5t-155 411.5q0 251 145 399.5t381 148.5q241 0 366.5 -152.5t125.5 -428.5v-64zM604 850q-84 0 -132 -59.5t-62 -159.5h372q5 98 -43.5 158.5t-134.5 60.5zM242 1245
v252h264v-252h-264zM684 1245v252h264v-252h-264z" />
    <glyph glyph-name="uni0452" unicode="&#x452;" horiz-adv-x="1249" 
d="M-18 1239v154h151v149h330v-149h346v-154h-346v-170l-2 -176h6q128 194 328 194q168 0 258 -117.5t90 -324.5v-678q0 -223 -92.5 -324.5t-280.5 -101.5q-41 0 -137 17v252q54 -9 69 -9q64 0 87.5 41.5t23.5 130.5v578q0 130 -38 191t-118 61q-96 0 -145 -80.5t-49 -235.5
v-487h-330v1239h-151z" />
    <glyph glyph-name="uni0453" unicode="&#x453;" horiz-adv-x="890" 
d="M133 0v1069h703v-256h-373v-813h-330zM350 1221l133 309h340l-268 -309h-205z" />
    <glyph glyph-name="uni0454" unicode="&#x454;" horiz-adv-x="1024" 
d="M692 221q83 0 242 37v-240q-2 -1 -16 -5t-25 -7t-30.5 -7.5t-40 -8t-45.5 -7t-54 -5t-59 -1.5q-276 0 -432 149t-156 409q0 139 46 246.5t127.5 173t186.5 99t230 33.5q105 0 258 -34v-238q-114 29 -228 29q-237 0 -284 -197h397v-213h-397q48 -213 280 -213z" />
    <glyph glyph-name="uni0455" unicode="&#x455;" horiz-adv-x="962" 
d="M432 -23q-184 0 -344 54v243q192 -61 324 -61q131 0 131 82q0 12 -2.5 22.5t-9 20t-12.5 17t-18.5 16.5t-21.5 14.5t-26.5 14.5t-28 14.5t-32.5 15.5t-34 16q-40 18 -64.5 31t-61 35t-59.5 45.5t-46 54.5t-34 70.5t-11 85.5q0 81 33 143t92 100t135.5 57t167.5 19
q168 0 315 -59v-233q-143 57 -274 57q-143 0 -143 -76q0 -13 4 -24t13.5 -20.5t18.5 -17t26.5 -17t30 -15t35.5 -16t37 -17.5t51.5 -24t55.5 -26t51 -28t50 -34t40.5 -40t35 -50.5t20 -60.5t8.5 -75q0 -90 -34.5 -155.5t-97.5 -104t-142.5 -56.5t-178.5 -18z" />
    <glyph glyph-name="uni0456" unicode="&#x456;" horiz-adv-x="593" 
d="M133 0v1069h330v-1069h-330zM131 1245v256h332v-256h-332z" />
    <glyph glyph-name="uni0457" unicode="&#x457;" horiz-adv-x="593" 
d="M133 0v1069h330v-1069h-330zM39 1249v252h215v-252h-215zM340 1249v252h215v-252h-215z" />
    <glyph glyph-name="uni0458" unicode="&#x458;" horiz-adv-x="593" 
d="M90 -459q-41 0 -137 17v252q54 -9 70 -9q61 0 85.5 42.5t24.5 129.5v1096h330v-1104q0 -222 -92 -323t-281 -101zM131 1245v256h332v-256h-332z" />
    <glyph glyph-name="uni0459" unicode="&#x459;" horiz-adv-x="1689" 
d="M31 -10v250q28 -7 39 -7q34 0 58.5 15t41 50.5t26.5 78t15 116t6.5 144.5t1.5 182v250h854v-354h141q227 0 338 -96t111 -261q0 -162 -111.5 -260t-337.5 -98h-471v813h-237v-37q0 -171 -9.5 -293.5t-33 -223t-64 -160.5t-102 -92t-147.5 -32q-36 0 -119 15zM1073 225
h101q157 0 157 131q0 133 -157 133h-101v-264z" />
    <glyph glyph-name="uni045A" unicode="&#x45a;" horiz-adv-x="1689" 
d="M133 0v1069h330v-383h287v383h329v-383h117q235 0 351 -87.5t116 -246.5q0 -75 -24.5 -137t-75 -111t-138 -76.5t-204.5 -27.5h-471v461h-287v-461h-330zM1079 225h92q160 0 160 117q0 119 -160 119h-92v-236z" />
    <glyph glyph-name="uni045B" unicode="&#x45b;" horiz-adv-x="1249" 
d="M-18 1239v154h151v149h330v-149h346v-154h-346v-170l-2 -176h6q128 194 328 194q168 0 258 -117.5t90 -324.5v-645h-330v551q0 130 -38 191t-118 61q-96 0 -145 -80.5t-49 -235.5v-487h-330v1239h-151z" />
    <glyph glyph-name="uni045C" unicode="&#x45c;" horiz-adv-x="1157" 
d="M133 0v1069h330v-407h72l239 407h359l-320 -512l348 -557h-379l-250 436h-69v-436h-330zM471 1221l133 309h340l-268 -309h-205z" />
    <glyph glyph-name="uni045E" unicode="&#x45e;" horiz-adv-x="1126" 
d="M283 -461q-21 0 -44.5 2t-39 4.5t-41.5 6.5l-39 6v262q87 -10 102 -10q129 0 172 120l4 13l-381 1126h365l182 -709l197 709h350l-383 -1126q-73 -215 -175 -309.5t-269 -94.5zM567 1212q-149 0 -244.5 79t-101.5 233h213q6 -58 37.5 -87.5t95.5 -29.5q62 0 92.5 29.5
t36.5 87.5h213q-6 -155 -99.5 -233.5t-242.5 -78.5z" />
    <glyph glyph-name="uni045F" unicode="&#x45f;" horiz-adv-x="1218" 
d="M469 -299v299h-336v1069h330v-813h293v813h329v-1069h-333v-299h-283z" />
    <glyph glyph-name="uni0462" unicode="&#x462;" horiz-adv-x="1290" 
d="M8 1065v184h221v185h338v-185h367v-184h-367v-150h131q282 0 412.5 -114t130.5 -340q0 -218 -136.5 -339.5t-406.5 -121.5h-469v1065h-221zM567 262h131q99 0 149 50t50 145q0 196 -199 196h-131v-391z" />
    <glyph glyph-name="uni0463" unicode="&#x463;" horiz-adv-x="1167" 
d="M29 813v256h186v473h330v-473h348v-256h-348v-137h151q221 0 333 -89.5t112 -240.5q0 -157 -112.5 -251.5t-332.5 -94.5h-481v813h-186zM545 225h100q152 0 152 113t-152 113h-100v-226z" />
    <glyph glyph-name="uni0472" unicode="&#x472;" horiz-adv-x="1536" 
d="M768 -23q-326 0 -504 198t-178 542q0 347 178.5 543t503.5 196q327 0 504.5 -197t177.5 -542q0 -347 -178.5 -543.5t-503.5 -196.5zM768 258q143 0 225.5 104t98.5 273h-648q16 -171 98 -274t226 -103zM768 1178q-140 0 -221 -98.5t-101 -260.5h644q-21 163 -103 261
t-219 98z" />
    <glyph glyph-name="uni0473" unicode="&#x473;" horiz-adv-x="1269" 
d="M635 -23q-250 0 -404.5 151t-154.5 402q0 253 156.5 405t402.5 152q248 0 403.5 -152.5t155.5 -404.5q0 -253 -154.5 -403t-404.5 -150zM635 223q83 0 139 60.5t74 162.5h-426q18 -103 74 -163t139 -60zM635 842q-80 0 -135 -57.5t-76 -153.5h420q-21 97 -76 154t-133 57
z" />
    <glyph glyph-name="uni0474" unicode="&#x474;" horiz-adv-x="1372" 
d="M465 0l-467 1434h373l309 -1098h4l213 786q47 174 132.5 254t223.5 80q56 0 125 -16v-260q-81 12 -111 -16t-63 -136l-323 -1028h-416z" />
    <glyph glyph-name="uni0475" unicode="&#x475;" horiz-adv-x="1136" 
d="M358 0l-342 1069h357l188 -729l105 410q49 191 127 264t211 73q53 0 141 -10v-278q-12 2 -39 2q-64 0 -96.5 -25.5t-57.5 -107.5l-204 -668h-390z" />
    <glyph glyph-name="uni0490" unicode="&#x490;" horiz-adv-x="1064" 
d="M147 0v1434h560v329h317v-616h-539v-1147h-338z" />
    <glyph glyph-name="uni0491" unicode="&#x491;" horiz-adv-x="901" 
d="M133 0v1069h445v299h282v-555h-397v-813h-330z" />
    <glyph glyph-name="uni0492" unicode="&#x492;" horiz-adv-x="1105" 
d="M188 0v610h-168l3 183h165v641h861v-287h-523v-354h389l-2 -183h-387v-610h-338z" />
    <glyph glyph-name="uni0493" unicode="&#x493;" horiz-adv-x="911" 
d="M154 0v393h-123v185h123v491h702v-256h-373v-235h246v-185h-246v-393h-329z" />
    <glyph glyph-name="uni0494" unicode="&#x494;" horiz-adv-x="1300" 
d="M793 -440q-85 0 -213 24v269q67 -17 133 -17q91 0 128.5 59.5t37.5 172.5v319q0 129 -43.5 183.5t-155.5 54.5q-99 0 -195 -35v-590h-338v1434h887v-287h-549v-305q145 49 289 49q222 0 332.5 -105t110.5 -329v-404q0 -493 -424 -493z" />
    <glyph glyph-name="uni0495" unicode="&#x495;" horiz-adv-x="1064" 
d="M133 0v1069h703v-256h-373v-219q101 29 201 29q73 0 131.5 -16.5t105.5 -53t72.5 -100t25.5 -150.5v-315q0 -230 -86 -338.5t-274 -108.5q-56 0 -139 17v252q32 -7 63 -7q62 0 84.5 38.5t22.5 140.5v270q0 68 -30.5 98.5t-94.5 30.5q-46 0 -82 -10v-371h-330z" />
    <glyph glyph-name="uni0496" unicode="&#x496;" horiz-adv-x="1925" 
d="M401 0h-391l424 754l-403 680h377l319 -566h74v566h323v-566h72l322 566h376l-405 -680l264 -467h162v-617h-318v330h-73l-314 602h-86v-602h-323v602h-88z" />
    <glyph glyph-name="uni0497" unicode="&#x497;" horiz-adv-x="1699" 
d="M1300 0l-237 426h-66v-426h-315v426h-66l-237 -426h-383l344 557l-313 512h360l238 -418h57v418h315v-418h58l237 418h361l-314 -512l189 -301h147v-555h-282v299h-93z" />
    <glyph glyph-name="uni0498" unicode="&#x498;" horiz-adv-x="1105" 
d="M678 -330h-318v314q-154 15 -301 67v283q43 -18 66 -26.5t78.5 -25.5t114 -25.5t120.5 -8.5q267 0 267 184q0 86 -64 131t-213 45h-160v262h148q256 0 256 162q0 156 -232 156q-94 0 -183.5 -23t-145.5 -51v277q184 65 370 65q265 0 399 -104.5t134 -278.5
q0 -121 -67.5 -206t-190.5 -122v-4q138 -27 217.5 -114.5t79.5 -218.5q0 -147 -96.5 -256.5t-278.5 -151.5v-330z" />
    <glyph glyph-name="uni0499" unicode="&#x499;" horiz-adv-x="983" 
d="M598 -289h-283v271q-151 12 -241 45v245q121 -55 288 -55q228 0 228 113q0 60 -62 88t-163 28h-134v197h134q192 0 192 105q0 102 -192 102q-134 0 -271 -43v237q53 17 150 30t198 13q90 0 168 -16t143.5 -48.5t103.5 -90.5t38 -135q0 -92 -52.5 -150t-150.5 -94v-2
q110 -26 172 -88.5t62 -163.5q0 -126 -90.5 -201t-237.5 -104v-283z" />
    <glyph glyph-name="uni049A" unicode="&#x49a;" horiz-adv-x="1320" 
d="M147 0v1434h338v-551h101l334 551h376l-428 -680l279 -467h172v-617h-318v330h-73l-344 616h-99v-616h-338z" />
    <glyph glyph-name="uni049B" unicode="&#x49b;" horiz-adv-x="1177" 
d="M133 0v1069h330v-407h72l239 407h359l-320 -512l188 -301h152v-555h-283v299h-88l-250 436h-69v-436h-330z" />
    <glyph glyph-name="uni049C" unicode="&#x49c;" horiz-adv-x="1454" 
d="M1061 0l-344 616h-47v-231h-111v231h-74v-616h-338v1434h338v-551h74v213h111v-213h49l334 551h377l-429 -680l451 -754h-391z" />
    <glyph glyph-name="uni049D" unicode="&#x49d;" horiz-adv-x="1280" 
d="M901 0l-242 436h-26v-196h-111v196h-59v-436h-330v1069h330v-405h59v198h111v-198h31l229 405h356l-309 -512l344 -557h-383z" />
    <glyph glyph-name="uni04A0" unicode="&#x4a0;" horiz-adv-x="1464" 
d="M291 0v1147h-262v287h600v-551h100l334 551h377l-428 -680l450 -754h-391l-344 616h-98v-616h-338z" />
    <glyph glyph-name="uni04A1" unicode="&#x4a1;" horiz-adv-x="1239" 
d="M215 0v811h-186v258h516v-407h71l240 407h358l-319 -512l348 -557h-379l-250 436h-69v-436h-330z" />
    <glyph glyph-name="uni04A2" unicode="&#x4a2;" horiz-adv-x="1525" 
d="M1174 -330v330h-185v598h-504v-598h-338v1434h338v-549h504v549h338v-1147h164v-617h-317z" />
    <glyph glyph-name="uni04A3" unicode="&#x4a3;" horiz-adv-x="1269" 
d="M963 -299v299h-177v424h-323v-424h-330v1069h330v-389h323v389h330v-813h129v-555h-282z" />
    <glyph glyph-name="uni04A4" unicode="&#x4a4;" horiz-adv-x="1884" 
d="M147 0v1434h338v-551h486v551h860v-287h-522v-1147h-338v596h-486v-596h-338z" />
    <glyph glyph-name="uni04A5" unicode="&#x4a5;" horiz-adv-x="1536" 
d="M133 0v1069h330v-389h321v389h697v-256h-367v-813h-330v424h-321v-424h-330z" />
    <glyph glyph-name="uni04AA" unicode="&#x4aa;" horiz-adv-x="1290" 
d="M913 -330h-317v340q-250 66 -380 253t-130 452q0 179 56.5 320.5t158.5 233t242 139.5t309 48q86 0 170.5 -14t125.5 -28l42 -15v-287q-62 27 -147.5 45.5t-168.5 18.5q-200 0 -318 -118t-118 -345q0 -228 121.5 -342.5t329.5 -114.5q154 0 301 47v-280
q-119 -37 -277 -43v-310z" />
    <glyph glyph-name="uni04AB" unicode="&#x4ab;" horiz-adv-x="993" 
d="M698 -289h-282v301q-163 56 -251.5 190.5t-88.5 327.5q0 251 148.5 404t410.5 153q152 0 262 -32v-244q-121 33 -201 33q-142 0 -212 -75.5t-70 -233.5q0 -163 80.5 -237.5t218.5 -74.5q85 0 190 37v-250q-100 -26 -205 -30v-269z" />
    <glyph glyph-name="uni04AE" unicode="&#x4ae;" horiz-adv-x="1331" 
d="M4 1434h373l285 -582h8l284 582h375l-493 -916v-518h-338v518z" />
    <glyph glyph-name="uni04AF" unicode="&#x4af;" horiz-adv-x="1105" 
d="M16 1069h355l188 -709h8l193 709h330l-373 -1130v-377h-330v377z" />
    <glyph glyph-name="uni04B0" unicode="&#x4b0;" horiz-adv-x="1331" 
d="M225 616h219l-440 818h373l285 -582h8l284 582h375l-442 -818h239v-184h-290v-432h-338v432h-273v184z" />
    <glyph glyph-name="uni04B1" unicode="&#x4b1;" horiz-adv-x="1105" 
d="M16 1069h355l188 -709h8l193 709h330l-353 -1069h250v-184h-270v-254h-330v254h-266v184h246z" />
    <glyph glyph-name="uni04B2" unicode="&#x4b2;" horiz-adv-x="1413" 
d="M981 0l-285 498l-280 -498h-391l475 752l-426 682h399l248 -441l250 441h375l-431 -682l293 -465h181v-617h-318v330h-90z" />
    <glyph glyph-name="uni04B3" unicode="&#x4b3;" horiz-adv-x="1126" 
d="M4 0l340 563l-305 506h385l156 -309l145 309h354l-303 -506l176 -307h150v-555h-283v299h-100l-168 350l-186 -350h-361z" />
    <glyph glyph-name="uni04B6" unicode="&#x4b6;" horiz-adv-x="1382" 
d="M846 0v530q-125 -32 -258 -32q-244 0 -368 106t-124 328v502h338v-443q0 -126 48 -176.5t169 -50.5q101 0 195 27v643h338v-1147h164v-617h-318v330h-184z" />
    <glyph glyph-name="uni04B7" unicode="&#x4b7;" horiz-adv-x="1177" 
d="M694 0v369q-110 -21 -217 -21q-205 0 -297 84t-92 270v367h330v-311q0 -98 34.5 -134t125.5 -36q58 0 116 12v469h330v-813h129v-555h-283v299h-176z" />
    <glyph glyph-name="uni04B8" unicode="&#x4b8;" horiz-adv-x="1351" 
d="M596 993h111v-235q68 5 159 26v650h338v-1434h-338v524q-71 -16 -159 -26v-215h-111v211q-500 3 -500 438v502h340v-451q0 -104 38 -156.5t122 -64.5v231z" />
    <glyph glyph-name="uni04B9" unicode="&#x4b9;" horiz-adv-x="1177" 
d="M514 813h111v-211q43 3 90 12v455h329v-1069h-329v385q-59 -12 -90 -16v-179h-111v170h-31q-209 0 -302 84t-93 271v354h330v-301q0 -79 21 -115.5t75 -46.5v207z" />
    <glyph glyph-name="uni04BA" unicode="&#x4ba;" horiz-adv-x="1351" 
d="M485 1434v-582q157 63 318 63q224 0 338 -105t114 -327v-483h-337v414q0 128 -47 183.5t-166 55.5q-111 0 -220 -41v-612h-338v1434h338z" />
    <glyph glyph-name="uni04BB" unicode="&#x4bb;" horiz-adv-x="1249" 
d="M133 0v1542h330v-473l-2 -176h6q128 194 328 194q168 0 258 -117.5t90 -324.5v-645h-330v551q0 130 -38 191t-118 61q-96 0 -145 -80.5t-49 -235.5v-487h-330z" />
    <glyph glyph-name="uni04C0" unicode="&#x4c0;" horiz-adv-x="634" 
d="M147 0v1434h340v-1434h-340z" />
    <glyph glyph-name="uni04C3" unicode="&#x4c3;" horiz-adv-x="1320" 
d="M147 0v1434h338v-566h78l373 566h373l-463 -672q117 -79 202.5 -159t134 -148t77.5 -140.5t38 -128t9 -118.5q0 -229 -122 -367.5t-341 -138.5q-103 0 -221 24v269q55 -17 112 -17q103 0 167.5 63t64.5 171q0 77 -37 157t-98.5 149t-126 123.5t-134.5 100.5h-86v-602
h-338z" />
    <glyph glyph-name="uni04C4" unicode="&#x4c4;" horiz-adv-x="1157" 
d="M133 0v1069h330v-407h74l237 407h359l-320 -512q317 -265 317 -586q0 -88 -25.5 -165t-73.5 -136.5t-122.5 -94t-167.5 -34.5q-25 0 -51.5 2.5t-43 5t-17.5 2.5v248q81 -6 121.5 39.5t40.5 124.5q0 108 -71.5 239.5t-180.5 233.5h-76v-436h-330z" />
    <glyph glyph-name="uni04C7" unicode="&#x4c7;" horiz-adv-x="1474" 
d="M870 -440q-100 0 -190 26v267q52 -17 115 -17q50 0 85.5 14.5t56.5 38t32.5 63.5t15.5 81t4 100v463h-504v-596h-338v1434h338v-551h504v551h338v-1389q0 -237 -115.5 -361t-341.5 -124z" />
    <glyph glyph-name="uni04C8" unicode="&#x4c8;" horiz-adv-x="1249" 
d="M743 -459q-41 0 -137 17v252q54 -9 70 -9q61 0 85.5 42.5t24.5 129.5v451h-323v-424h-330v1069h330v-389h323v389h330v-1104q0 -222 -92 -323t-281 -101z" />
    <glyph glyph-name="uni04CF" unicode="&#x4cf;" horiz-adv-x="593" 
d="M131 0v1542h332v-1542h-332z" />
    <glyph glyph-name="uni04D0" unicode="&#x4d0;" horiz-adv-x="1413" 
d="M16 0l494 1434h393l494 -1434h-367l-88 285h-487l-88 -285h-351zM696 1069l-159 -518h323l-160 518h-4zM707 1495q-161 0 -259.5 83t-107.5 247h225q10 -129 142 -129q131 0 141 129h225q-9 -164 -107 -247t-259 -83z" />
    <glyph glyph-name="uni04D1" unicode="&#x4d1;" horiz-adv-x="1142" 
d="M389 -23q-143 0 -238.5 85.5t-95.5 242.5q0 354 518 354h138v21q0 162 -228 162q-155 0 -329 -58v250q185 53 387 53q112 0 200 -23t155.5 -72t103.5 -131.5t36 -194.5v-666h-305v166h-6q-53 -91 -142 -140t-194 -49zM508 199q84 0 143.5 74t59.5 167v43h-109
q-105 0 -161 -42.5t-56 -116.5q0 -61 35 -93t88 -32zM571 1212q-149 0 -244.5 79t-101.5 233h213q6 -58 37.5 -87.5t95.5 -29.5q62 0 92.5 29.5t36.5 87.5h213q-6 -155 -99.5 -233.5t-242.5 -78.5z" />
    <glyph glyph-name="uni04D2" unicode="&#x4d2;" horiz-adv-x="1413" 
d="M16 0l494 1434h393l494 -1434h-367l-88 285h-487l-88 -285h-351zM696 1069l-159 -518h323l-160 518h-4zM330 1522v262h278v-262h-278zM805 1522v262h280v-262h-280z" />
    <glyph glyph-name="uni04D3" unicode="&#x4d3;" horiz-adv-x="1142" 
d="M389 -23q-143 0 -238.5 85.5t-95.5 242.5q0 354 518 354h138v21q0 162 -228 162q-155 0 -329 -58v250q185 53 387 53q112 0 200 -23t155.5 -72t103.5 -131.5t36 -194.5v-666h-305v166h-6q-53 -91 -142 -140t-194 -49zM508 199q84 0 143.5 74t59.5 167v43h-109
q-105 0 -161 -42.5t-56 -116.5q0 -61 35 -93t88 -32zM217 1245v252h264v-252h-264zM659 1245v252h265v-252h-265z" />
    <glyph glyph-name="uni04D4" unicode="&#x4d4;" horiz-adv-x="1832" 
d="M-14 0l751 1434h998v-287h-502l12 -277h443v-274h-433l15 -309h473v-287h-787l-12 285h-444l-144 -285h-370zM905 1094l-272 -543h299l-23 543h-4z" />
    <glyph glyph-name="uni04D5" unicode="&#x4d5;" horiz-adv-x="1812" 
d="M518 1087q132 0 227 -32.5t162 -106.5h8q127 139 338 139q230 0 353 -150.5t123 -418.5v-61h-668q17 -120 87 -179t200 -59q132 0 315 43v-233q-163 -52 -344 -52q-157 0 -276 55t-185 158h-6q-160 -213 -434 -213q-161 0 -262 85t-101 243q0 338 537 338h143v37
q0 45 -23 78.5t-62 50.5t-82 25t-91 8q-145 0 -319 -54v240q172 59 360 59zM518 193q88 0 152.5 64t64.5 175v25h-112q-114 0 -181 -36t-67 -108q0 -60 42 -90t101 -30zM1249 852q-77 0 -125.5 -56t-62.5 -153h356q5 93 -41 151t-127 58z" />
    <glyph glyph-name="uni04D6" unicode="&#x4d6;" horiz-adv-x="1105" 
d="M147 0v1434h859v-287h-521v-275h478v-274h-478v-311h531v-287h-869zM588 1495q-161 0 -259.5 83t-107.5 247h225q10 -129 142 -129q131 0 141 129h225q-9 -164 -107 -247t-259 -83z" />
    <glyph glyph-name="uni04D7" unicode="&#x4d7;" horiz-adv-x="1177" 
d="M1094 442h-680q19 -116 87 -169.5t197 -53.5q147 0 330 43v-237q-192 -48 -360 -48q-282 0 -437 150.5t-155 411.5q0 251 145 399.5t381 148.5q241 0 366.5 -152.5t125.5 -428.5v-64zM604 850q-84 0 -132 -59.5t-62 -159.5h372q5 98 -43.5 158.5t-134.5 60.5zM596 1212
q-149 0 -244.5 79t-101.5 233h213q6 -58 37.5 -87.5t95.5 -29.5q62 0 92.5 29.5t36.5 87.5h213q-6 -155 -99.5 -233.5t-242.5 -78.5z" />
    <glyph glyph-name="uni04D8" unicode="&#x4d8;" horiz-adv-x="1474" 
d="M86 711q0 22 4 92h940q-14 188 -101.5 282.5t-269.5 94.5q-196 0 -399 -84v278q202 82 430 82q344 0 521.5 -192t177.5 -547q0 -347 -171 -543.5t-481 -196.5q-311 0 -481 198t-170 536zM737 256q116 0 188 86.5t97 230.5h-569q23 -146 95 -231.5t189 -85.5z" />
    <glyph glyph-name="uni04D9" unicode="&#x4d9;" horiz-adv-x="1177" 
d="M86 535v77h680q-17 123 -82 178.5t-192 55.5q-153 0 -336 -43v233q63 20 162 35.5t200 15.5q280 0 432 -149.5t152 -411.5q0 -251 -141 -400t-369 -149q-248 0 -377 146.5t-129 411.5zM573 217q84 0 132.5 54.5t60.5 152.5h-371q-3 -93 45 -150t133 -57z" />
    <glyph glyph-name="uni04DA" unicode="&#x4da;" horiz-adv-x="1474" 
d="M86 711q0 22 4 92h940q-14 188 -101.5 282.5t-269.5 94.5q-196 0 -399 -84v278q202 82 430 82q344 0 521.5 -192t177.5 -547q0 -347 -171 -543.5t-481 -196.5q-311 0 -481 198t-170 536zM737 256q116 0 188 86.5t97 230.5h-569q23 -146 95 -231.5t189 -85.5zM360 1522
v262h279v-262h-279zM836 1522v262h280v-262h-280z" />
    <glyph glyph-name="uni04DB" unicode="&#x4db;" horiz-adv-x="1177" 
d="M86 535v77h680q-17 123 -82 178.5t-192 55.5q-153 0 -336 -43v233q63 20 162 35.5t200 15.5q280 0 432 -149.5t152 -411.5q0 -251 -141 -400t-369 -149q-248 0 -377 146.5t-129 411.5zM573 217q84 0 132.5 54.5t60.5 152.5h-371q-3 -93 45 -150t133 -57zM221 1245v252
h264v-252h-264zM664 1245v252h264v-252h-264z" />
    <glyph glyph-name="uni04DC" unicode="&#x4dc;" horiz-adv-x="1925" 
d="M1524 0l-314 602h-86v-602h-323v602h-88l-312 -602h-391l424 754l-403 680h377l319 -566h74v566h323v-566h72l322 566h376l-405 -680l426 -754h-391zM586 1522v262h278v-262h-278zM1061 1522v262h280v-262h-280z" />
    <glyph glyph-name="uni04DD" unicode="&#x4dd;" horiz-adv-x="1679" 
d="M1300 0l-237 426h-66v-426h-315v426h-66l-237 -426h-383l344 557l-313 512h360l238 -418h57v418h315v-418h58l237 418h361l-314 -512l344 -557h-383zM487 1245v252h265v-252h-265zM930 1245v252h264v-252h-264z" />
    <glyph glyph-name="uni04DE" unicode="&#x4de;" horiz-adv-x="1105" 
d="M457 -23q-193 0 -398 74v283q43 -18 66 -26.5t78.5 -25.5t114 -25.5t120.5 -8.5q267 0 267 184q0 86 -64 131t-213 45h-160v262h148q256 0 256 162q0 156 -232 156q-94 0 -183.5 -23t-145.5 -51v277q184 65 370 65q265 0 399 -104.5t134 -278.5q0 -121 -67.5 -206
t-190.5 -122v-4q138 -27 217.5 -114.5t79.5 -218.5q0 -91 -37.5 -168.5t-110 -136.5t-187.5 -92.5t-261 -33.5zM147 1522v262h279v-262h-279zM623 1522v262h280v-262h-280z" />
    <glyph glyph-name="uni04DF" unicode="&#x4df;" horiz-adv-x="983" 
d="M410 -23q-98 0 -190 15t-146 35v245q121 -55 288 -55q228 0 228 113q0 60 -62 88t-163 28h-134v197h134q192 0 192 105q0 102 -192 102q-134 0 -271 -43v237q53 17 150 30t198 13q90 0 168 -16t143.5 -48.5t103.5 -90.5t38 -135q0 -92 -52.5 -150t-150.5 -94v-2
q110 -26 172 -88.5t62 -163.5q0 -86 -44 -150.5t-119 -100.5t-163.5 -53.5t-189.5 -17.5zM102 1245v252h265v-252h-265zM545 1245v252h264v-252h-264z" />
    <glyph glyph-name="uni04E2" unicode="&#x4e2;" horiz-adv-x="1515" 
d="M147 0v1434h328v-744l-4 -250h10l78 162l414 832h395v-1434h-328v739l4 256h-10l-86 -178l-405 -817h-396zM416 1587v164h686v-164h-686z" />
    <glyph glyph-name="uni04E3" unicode="&#x4e3;" horiz-adv-x="1259" 
d="M133 0v1069h324v-614h4l354 614h311v-1069h-323v618h-4l-363 -618h-303zM289 1296v162h686v-162h-686z" />
    <glyph glyph-name="uni04E4" unicode="&#x4e4;" horiz-adv-x="1515" 
d="M147 0v1434h328v-744l-4 -250h10l78 162l414 832h395v-1434h-328v739l4 256h-10l-86 -178l-405 -817h-396zM381 1522v262h278v-262h-278zM856 1522v262h281v-262h-281z" />
    <glyph glyph-name="uni04E5" unicode="&#x4e5;" horiz-adv-x="1259" 
d="M133 0v1069h324v-614h4l354 614h311v-1069h-323v618h-4l-363 -618h-303zM279 1245v252h264v-252h-264zM721 1245v252h264v-252h-264z" />
    <glyph glyph-name="uni04E6" unicode="&#x4e6;" horiz-adv-x="1536" 
d="M768 -23q-326 0 -504 198t-178 542q0 347 178.5 543t503.5 196q327 0 504.5 -197t177.5 -542q0 -347 -178.5 -543.5t-503.5 -196.5zM768 258q108 0 184 63.5t110 165t34 230.5q0 203 -84.5 332t-243.5 129q-108 0 -184 -64t-110 -166t-34 -231q0 -132 34.5 -233.5
t110 -163.5t183.5 -62zM391 1522v262h279v-262h-279zM866 1522v262h281v-262h-281z" />
    <glyph glyph-name="uni04E7" unicode="&#x4e7;" horiz-adv-x="1269" 
d="M635 -23q-250 0 -404.5 151t-154.5 402q0 253 156.5 405t402.5 152q248 0 403.5 -152.5t155.5 -404.5q0 -253 -154.5 -403t-404.5 -150zM635 223q100 0 159.5 85.5t59.5 221.5q0 138 -60 225t-159 87t-159 -88t-60 -224q0 -137 60 -222t159 -85zM283 1245v252h264v-252
h-264zM725 1245v252h264v-252h-264z" />
    <glyph glyph-name="uni04E8" unicode="&#x4e8;" horiz-adv-x="1536" 
d="M768 -23q-326 0 -504 198t-178 542q0 347 178.5 543t503.5 196q327 0 504.5 -197t177.5 -542q0 -347 -178.5 -543.5t-503.5 -196.5zM768 258q143 0 225.5 104t98.5 273h-648q16 -171 98 -274t226 -103zM768 1178q-140 0 -221 -98.5t-101 -260.5h644q-21 163 -103 261
t-219 98z" />
    <glyph glyph-name="uni04E9" unicode="&#x4e9;" horiz-adv-x="1269" 
d="M635 -23q-250 0 -404.5 151t-154.5 402q0 253 156.5 405t402.5 152q248 0 403.5 -152.5t155.5 -404.5q0 -253 -154.5 -403t-404.5 -150zM635 223q83 0 139 60.5t74 162.5h-426q18 -103 74 -163t139 -60zM635 842q-80 0 -135 -57.5t-76 -153.5h420q-21 97 -76 154t-133 57
z" />
    <glyph glyph-name="uni04EA" unicode="&#x4ea;" horiz-adv-x="1536" 
d="M768 -23q-326 0 -504 198t-178 542q0 347 178.5 543t503.5 196q327 0 504.5 -197t177.5 -542q0 -347 -178.5 -543.5t-503.5 -196.5zM768 258q143 0 225.5 104t98.5 273h-648q16 -171 98 -274t226 -103zM768 1178q-140 0 -221 -98.5t-101 -260.5h644q-21 163 -103 261
t-219 98zM391 1522v260h279v-260h-279zM866 1522v260h281v-260h-281z" />
    <glyph glyph-name="uni04EB" unicode="&#x4eb;" horiz-adv-x="1269" 
d="M635 -23q-250 0 -404.5 151t-154.5 402q0 253 156.5 405t402.5 152q248 0 403.5 -152.5t155.5 -404.5q0 -253 -154.5 -403t-404.5 -150zM635 223q83 0 139 60.5t74 162.5h-426q18 -103 74 -163t139 -60zM635 842q-80 0 -135 -57.5t-76 -153.5h420q-21 97 -76 154t-133 57
zM723 1249v252h264v-252h-264zM283 1249v252h264v-252h-264z" />
    <glyph glyph-name="uni04EE" unicode="&#x4ee;" horiz-adv-x="1269" 
d="M199 272q76 -28 133 -28q109 0 162 100l-478 1090h369l268 -697h6l236 697h358l-456 -1112q-76 -186 -169.5 -265.5t-244.5 -79.5q-96 0 -184 39v256zM293 1587v164h686v-164h-686z" />
    <glyph glyph-name="uni04EF" unicode="&#x4ef;" horiz-adv-x="1126" 
d="M283 -461q-21 0 -44.5 2t-39 4.5t-41.5 6.5l-39 6v262q87 -10 102 -10q129 0 172 120l4 13l-381 1126h365l182 -709l197 709h350l-383 -1126q-73 -215 -175 -309.5t-269 -94.5zM223 1296v162h686v-162h-686z" />
    <glyph glyph-name="uni04F0" unicode="&#x4f0;" horiz-adv-x="1269" 
d="M199 272q76 -28 133 -28q109 0 162 100l-478 1090h369l268 -697h6l236 697h358l-456 -1112q-76 -186 -169.5 -265.5t-244.5 -79.5q-96 0 -184 39v256zM258 1522v262h279v-262h-279zM733 1522v262h281v-262h-281z" />
    <glyph glyph-name="uni04F1" unicode="&#x4f1;" horiz-adv-x="1126" 
d="M283 -461q-21 0 -44.5 2t-39 4.5t-41.5 6.5l-39 6v262q87 -10 102 -10q129 0 172 120l4 13l-381 1126h365l182 -709l197 709h350l-383 -1126q-73 -215 -175 -309.5t-269 -94.5zM213 1245v252h264v-252h-264zM655 1245v252h265v-252h-265z" />
    <glyph glyph-name="uni04F2" unicode="&#x4f2;" horiz-adv-x="1269" 
d="M199 272q76 -28 133 -28q109 0 162 100l-478 1090h369l268 -697h6l236 697h358l-456 -1112q-76 -186 -169.5 -265.5t-244.5 -79.5q-96 0 -184 39v256zM729 1522l148 274h319l-266 -274h-201zM276 1522l148 274h319l-266 -274h-201z" />
    <glyph glyph-name="uni04F3" unicode="&#x4f3;" horiz-adv-x="1126" 
d="M283 -461q-21 0 -44.5 2t-39 4.5t-41.5 6.5l-39 6v262q87 -10 102 -10q129 0 172 120l4 13l-381 1126h365l182 -709l197 709h350l-383 -1126q-73 -215 -175 -309.5t-269 -94.5zM672 1221l147 309h322l-269 -309h-200zM221 1221l146 309h321l-266 -309h-201z" />
    <glyph glyph-name="uni04F4" unicode="&#x4f4;" horiz-adv-x="1331" 
d="M846 0v530q-125 -32 -258 -32q-244 0 -368 106t-124 328v502h338v-443q0 -126 48 -176.5t169 -50.5q101 0 195 27v643h338v-1434h-338zM274 1522v262h279v-262h-279zM750 1522v262h280v-262h-280z" />
    <glyph glyph-name="uni04F5" unicode="&#x4f5;" horiz-adv-x="1157" 
d="M694 0v369q-110 -21 -217 -21q-205 0 -297 84t-92 270v367h330v-311q0 -98 34.5 -134t125.5 -36q58 0 116 12v469h330v-1069h-330zM223 1245v252h264v-252h-264zM666 1245v252h264v-252h-264z" />
    <glyph glyph-name="uni04F8" unicode="&#x4f8;" horiz-adv-x="1792" 
d="M147 0v1434h338v-490h121q277 0 406 -119t129 -354q0 -223 -134 -347t-401 -124h-459zM485 262h121q92 0 139.5 54t47.5 155q0 103 -47.5 157t-139.5 54h-121v-420zM1307 0v1434h338v-1434h-338zM520 1522v262h279v-262h-279zM995 1522v262h281v-262h-281z" />
    <glyph glyph-name="uni04F9" unicode="&#x4f9;" horiz-adv-x="1587" 
d="M133 0v1069h330v-326h123q224 0 331 -98.5t107 -265.5q0 -175 -102.5 -277t-317.5 -102h-471zM459 225h88q70 0 104.5 39.5t34.5 110.5q0 67 -34.5 105t-104.5 38h-88v-293zM1124 0v1069h330v-1069h-330zM442 1245v252h265v-252h-265zM885 1245v252h264v-252h-264z" />
    <glyph glyph-name="uni058D" unicode="&#x58d;" horiz-adv-x="1638" 
d="M821 -23q-110 0 -213 70q144 32 240 144t96 251q0 95 -57 209q123 -21 198.5 -115t75.5 -212q0 -87 -44 -166.5t-123.5 -130t-172.5 -50.5zM532 102q-137 0 -221 83.5t-110 205.5q47 -34 112 -56t125 -22q55 0 110 18t107.5 54t96.5 98.5t69 143.5q60 -100 60 -201
q0 -129 -97.5 -226.5t-251.5 -97.5zM430 379q-133 0 -239.5 102.5t-106.5 233.5q0 116 61 207q35 -132 141 -230t249 -98q122 0 221 59q-28 -119 -120 -196.5t-206 -77.5zM532 657q-130 0 -227.5 97.5t-97.5 251.5q0 68 25 126.5t66.5 98t90.5 66t103 38.5
q-72 -119 -72 -237q0 -55 17.5 -109.5t53 -108t98 -98t144.5 -69.5q-112 -56 -201 -56zM1153 92q68 128 68 242q0 55 -17.5 110t-53 108t-98.5 97t-145 68q105 57 203 57q128 0 226 -97t98 -251q0 -140 -81.5 -225t-199.5 -109zM758 780q-123 28 -200 119t-77 209
q0 136 98 242t246 106q104 0 205 -72q-150 -31 -242 -139t-92 -254q0 -107 62 -211zM1491 508q-32 143 -133 238.5t-262 95.5q-109 0 -213 -62q28 119 120 197t207 78q145 0 245.5 -102t100.5 -238q0 -115 -65 -207zM815 801q-53 106 -53 205q0 129 97.5 227t250.5 98
q69 0 127.5 -25t98 -67.5t65 -92t37.5 -104.5q-49 33 -112 54.5t-122 21.5q-56 0 -111.5 -17.5t-109 -53.5t-98 -99.5t-70.5 -146.5z" />
    <glyph glyph-name="uni058E" unicode="&#x58e;" horiz-adv-x="2048" 
d="M1520 -25l-1450 504l647 664q20 23 20 47q0 22 -18 37l-66 49l201 178l252 -170q49 -34 49 -90q0 -61 -41 -96l-455 -465l861 -303v-355zM1288 623v133h660v-133h-660zM1483 831q-82 0 -127 45.5t-45 122.5v275h209v-230q0 -75 49 -75q32 0 46.5 25t14.5 59v235
q0 168 182 168q54 0 136 -20v-121q-48 10 -68 10q-19 0 -29 -9t-12 -18.5t-2 -25.5v-430h-186v80q-21 -43 -67 -67t-101 -24z" />
    <glyph glyph-name="uni058F" unicode="&#x58f;" horiz-adv-x="1187" 
d="M377 530v185h258v260q0 124 -32 176.5t-97 52.5q-133 0 -133 -209v-73h-330v73q0 234 123 347.5t342 113.5q465 0 465 -452v-289h147v-185h-147v-122h147v-185h-147v-223h-338v223h-258v185h258v122h-258z" />
    <glyph glyph-name="uni1E9E" unicode="&#x1e9e;" horiz-adv-x="1372" 
d="M827 -23q-113 0 -231 23v246q82 -21 154 -21q105 0 161 54.5t56 162.5q0 115 -64 158t-194 43q-35 0 -60 -4v164l232 354q-88 39 -176 39q-105 0 -164.5 -53.5t-59.5 -163.5v-979h-338v975q0 126 40.5 219t116.5 150t177.5 84.5t231.5 27.5q168 0 310.5 -51.5
t227.5 -130.5l-309 -449q180 -24 280.5 -123t100.5 -280q0 -212 -130 -328.5t-362 -116.5z" />
    <glyph glyph-name="uni2010" unicode="&#x2010;" 
d="M106 471v287h609v-287h-609z" />
    <glyph glyph-name="uni2011" unicode="&#x2011;" 
d="M106 471v287h609v-287h-609z" />
    <glyph glyph-name="figuredash" unicode="&#x2012;" horiz-adv-x="1126" 
d="M41 604v287h1044v-287h-1044z" />
    <glyph glyph-name="endash" unicode="&#x2013;" horiz-adv-x="1126" 
d="M41 471v287h1044v-287h-1044z" />
    <glyph glyph-name="emdash" unicode="&#x2014;" horiz-adv-x="1843" 
d="M102 471v287h1639v-287h-1639z" />
    <glyph glyph-name="uni2015" unicode="&#x2015;" horiz-adv-x="1843" 
d="M102 471v287h1639v-287h-1639z" />
    <glyph glyph-name="quoteleft" unicode="&#x2018;" horiz-adv-x="552" 
d="M51 893l221 541h224l-136 -541h-309z" />
    <glyph glyph-name="quoteright" unicode="&#x2019;" horiz-adv-x="552" 
d="M57 893l136 541h309l-195 -541h-250z" />
    <glyph glyph-name="quotesinglbase" unicode="&#x201a;" horiz-adv-x="573" 
d="M47 -238l133 539h309l-192 -539h-250z" />
    <glyph glyph-name="quotedblleft" unicode="&#x201c;" horiz-adv-x="1024" 
d="M510 893l225 541h219l-135 -541h-309zM63 893l228 541h217l-135 -541h-310z" />
    <glyph glyph-name="quotedblright" unicode="&#x201d;" horiz-adv-x="1024" 
d="M516 893l135 541h310l-193 -541h-252zM70 893l135 541h309l-192 -541h-252z" />
    <glyph glyph-name="quotedblbase" unicode="&#x201e;" horiz-adv-x="1024" 
d="M487 -238l136 539h311l-193 -539h-254zM43 -238l135 539h311l-194 -539h-252z" />
    <glyph glyph-name="dagger" unicode="&#x2020;" horiz-adv-x="1331" 
d="M518 -287v1100h-375v256h375v365h295v-365h375v-256h-375v-1100h-295z" />
    <glyph glyph-name="daggerdbl" unicode="&#x2021;" horiz-adv-x="1331" 
d="M518 -287v355h-375v256h375v489h-375v256h375v365h295v-365h375v-256h-375v-489h375v-256h-375v-355h-295z" />
    <glyph glyph-name="bullet" unicode="&#x2022;" horiz-adv-x="1024" 
d="M512 307q-167 0 -284 116.5t-117 283.5t117 284t284 117t284 -117t117 -284t-117 -283.5t-284 -116.5z" />
    <glyph glyph-name="ellipsis" unicode="&#x2026;" horiz-adv-x="1863" 
d="M1421 0v301h312v-301h-312zM131 0v301h311v-301h-311zM776 0v301h311v-301h-311z" />
    <glyph glyph-name="perthousand" unicode="&#x2030;" horiz-adv-x="2682" 
d="M311 0l994 1434h227l-993 -1434h-228zM451 717q-173 0 -273 100.5t-100 269.5q0 167 101 268t272 101q173 0 273.5 -100t100.5 -269q0 -167 -101 -268.5t-273 -101.5zM451 909q69 0 102 40.5t33 137.5q0 95 -33.5 136t-101.5 41q-66 0 -100 -41t-34 -136t34.5 -136.5
t99.5 -41.5zM1391 -23q-172 0 -272.5 100.5t-100.5 268.5t101 269.5t272 101.5q174 0 274 -100.5t100 -270.5q0 -166 -101.5 -267.5t-272.5 -101.5zM1391 170q68 0 101.5 40.5t33.5 135.5q0 97 -33 137.5t-102 40.5q-66 0 -100 -41t-34 -137q0 -94 34.5 -135t99.5 -41z
M2230 -23q-172 0 -272 100.5t-100 268.5t100.5 269.5t271.5 101.5q174 0 274.5 -100.5t100.5 -270.5q0 -165 -102 -267t-273 -102zM2230 170q68 0 101.5 40.5t33.5 135.5q0 97 -33 137.5t-102 40.5q-66 0 -99.5 -41t-33.5 -137q0 -94 34 -135t99 -41z" />
    <glyph glyph-name="guilsinglleft" unicode="&#x2039;" horiz-adv-x="716" 
d="M346 197l-258 417l258 416h266l-237 -416l237 -417h-266z" />
    <glyph glyph-name="guilsinglright" unicode="&#x203a;" horiz-adv-x="716" 
d="M629 614l-258 -417h-267l238 417l-238 416h267z" />
    <glyph glyph-name="fraction" unicode="&#x2044;" horiz-adv-x="696" 
d="M-262 0l993 1434h227l-993 -1434h-227z" />
    <glyph glyph-name="foursuperior" unicode="&#x2074;" 
d="M457 571v152h-422v184l352 527h299v-539h90v-172h-90v-152h-229zM238 895h219v326h-4z" />
    <glyph glyph-name="franc" unicode="&#x20a3;" horiz-adv-x="1187" 
d="M188 0v223h-135v185h135v1026h891v-277h-561v-278h524v-277h-524v-194h287v-185h-287v-223h-330z" />
    <glyph glyph-name="Euro" unicode="&#x20ac;" horiz-adv-x="1187" 
d="M12 487l37 172h86q-2 18 -2 58q0 37 2 55h-123l37 172h111q60 239 237 375.5t430 136.5q78 0 155 -15.5t114.5 -29.5t48.5 -22l-58 -236q-13 11 -91 30t-152 19q-268 0 -346 -258h549l-35 -172h-541q-2 -18 -2 -57v-56h516l-35 -172h-450q84 -256 366 -256q141 0 281 66
v-274q-124 -46 -303 -46q-275 0 -451 137.5t-233 372.5h-148z" />
    <glyph glyph-name="uni20B4" unicode="&#x20b4;" horiz-adv-x="1187" 
d="M57 801v184h633q33 54 33 100q0 115 -215 115q-196 0 -330 -45v258q179 43 385 43q95 0 172.5 -12.5t130.5 -35t92 -51t61 -64t32 -70.5t10 -74q0 -87 -49 -164h118v-184h-284q-64 -58 -180 -146h464v-184h-649q-26 -50 -26 -92q0 -64 56 -103.5t181 -39.5q203 0 379 65
v-272q-184 -52 -407 -52q-274 0 -407.5 94t-133.5 240q0 80 41 160h-107v184h252q77 73 176 146h-428z" />
    <glyph glyph-name="uni20B8" unicode="&#x20b8;" horiz-adv-x="1187" 
d="M428 0v924h-356v184h1044v-184h-356v-924h-332zM72 1249v185h1044v-185h-1044z" />
    <glyph glyph-name="uni20BC" unicode="&#x20bc;" horiz-adv-x="1187" 
d="M25 0q0 296 28.5 514t86 357.5t135 216.5t182.5 106v240h274v-240q105 -29 182.5 -106t135 -216.5t86 -357.5t28.5 -514h-321q0 421 -25.5 639.5t-85.5 345.5v-985h-274v985q-61 -126 -86 -343.5t-25 -641.5h-321z" />
    <glyph glyph-name="uni20BD" unicode="&#x20bd;" horiz-adv-x="1187" 
d="M188 0v223h-135v185h135v133h-135v241h135v652h433q260 0 388 -116t128 -329q0 -216 -125.5 -332t-382.5 -116h-111v-133h287v-185h-287v-223h-330zM518 782h113q77 0 124.5 53t47.5 146q0 92 -50.5 141t-131.5 49h-103v-389z" />
    <glyph glyph-name="uni20BE" unicode="&#x20be;" horiz-adv-x="1187" 
d="M459 717v446q-90 -98 -90 -397q0 -261 106 -380.5t330 -119.5h223v-266h-922v266h187q-99 83 -159 219.5t-60 305.5q0 255 97 427t286 220v200h106v-184q12 2 39 2q4 0 12.5 -1t12.5 -1v184h106v-198q128 -32 211.5 -132.5t120.5 -247.5t37 -343h-275q0 338 -96 442v-442
h-98v497q-30 5 -41 5q-10 0 -35 -5v-497h-98z" />
    <glyph glyph-name="uni2116" unicode="&#x2116;" horiz-adv-x="2048" 
d="M147 0v1434h400l364 -873l27 -80l-6 164v789h330v-1434h-394l-370 887l-27 76l6 -166v-797h-330zM1649 846q-137 0 -218 83t-81 222q0 138 81 221.5t218 83.5q140 0 221.5 -83t81.5 -222q0 -140 -82 -222.5t-221 -82.5zM1368 571v205h567v-205h-567zM1647 1020
q51 0 75.5 36t24.5 95q0 131 -98 131q-95 0 -95 -131t93 -131z" />
    <glyph glyph-name="uni2117" unicode="&#x2117;" horiz-adv-x="1802" 
d="M651 309v815h273q161 0 235 -66.5t74 -203.5t-74 -204.5t-233 -67.5h-101v-273h-174zM825 731h101q67 0 96 29t29 94t-29 93t-98 28h-99v-244zM901 -23q-151 0 -287.5 58t-235 157t-156.5 236t-58 289t58 289t156.5 235.5t235 156.5t287.5 58t287.5 -58t235 -156.5
t156.5 -235.5t58 -289t-58 -289t-156.5 -236t-235 -157t-287.5 -58zM895 152q152 0 281 74.5t204.5 204.5t75.5 286t-73.5 286t-201 204.5t-280.5 74.5q-152 0 -279 -74.5t-200.5 -204.5t-73.5 -286t71.5 -286t197 -204.5t278.5 -74.5z" />
    <glyph glyph-name="trademark" unicode="&#x2122;" horiz-adv-x="1966" 
d="M872 582v852h302l186 -422l182 422h293v-852h-201v653h-2l-192 -432h-170l-195 432h-2v-653h-201zM313 582v680h-247v172h696v-172h-248v-680h-201z" />
    <glyph glyph-name="uni2126" unicode="&#x2126;" horiz-adv-x="1556" 
d="M94 0v256h369v47q-77 24 -140.5 65.5t-116.5 104t-82.5 154.5t-29.5 204q0 293 181.5 466t502.5 173q322 0 503 -173.5t181 -465.5q0 -111 -29.5 -202.5t-82 -154.5t-116 -105t-140.5 -66v-47h370v-256h-602v449q125 22 192.5 124t67.5 242q0 175 -91.5 282t-252.5 107
q-162 0 -252 -106.5t-90 -282.5q0 -91 27.5 -167t87.5 -130t145 -69v-449h-602z" />
    <glyph glyph-name="arrowleft" unicode="&#x2190;" horiz-adv-x="1433" 
d="M516 227l-489 490l489 489h326l-363 -362h899v-254h-899l363 -363h-326z" />
    <glyph glyph-name="arrowup" unicode="&#x2191;" horiz-adv-x="1433" 
d="M590 0v981l-363 -363v326l490 490l489 -490v-326l-362 363v-981h-254z" />
    <glyph glyph-name="arrowright" unicode="&#x2192;" horiz-adv-x="1433" 
d="M592 227l362 363h-899v254h899l-362 362h326l489 -489l-489 -490h-326z" />
    <glyph glyph-name="arrowdown" unicode="&#x2193;" horiz-adv-x="1433" 
d="M717 0l-490 489v326l363 -362v981h254v-981l362 362v-326z" />
    <glyph glyph-name="partialdiff" unicode="&#x2202;" horiz-adv-x="1269" 
d="M621 -23q-242 0 -393.5 147.5t-151.5 405.5q0 140 52.5 260.5t159.5 198.5t249 78q107 0 203 -50t153 -143h4v35q0 73 -37 141.5t-98 121t-139 95t-159 69.5t-159 38l68 264q430 -78 625.5 -300t195.5 -609q0 -176 -29.5 -309.5t-95 -235t-178 -154.5t-270.5 -53z
M631 223q90 0 145 81.5t55 213.5t-56 216.5t-146 84.5q-97 0 -155 -84t-58 -215q0 -132 59 -214.5t156 -82.5z" />
    <glyph glyph-name="uni2206" unicode="&#x2206;" horiz-adv-x="1433" 
d="M25 0l518 1434h350l516 -1434h-1384zM412 256h528l-258 809z" />
    <glyph glyph-name="product" unicode="&#x220f;" horiz-adv-x="1495" 
d="M51 -430v266h119v1331h-119v267h1393v-267h-121v-1331h121v-266h-580v266h129v1331h-493v-1331h129v-266h-578z" />
    <glyph glyph-name="summation" unicode="&#x2211;" horiz-adv-x="1331" 
d="M90 -430v229l463 733l-461 658v244h1104v-467h-278v200h-416l432 -620l-438 -711h446v213h277v-479h-1129z" />
    <glyph glyph-name="minus" unicode="&#x2212;" horiz-adv-x="1187" 
d="M68 582v270h1052v-270h-1052z" />
    <glyph glyph-name="uni2215" unicode="&#x2215;" horiz-adv-x="1187" 
d="M-45 0l954 1434h324l-954 -1434h-324z" />
    <glyph glyph-name="uni2219" unicode="&#x2219;" horiz-adv-x="614" 
d="M141 557v320h332v-320h-332z" />
    <glyph glyph-name="radical" unicode="&#x221a;" horiz-adv-x="1320" 
d="M502 -205l-254 973h-144v276h414l180 -714l203 1384h418v-276h-189l-249 -1643h-379z" />
    <glyph glyph-name="infinity" unicode="&#x221e;" horiz-adv-x="1536" 
d="M424 362q-135 0 -232.5 100.5t-97.5 252.5q0 156 97.5 256t244.5 100q196 0 340 -201q140 201 324 201q146 0 244 -99t98 -253q0 -155 -97.5 -256t-232.5 -101q-192 0 -346 209q-151 -209 -342 -209zM446 559q62 0 115 40.5t109 115.5q-57 78 -110 118.5t-116 40.5
q-69 0 -109 -45t-40 -110q0 -67 43 -113.5t108 -46.5zM1094 874q-61 0 -114.5 -40t-109.5 -113q111 -162 222 -162q64 0 106.5 46.5t42.5 111.5q0 67 -39.5 112t-107.5 45z" />
    <glyph glyph-name="integral" unicode="&#x222b;" horiz-adv-x="839" 
d="M209 -307q-85 0 -186 14v236q53 -15 96 -15q69 0 102 38.5t33 123.5v1253q0 207 91.5 302.5t283.5 95.5q93 0 188 -23v-227q-54 14 -96 14q-69 0 -103 -38t-34 -121v-1256q0 -208 -91 -302.5t-284 -94.5z" />
    <glyph glyph-name="approxequal" unicode="&#x2248;" horiz-adv-x="1187" 
d="M813 715q-62 0 -130 26.5t-117.5 57.5t-109 57.5t-106.5 26.5q-62 0 -120.5 -40.5t-98.5 -103.5l-94 217q55 81 141 137t182 56q64 0 133.5 -26.5t119.5 -57.5t109 -57.5t105 -26.5q59 0 117.5 37t93.5 92l113 -199q-54 -81 -146 -138.5t-192 -57.5zM819 285
q-63 0 -132 26.5t-119 57.5t-109.5 57.5t-106.5 26.5q-62 0 -121 -41t-100 -103l-94 215q54 82 139 138.5t180 56.5q64 0 134.5 -26.5t121.5 -57.5t111 -57.5t106 -26.5q62 0 124 41t100 102l98 -215q-54 -81 -143.5 -137.5t-188.5 -56.5z" />
    <glyph glyph-name="notequal" unicode="&#x2260;" horiz-adv-x="1187" 
d="M68 803v270h598l104 238h174l-104 -238h280v-270h-399l-76 -172h475v-271h-594l-108 -245h-174l108 245h-284v271h403l76 172h-479z" />
    <glyph glyph-name="lessequal" unicode="&#x2264;" horiz-adv-x="1187" 
d="M1044 621v-281l-915 385v289l915 387v-293l-583 -244zM1044 303v-270h-915v270h915z" />
    <glyph glyph-name="greaterequal" unicode="&#x2265;" horiz-adv-x="1187" 
d="M143 340v281l584 243l-584 244v293l916 -387v-289zM143 33v270h916v-270h-916z" />
    <glyph glyph-name="dotmath" unicode="&#x22c5;" horiz-adv-x="1187" 
d="M428 557v324h332v-324h-332z" />
    <glyph glyph-name="lozenge" unicode="&#x25ca;" horiz-adv-x="1351" 
d="M676 -23l-549 740l549 739l549 -739zM676 383l246 334l-246 327l-246 -327z" />
    <glyph glyph-name="uniF400" unicode="&#xf400;" horiz-adv-x="4" 
d="M-735 1221l147 309h340l-258 -309h-229z" />
    <glyph glyph-name="uniF401" unicode="&#xf401;" horiz-adv-x="4" 
d="M-864 1522l151 274h361l-262 -274h-250z" />
    <glyph glyph-name="uniF406" unicode="&#xf406;" 
d="M410 1511q-161 0 -268 71t-128 214h193q13 -61 63 -88t140 -27q92 0 141.5 27.5t62.5 87.5h191q-13 -97 -70 -162.5t-139 -94t-186 -28.5z" />
    <glyph glyph-name="uniF407" unicode="&#xf407;" 
d="M387 -455q-102 0 -180 60l51 108q50 -37 102 -37q39 0 62.5 19.5t23.5 52.5q0 34 -25 54t-71 20q-32 0 -61 -10l47 208h137l-22 -100q71 -3 116 -46t45 -124q0 -90 -61.5 -147.5t-163.5 -57.5z" />
    <glyph glyph-name="uniF408" unicode="&#xf408;" 
d="M23 1522l233 274h311l230 -274h-256l-129 166l-133 -166h-256z" />
    <glyph glyph-name="uniF409" unicode="&#xf409;" 
d="M180 -512l90 410h310l-152 -410h-248z" />
    <glyph glyph-name="uniF40A" unicode="&#xf40a;" 
d="M172 952l111 482h311l-174 -482h-248z" />
    <glyph glyph-name="uniF40B" unicode="&#xf40b;" 
d="M266 1516v274h287v-274h-287z" />
    <glyph glyph-name="uniF40C" unicode="&#xf40c;" 
d="M410 1460q-97 0 -161.5 62.5t-64.5 156.5q0 95 64.5 158.5t161.5 63.5t161 -63.5t64 -158.5q0 -94 -64 -156.5t-161 -62.5zM410 1569q46 0 77 32t31 78t-31.5 79.5t-76.5 33.5t-77 -33.5t-32 -79.5t31.5 -78t77.5 -32z" />
    <glyph glyph-name="uniF40D" unicode="&#xf40d;" 
d="M12 1524q6 110 72.5 184t175.5 74q55 0 156.5 -41t144.5 -41q26 0 51.5 18.5t32.5 63.5h162q-5 -115 -68 -186.5t-166 -71.5q-53 0 -159 36.5t-150 36.5q-77 0 -88 -73h-164z" />
    <glyph glyph-name="uniF40E" unicode="&#xf40e;" 
d="M373 -455q-99 0 -151 47.5t-52 131.5q0 170 250 311l139 -35q-115 -76 -162 -131t-47 -102q0 -34 20 -54t58 -20q46 0 96 26l33 -129q-88 -45 -184 -45z" />
    <glyph glyph-name="uniF410" unicode="&#xf410;" horiz-adv-x="4" 
d="M-752 1522l-262 274h336l127 -274h-201z" />
    <glyph glyph-name="uniF47E" unicode="&#xf47e;" horiz-adv-x="1474" 
d="M737 -23q-281 0 -437.5 146t-156.5 436v875h338v-826q0 -171 60.5 -262.5t195.5 -91.5q138 0 197 92.5t59 261.5v826h338v-875q0 -289 -157.5 -435.5t-436.5 -146.5zM594 1516v274h287v-274h-287z" />
    <glyph glyph-name="uniF47F" unicode="&#xf47f;" horiz-adv-x="1249" 
d="M1116 1069v-1069h-307v170h-4q-41 -58 -83.5 -97.5t-107 -67.5t-139.5 -28q-171 0 -270 120.5t-99 326.5v645h330v-551q0 -130 38 -191t118 -61q96 0 145 80.5t49 235.5v487h330zM449 1245v256h331v-256h-331z" />
    <glyph glyph-name="uniF4C6" unicode="&#xf4c6;" horiz-adv-x="1331" 
d="M588 498q-246 0 -369 101t-123 323v512h338v-443q0 -127 48.5 -177t172.5 -50q97 0 191 27v643h338v-1389q0 -238 -114.5 -361.5t-340.5 -123.5q-95 0 -237 32v275q73 -31 159 -31q195 0 195 297v397q-125 -32 -258 -32z" />
    <glyph glyph-name="uniF4C7" unicode="&#xf4c7;" horiz-adv-x="1157" 
d="M651 -459q-41 0 -137 17v252q54 -9 70 -9q61 0 85.5 42.5t24.5 129.5v396q-110 -21 -217 -21q-205 0 -297 84t-92 270v367h330v-311q0 -98 34.5 -134t125.5 -36q58 0 116 12v469h330v-1104q0 -222 -92 -323t-281 -101z" />
    <glyph glyph-name="uniF4C8" unicode="&#xf4c8;" horiz-adv-x="1290" 
d="M741 -455q-102 0 -180 60l51 108q50 -37 103 -37q39 0 62.5 19.5t23.5 52.5q0 34 -25 54t-71 20q-33 0 -62 -10l41 180q-196 32 -332 133.5t-201 251t-65 338.5q0 179 56.5 320.5t158.5 233t242 139.5t309 48q86 0 170.5 -14t125.5 -28l42 -15v-287q-62 27 -147.5 45.5
t-168.5 18.5q-200 0 -318 -118t-118 -345q0 -228 121.5 -342.5t329.5 -114.5q154 0 301 47v-280q-155 -46 -322 -46q-27 0 -51 3l-12 -60q71 -3 116.5 -46t45.5 -124q0 -90 -62 -147.5t-164 -57.5z" />
    <glyph glyph-name="uniF4C9" unicode="&#xf4c9;" horiz-adv-x="993" 
d="M539 -399q-90 0 -160 51l45 98q44 -35 90 -35q34 0 56 18t22 48q0 29 -22.5 46t-63.5 17q-28 0 -55 -8l36 158q-195 40 -303 180.5t-108 355.5q0 251 148.5 404t410.5 153q152 0 262 -32v-244q-121 33 -201 33q-142 0 -212 -75.5t-70 -233.5q0 -163 80.5 -237.5
t218.5 -74.5q85 0 190 37v-250q-153 -33 -262 -33q-6 0 -18 1.5t-17 1.5l-10 -50q62 -2 101.5 -39.5t39.5 -109.5q0 -79 -54 -129.5t-144 -50.5z" />
    <glyph glyph-name="uniF4CC" unicode="&#xf4cc;" horiz-adv-x="1269" 
d="M199 272q76 -28 133 -28q109 0 162 100l-478 1090h369l268 -697h6l236 697h358l-456 -1112q-76 -186 -169.5 -265.5t-244.5 -79.5q-96 0 -184 39v256zM522 1522l129 274h340l-239 -274h-230z" />
    <glyph glyph-name="uniF4CD" unicode="&#xf4cd;" horiz-adv-x="1126" 
d="M283 -461q-21 0 -44.5 2t-39 4.5t-41.5 6.5l-39 6v262q87 -10 102 -10q129 0 172 120l4 13l-381 1126h365l182 -709l197 709h350l-383 -1126q-73 -215 -175 -309.5t-269 -94.5zM457 1221l133 309h340l-268 -309h-205z" />
    <glyph glyph-name="zero.tab" unicode="&#xf4e0;" horiz-adv-x="1187" 
d="M594 -23q-125 0 -217.5 41t-159 128t-100 230t-33.5 341q0 199 33.5 341.5t100 229.5t158.5 127.5t216 40.5q126 0 219 -40.5t159.5 -127.5t100 -229.5t33.5 -341.5q0 -200 -34 -343.5t-101 -230t-159 -126.5t-216 -40zM594 233q62 0 98 40t56 147.5t20 296.5
q0 191 -20.5 298t-57 146t-98.5 39q-61 0 -96.5 -38.5t-55.5 -145.5t-20 -299q0 -191 20.5 -298.5t56.5 -146.5t97 -39z" />
    <glyph glyph-name="one.tab" unicode="&#xf4e1;" horiz-adv-x="1187" 
d="M102 266h404v805l-260 -186l-150 217l449 332h291v-1168h280v-266h-1014v266z" />
    <glyph glyph-name="two.tab" unicode="&#xf4e2;" horiz-adv-x="1187" 
d="M74 0v252q83 70 241 207q207 175 304.5 305.5t97.5 245.5q0 91 -58.5 140.5t-173.5 49.5q-91 0 -190.5 -27t-181.5 -71v270q220 84 409 84q259 0 398 -110t139 -310q0 -73 -23.5 -144t-60.5 -132t-105 -134.5t-133.5 -134t-169.5 -149.5q-26 -26 -84 -76h598v-266h-1007z
" />
    <glyph glyph-name="three.tab" unicode="&#xf4e3;" horiz-adv-x="1187" 
d="M481 -23q-235 0 -403 68v264q70 -37 169 -56.5t193 -19.5q145 0 227.5 55.5t82.5 149.5q0 178 -285 178h-189v236h187q132 0 194 47t62 129q0 172 -262 172q-178 0 -338 -65v260q165 61 379 61q278 0 418.5 -101t140.5 -274q0 -124 -75 -210.5t-214 -118.5v-4
q161 -26 243.5 -114t82.5 -218q0 -199 -170 -319t-443 -120z" />
    <glyph glyph-name="four.tab" unicode="&#xf4e4;" horiz-adv-x="1187" 
d="M682 0v274h-641v267l590 893h368v-904h140v-256h-140v-274h-317zM315 530h367v543h-8z" />
    <glyph glyph-name="five.tab" unicode="&#xf4e5;" horiz-adv-x="1187" 
d="M473 -23q-208 3 -369 54v266q183 -64 332 -64q154 0 241 61t87 171q0 61 -27.5 106.5t-77 71.5t-112 38.5t-139.5 12.5q-146 0 -277 -39q35 364 57 779h850v-267h-612l-16 -256q118 15 172 15q247 0 383.5 -114.5t136.5 -334.5q0 -232 -163.5 -366t-465.5 -134z" />
    <glyph glyph-name="six.tab" unicode="&#xf4e6;" horiz-adv-x="1187" 
d="M606 -23q-253 0 -388.5 184t-135.5 513q0 364 173.5 573t485.5 209q114 0 244 -39v-260q-29 12 -96 27.5t-135 15.5q-165 0 -251 -98t-97 -275h6q57 57 121.5 87t160.5 30q189 0 303.5 -123t114.5 -338q0 -227 -137 -366.5t-369 -139.5zM604 233q87 0 133.5 60.5
t46.5 167.5q0 112 -46 178t-132 66q-88 0 -137 -66t-49 -178q0 -106 48 -167t136 -61z" />
    <glyph glyph-name="seven.tab" unicode="&#xf4e7;" horiz-adv-x="1187" 
d="M162 0l583 1167h-698v267h1065v-250l-588 -1184h-362z" />
    <glyph glyph-name="eight.tab" unicode="&#xf4e8;" horiz-adv-x="1187" 
d="M596 -23q-244 0 -386 114.5t-142 289.5q0 123 74 219t206 141v4q-250 122 -250 347q0 167 130 265.5t364 98.5q226 0 353.5 -100t127.5 -262q0 -63 -22 -118.5t-59 -96t-74 -68t-80 -49.5v-2q282 -120 282 -373q0 -185 -138.5 -297.5t-385.5 -112.5zM600 231
q81 0 133.5 46.5t52.5 128.5q0 85 -57.5 140t-161.5 97q-80 -43 -123 -104t-43 -131q0 -84 58 -130.5t141 -46.5zM621 846q141 92 141 217q0 72 -46 105.5t-124 33.5t-130 -33.5t-52 -97.5q0 -129 211 -225z" />
    <glyph glyph-name="nine.tab" unicode="&#xf4e9;" horiz-adv-x="1187" 
d="M571 1456q252 0 393.5 -183t141.5 -497q0 -386 -150 -592.5t-464 -206.5q-163 0 -299 39v265q26 -10 118 -25.5t168 -15.5q83 0 141 24.5t91.5 74t49.5 113.5t21 154h-4q-56 -56 -122.5 -86.5t-161.5 -30.5q-189 0 -303.5 123t-114.5 338q0 230 131.5 368t363.5 138z
M580 1210q-87 0 -132 -63.5t-45 -173.5q0 -114 46.5 -179t132.5 -65q88 0 137 66t49 178q0 110 -50 173.5t-138 63.5z" />
    <glyph glyph-name="uni20B8.fitted" unicode="&#xf5fd;" horiz-adv-x="1187" 
d="M428 0v924h-356v184h1044v-184h-356v-924h-332zM72 1249v185h1044v-185h-1044z" />
    <glyph glyph-name="numbersign.fitted" unicode="&#xf5ff;" horiz-adv-x="1187" 
d="M156 0l51 373h-150v217h181l36 254h-157v217h188l51 373h234l-53 -373h208l54 373h233l-53 -373h151v-217h-180l-37 -254h158v-217h-188l-52 -373h-210l51 373h-232l-51 -373h-233zM471 590h209l37 254h-209z" />
    <glyph glyph-name="uniF643" unicode="&#xf643;" horiz-adv-x="1187" 
d="M596 -23q-518 0 -518 553q0 557 518 557q142 0 244 -42t160.5 -119.5t85 -175t26.5 -220.5q0 -553 -516 -553zM596 223q184 0 184 307q0 312 -184 312q-97 0 -142.5 -83t-45.5 -229q0 -144 45.5 -225.5t142.5 -81.5z" />
    <glyph glyph-name="uniF644" unicode="&#xf644;" horiz-adv-x="1187" 
d="M160 256h352v459l-223 -150l-148 211l414 293h287v-813h262v-256h-944v256z" />
    <glyph glyph-name="uniF645" unicode="&#xf645;" horiz-adv-x="1187" 
d="M88 0v242q249 122 385.5 205t190 143t53.5 121q0 58 -48 88t-157 30q-183 0 -375 -69l-6 250q232 77 467 77q242 0 358.5 -83.5t116.5 -225.5q0 -145 -123 -261t-405 -261h528v-256h-985z" />
    <glyph glyph-name="uniF646" unicode="&#xf646;" horiz-adv-x="1187" 
d="M457 -393q-215 0 -389 55v268q154 -67 360 -67q156 0 238 53t82 147q0 189 -351 189h-116v223h108q338 0 338 191q0 165 -268 165q-212 0 -361 -69v258q181 67 408 67q280 0 411.5 -96t131.5 -260q0 -125 -78 -217t-219 -133v-4q160 -29 242.5 -119t82.5 -221
q0 -193 -171 -311.5t-449 -118.5z" />
    <glyph glyph-name="uniF647" unicode="&#xf647;" horiz-adv-x="1187" 
d="M676 -375v375h-658v258l576 811h412v-813h149v-256h-149v-375h-330zM309 256h367v510h-6z" />
    <glyph glyph-name="uniF648" unicode="&#xf648;" horiz-adv-x="1187" 
d="M485 -393q-220 0 -385 53v272q170 -69 353 -69q323 0 323 235q0 118 -78 180t-237 62q-176 0 -336 -55l53 784h846v-256h-608l-19 -262q82 14 172 14q266 0 400.5 -116t134.5 -343q0 -230 -165 -365t-454 -134z" />
    <glyph glyph-name="uniF649" unicode="&#xf649;" horiz-adv-x="1187" 
d="M606 -23q-253 0 -388.5 184t-135.5 513q0 364 173.5 573t485.5 209q114 0 244 -39v-260q-29 12 -96 27.5t-135 15.5q-165 0 -251 -98t-97 -275h6q57 57 121.5 87t160.5 30q189 0 303.5 -123t114.5 -338q0 -227 -137 -366.5t-369 -139.5zM604 233q87 0 133.5 60.5
t46.5 167.5q0 112 -46 178t-132 66q-88 0 -137 -66t-49 -178q0 -106 48 -167t136 -61z" />
    <glyph glyph-name="uniF64A" unicode="&#xf64a;" horiz-adv-x="1187" 
d="M180 -375l572 1188h-682v256h1028v-233l-570 -1211h-348z" />
    <glyph glyph-name="uniF64B" unicode="&#xf64b;" horiz-adv-x="1187" 
d="M596 -23q-244 0 -386 114.5t-142 289.5q0 123 74 219t206 141v4q-250 122 -250 347q0 167 130 265.5t364 98.5q226 0 353.5 -100t127.5 -262q0 -63 -22 -118.5t-59 -96t-74 -68t-80 -49.5v-2q282 -120 282 -373q0 -185 -138.5 -297.5t-385.5 -112.5zM600 231
q81 0 133.5 46.5t52.5 128.5q0 85 -57.5 140t-161.5 97q-80 -43 -123 -104t-43 -131q0 -84 58 -130.5t141 -46.5zM621 846q141 92 141 217q0 72 -46 105.5t-124 33.5t-130 -33.5t-52 -97.5q0 -129 211 -225z" />
    <glyph glyph-name="uniF64C" unicode="&#xf64c;" horiz-adv-x="1187" 
d="M571 1085q252 0 393.5 -182.5t141.5 -496.5q0 -386 -150 -592.5t-464 -206.5q-163 0 -299 39v264q26 -10 118 -25.5t168 -15.5q83 0 141 24.5t91.5 74.5t49.5 114t21 154h-4q-56 -56 -122.5 -86.5t-161.5 -30.5q-189 0 -303.5 123t-114.5 338q0 230 131.5 367.5
t363.5 137.5zM580 840q-87 0 -132 -64t-45 -174q0 -114 46.5 -179t132.5 -65q88 0 137 66t49 178q0 110 -50 174t-138 64z" />
    <glyph glyph-name="uniF6BA" unicode="&#xf6ba;" 
d="M106 621v245h609v-245h-609z" />
    <glyph glyph-name="uniF6BB" unicode="&#xf6bb;" horiz-adv-x="1351" 
d="M106 621v245h1141v-245h-1141z" />
    <glyph glyph-name="uniF6BC" unicode="&#xf6bc;" horiz-adv-x="1843" 
d="M106 621v245h1633v-245h-1633z" />
    <glyph glyph-name="uniF6C3" unicode="&#xf6c3;" horiz-adv-x="0" 
d="M106 -492l93 390h297l-154 -390h-236z" />
    <glyph glyph-name="uniF6C9" unicode="&#xf6c9;" 
d="M297 1522l129 274h340l-240 -274h-229z" />
    <glyph glyph-name="uniF6CA" unicode="&#xf6ca;" 
d="M252 1522l-229 274h264l121 -170l124 170h265l-234 -274h-311z" />
    <glyph glyph-name="uniF6CB" unicode="&#xf6cb;" 
d="M33 1522v260h278v-260h-278zM508 1522v260h280v-260h-280z" />
    <glyph glyph-name="uniF6CC" unicode="&#xf6cc;" 
d="M303 1761l143 295h304l-263 -295h-184zM8 1522v262h256v-262h-256zM557 1522v262h254v-262h-254z" />
    <glyph glyph-name="uniF6CE" unicode="&#xf6ce;" 
d="M330 1522l-262 274h335l127 -274h-200z" />
    <glyph glyph-name="uniF6CF" unicode="&#xf6cf;" 
d="M518 1522l148 274h319l-266 -274h-201zM66 1522l147 274h319l-266 -274h-200z" />
    <glyph glyph-name="uniF6D0" unicode="&#xf6d0;" 
d="M68 1587v164h686v-164h-686z" />
    <glyph glyph-name="uniF6D1" unicode="&#xf6d1;" 
d="M410 1495q-161 0 -259.5 83t-107.5 247h225q10 -129 142 -129q131 0 141 129h225q-9 -164 -107 -247t-259 -83z" />
    <glyph glyph-name="uniF6D4" unicode="&#xf6d4;" 
d="M412 1212q-149 0 -244.5 79t-101.5 233h213q6 -58 37.5 -87.5t95.5 -29.5q62 0 92.5 29.5t36.5 87.5h213q-6 -155 -99.5 -233.5t-242.5 -78.5z" />
    <glyph glyph-name="uniF6D7" unicode="&#xf6d7;" 
d="M-35 1249v252h264v-252h-264zM590 1249v252h264v-252h-264zM266 1452l146 293h338l-256 -293h-228z" />
    <glyph glyph-name="uniF6DE" unicode="&#xf6de;" horiz-adv-x="1413" 
d="M92 496v235h1229v-235h-1229z" />
    <glyph glyph-name="commainferior" unicode="&#xf6e1;" 
d="M186 -492l93 390h296l-153 -390h-236z" />
    <glyph glyph-name="commasuperior" unicode="&#xf6e2;" 
d="M229 1135l86 401h271l-148 -401h-209z" />
    <glyph glyph-name="zerooldstyle" unicode="&#xf730;" horiz-adv-x="1269" 
d="M623 -23q-114 0 -203.5 28t-149 76.5t-98 119t-55.5 151.5t-17 178q0 123 28 220.5t88.5 175t167 119.5t253.5 42q146 0 251.5 -42t165.5 -119.5t87.5 -175t27.5 -220.5q0 -553 -546 -553zM637 223q203 0 203 307q0 312 -203 312q-207 0 -207 -312q0 -307 207 -307z" />
    <glyph glyph-name="oneoldstyle" unicode="&#xf731;" horiz-adv-x="808" 
d="M330 0v690l-178 -137l-148 219l369 297h286v-1069h-329z" />
    <glyph glyph-name="twooldstyle" unicode="&#xf732;" horiz-adv-x="1085" 
d="M76 0v242q316 176 435.5 280.5t119.5 192.5q0 114 -170 114q-81 0 -173 -19.5t-161 -47.5l-6 252q202 73 420 73q229 0 337.5 -84t108.5 -221q0 -63 -23.5 -120t-62 -105t-105.5 -101t-136.5 -97t-172.5 -103h504v-256h-915z" />
    <glyph glyph-name="threeoldstyle" unicode="&#xf733;" horiz-adv-x="1054" 
d="M393 -393q-204 0 -356 53v262q132 -59 321 -59q149 0 224 54.5t75 148.5q0 186 -307 186h-92v223h82q293 0 293 187q0 169 -238 169q-172 0 -321 -69v258q181 67 372 67q262 0 385 -96.5t123 -259.5q0 -126 -76.5 -217.5t-215.5 -132.5v-4q157 -29 239 -117.5t82 -224.5
q0 -187 -164 -307.5t-426 -120.5z" />
    <glyph glyph-name="fouroldstyle" unicode="&#xf734;" horiz-adv-x="1167" 
d="M659 -375v375h-636v258l557 811h409v-813h146v-256h-146v-375h-330zM305 256h354v508h-4z" />
    <glyph glyph-name="fiveoldstyle" unicode="&#xf735;" horiz-adv-x="1126" 
d="M453 -393q-202 0 -367 49v276q169 -69 340 -69q309 0 309 237q0 238 -301 238q-166 0 -315 -53q7 130 26.5 392t26.5 392h805v-256h-567l-19 -264q96 14 158 14q248 0 381 -117.5t133 -339.5q0 -224 -161 -362t-449 -137z" />
    <glyph glyph-name="sixoldstyle" unicode="&#xf736;" horiz-adv-x="1228" 
d="M623 -23q-255 0 -393 183t-138 514q0 373 177.5 577.5t506.5 204.5q113 0 236 -35v-262q-27 12 -98.5 26.5t-145.5 14.5q-170 0 -257 -98.5t-95 -274.5h4q124 117 293 117q192 0 309 -123.5t117 -341.5q0 -221 -139.5 -361.5t-376.5 -140.5zM623 233q90 0 139 61.5
t49 168.5q0 111 -49 176.5t-139 65.5q-91 0 -142 -65t-51 -177q0 -107 50 -168.5t143 -61.5z" />
    <glyph glyph-name="sevenoldstyle" unicode="&#xf737;" horiz-adv-x="1064" 
d="M147 -375l519 1188h-611v256h942v-252l-505 -1192h-345z" />
    <glyph glyph-name="eightoldstyle" unicode="&#xf738;" horiz-adv-x="1228" 
d="M616 -23q-254 0 -400 113t-146 289q0 124 78 220t217 142v4q-256 123 -256 338q0 170 132.5 271.5t370.5 101.5q232 0 363 -99.5t131 -262.5q0 -63 -22.5 -118.5t-60.5 -96t-76.5 -68t-82.5 -49.5v-2q295 -117 295 -373q0 -185 -143.5 -297.5t-399.5 -112.5zM621 231
q88 0 145 45t57 127q0 87 -61.5 142.5t-171.5 97.5q-88 -42 -136 -105.5t-48 -134.5q0 -82 62 -127t153 -45zM641 846q152 93 152 221q0 70 -49.5 102.5t-131.5 32.5t-137 -34.5t-55 -98.5q0 -126 221 -223z" />
    <glyph glyph-name="nineoldstyle" unicode="&#xf739;" horiz-adv-x="1228" 
d="M588 1085q255 0 395.5 -178t140.5 -499q0 -801 -624 -801q-161 0 -297 39v264q23 -12 112 -29.5t168 -17.5q84 0 144 25t96.5 75.5t54.5 116.5t23 156h-4q-121 -117 -291 -117q-194 0 -311 123.5t-117 341.5q0 227 136.5 364t373.5 137zM592 840q-90 0 -138 -64t-48 -174
q0 -114 48.5 -179t139.5 -65t141.5 65t50.5 179q0 110 -50.5 174t-143.5 64z" />
    <glyph glyph-name="uniFEFF" unicode="&#xfeff;" horiz-adv-x="0" 
 />
    <glyph glyph-name="uni058F.fitted" horiz-adv-x="1187" 
d="M377 530v185h258v260q0 124 -32 176.5t-97 52.5q-133 0 -133 -209v-73h-330v73q0 234 123 347.5t342 113.5q465 0 465 -452v-289h147v-185h-147v-122h147v-185h-147v-223h-338v223h-258v185h258v122h-258z" />
    <glyph glyph-name="franc.fitted" horiz-adv-x="1187" 
d="M188 0v223h-135v185h135v1026h891v-277h-561v-278h524v-277h-524v-194h287v-185h-287v-223h-330z" />
    <glyph glyph-name="uni20BE.fitted" horiz-adv-x="1187" 
d="M459 717v446q-90 -98 -90 -397q0 -261 106 -380.5t330 -119.5h223v-266h-922v266h187q-99 83 -159 219.5t-60 305.5q0 255 97 427t286 220v200h106v-184q12 2 39 2q4 0 12.5 -1t12.5 -1v184h106v-198q128 -32 211.5 -132.5t120.5 -247.5t37 -343h-275q0 338 -96 442v-442
h-98v497q-30 5 -41 5q-10 0 -35 -5v-497h-98z" />
    <glyph glyph-name="uni20BC.fitted" horiz-adv-x="1187" 
d="M25 0q0 296 28.5 514t86 357.5t135 216.5t182.5 106v240h274v-240q105 -29 182.5 -106t135 -216.5t86 -357.5t28.5 -514h-321q0 421 -25.5 639.5t-85.5 345.5v-985h-274v985q-61 -126 -86 -343.5t-25 -641.5h-321z" />
    <glyph glyph-name="uniF6C3" 
d="M106 -492l93 390h297l-154 -390h-236z" />
    <glyph glyph-name="caron.Slovak" 
d="M207 1167l90 377h289l-166 -377h-213z" />
    <glyph glyph-name="uniF6C3.cap" 
d="M180 -512l90 410h310l-152 -410h-248z" />
    <glyph glyph-name="dotaccent.cap" 
d="M266 1516v274h287v-274h-287z" />
    <glyph glyph-name="dieresis.cap" 
d="M33 1522v260h278v-260h-278zM508 1522v260h280v-260h-280z" />
    <glyph glyph-name="grave.cap" 
d="M330 1522l-262 274h335l127 -274h-200z" />
    <glyph glyph-name="acute.cap" 
d="M297 1522l129 274h340l-240 -274h-229z" />
    <glyph glyph-name="hungarumlaut.cap" 
d="M518 1522l148 274h319l-266 -274h-201zM66 1522l147 274h319l-266 -274h-200z" />
    <glyph glyph-name="circumflex.cap" 
d="M23 1522l233 274h311l230 -274h-256l-129 166l-133 -166h-256z" />
    <glyph glyph-name="caron.cap" 
d="M252 1522l-229 274h264l121 -170l124 170h265l-234 -274h-311z" />
    <glyph glyph-name="breve.cap" 
d="M410 1511q-161 0 -268 71t-128 214h193q13 -61 63 -88t140 -27q92 0 141.5 27.5t62.5 87.5h191q-13 -97 -70 -162.5t-139 -94t-186 -28.5z" />
    <glyph glyph-name="ring.cap" 
d="M410 1460q-97 0 -161.5 62.5t-64.5 156.5q0 95 64.5 158.5t161.5 63.5t161 -63.5t64 -158.5q0 -94 -64 -156.5t-161 -62.5zM410 1569q46 0 77 32t31 78t-31.5 79.5t-76.5 33.5t-77 -33.5t-32 -79.5t31.5 -78t77.5 -32z" />
    <glyph glyph-name="tilde.cap" 
d="M12 1524q6 110 72.5 184t175.5 74q55 0 156.5 -41t144.5 -41q26 0 51.5 18.5t32.5 63.5h162q-5 -115 -68 -186.5t-166 -71.5q-53 0 -159 36.5t-150 36.5q-77 0 -88 -73h-164z" />
    <glyph glyph-name="macron.cap" 
d="M68 1587v164h686v-164h-686z" />
    <glyph glyph-name="dieresis.narrow" 
d="M455 1249v252h227v-252h-227zM137 1249v252h228v-252h-228z" />
    <glyph glyph-name="circumflex.narrow" 
d="M98 1221l170 309h289l164 -309h-217l-92 180l-95 -180h-219z" />
    <glyph glyph-name="caron.narrow" 
d="M260 1221l-162 309h219l91 -180l96 180h217l-168 -309h-293z" />
    <glyph glyph-name="macron.narrow" 
d="M137 1296v162h547v-162h-547z" />
    <glyph glyph-name="dieresis.cap.narrow" 
d="M94 1522v260h258v-260h-258zM467 1522v260h258v-260h-258z" />
    <glyph glyph-name="circumflex.cap.narrow" 
d="M78 1522l178 274h311l174 -274h-243l-86 149l-90 -149h-244z" />
    <glyph glyph-name="caron.cap.narrow" 
d="M252 1522l-189 274h244l101 -149l104 149h244l-193 -274h-311z" />
    <glyph glyph-name="macron.cap.narrow" 
d="M129 1587v164h563v-164h-563z" />
    <glyph glyph-name="commaturn" 
d="M285 1210l166 396h233l-80 -396h-319z" />
    <glyph glyph-name="cyrdieresis.cap" 
d="M33 1522v262h278v-262h-278zM508 1522v262h280v-262h-280z" />
    <glyph glyph-name="cyrdieresis" 
d="M57 1245v252h265v-252h-265zM500 1245v252h264v-252h-264z" />
    <glyph glyph-name="cyrdieresis.narrow" 
d="M152 1249v252h215v-252h-215zM453 1249v252h215v-252h-215z" />
    <glyph glyph-name="cyrdieresis.cap.narrow" 
d="M115 1522v262h243v-262h-243zM461 1522v262h246v-262h-246z" />
    </font>
</defs>
</svg>
