<?xml version="1.0" standalone="no"?>
<!DOCTYPE svg PUBLIC "-//W3C//DTD SVG 1.1//EN" "http://www.w3.org/Graphics/SVG/1.1/DTD/svg11.dtd" >
<svg xmlns="http://www.w3.org/2000/svg" xmlns:xlink="http://www.w3.org/1999/xlink" version="1.1">
<metadata>
Created by FontForge 20170731 at Mon Apr 24 14:02:21 2023
 By Aleksey,,,
Copyright (c) 1992 ParaType Inc., ParaType Ltd. All rights reserved.
</metadata>
<defs>
<font id="VTBGroupUI-Light" horiz-adv-x="819" >
  <font-face 
    font-family="VTB Group UI Light"
    font-weight="300"
    font-stretch="normal"
    units-per-em="2048"
    panose-1="2 11 4 3 4 5 4 2 2 4"
    ascent="1583"
    descent="-465"
    x-height="1051"
    cap-height="1434"
    bbox="-963 -467 2550 1974"
    underline-thickness="102"
    underline-position="-307"
    unicode-range="U+0020-FEFF"
  />
<missing-glyph horiz-adv-x="471" 
 />
    <glyph glyph-name="IJ" unicode="IJ" horiz-adv-x="1331" 
d="M250 0v1434h135v-1434h-135zM803 -16q-115 0 -207 36v123q101 -39 197 -39q99 0 148.5 60.5t49.5 193.5v1076h135v-1080q0 -187 -84 -278.5t-239 -91.5z" />
    <glyph glyph-name="ij" unicode="ij" horiz-adv-x="1187" 
d="M233 0v1051h129v-1051h-129zM721 -459q-59 0 -117 17v104q40 -12 94 -12q28 0 47.5 5.5t40 22t31 53.5t10.5 93v1227h129v-1215q0 -41 -3 -73.5t-16.5 -76.5t-37 -73.5t-69.5 -50.5t-109 -21zM227 1311v164h142v-164h-142zM821 1311v164h142v-164h-142z" />
    <glyph glyph-name="uni0410.var.accented" unicode="&#x410;`" horiz-adv-x="1413" 
d="M78 0l540 1434h177l540 -1434h-147l-146 393h-675l-146 -393h-143zM705 1298l-295 -788h589l-290 788h-4zM653 1550l123 252h193l-213 -252h-103z" />
    <glyph glyph-name="uni0415.var.accented" unicode="&#x415;`" horiz-adv-x="1105" 
d="M209 0v1434h766v-117h-631v-518h592v-117h-592v-565h651v-117h-786zM545 1550l123 252h192l-213 -252h-102z" />
    <glyph glyph-name="uni0418.var.accented" unicode="&#x418;`" horiz-adv-x="1515" 
d="M209 0v1434h135v-1078l-4 -155h6l76 127l731 1106h154v-1434h-136v1077l5 156h-7l-67 -117l-740 -1116h-153zM705 1550l122 252h193l-213 -252h-102z" />
    <glyph glyph-name="uni041E.var.accented" unicode="&#x41e;`" horiz-adv-x="1536" 
d="M768 -16q-138 0 -255.5 48.5t-205.5 139t-138 230.5t-50 313q0 117 25 224.5t77.5 200.5t128 162t183 108.5t235.5 39.5t235.5 -39.5t183 -108.5t128 -162t77.5 -200.5t25 -224.5q0 -173 -50 -313t-138 -230.5t-205.5 -139t-255.5 -48.5zM768 100q77 0 148.5 22t136.5 71
t113.5 119.5t77 174t28.5 228.5t-28.5 229t-77 175t-113.5 120t-136.5 71.5t-148.5 22.5t-148.5 -22.5t-136.5 -71.5t-113.5 -120t-77 -175t-28.5 -229t28.5 -228.5t77 -174t113.5 -119.5t136.5 -71t148.5 -22zM715 1550l123 252h192l-213 -252h-102z" />
    <glyph glyph-name="uni0423.var.accented" unicode="&#x423;`" horiz-adv-x="1269" 
d="M276 137q86 -28 130 -28q53 0 88.5 41.5t85.5 152.5l-519 1131h150l434 -961h8l410 961h145l-516 -1207q-46 -109 -73 -147q-70 -96 -203 -96q-75 0 -140 24v129zM582 1550l123 252h192l-213 -252h-102z" />
    <glyph glyph-name="uni042B.var.accented" unicode="&#x42b;`" horiz-adv-x="1792" 
d="M209 0v1434h135v-574h291q209 0 338 -121.5t129 -308.5t-129 -308.5t-338 -121.5h-426zM344 117h291q148 0 234.5 84.5t86.5 226.5q0 145 -86 230t-235 85h-291v-626zM1448 0v1434h135v-1434h-135zM844 1550l123 252h192l-213 -252h-102z" />
    <glyph glyph-name="uni042D.var.accented" unicode="&#x42d;`" horiz-adv-x="1310" 
d="M492 100q255 0 399.5 150t157.5 430h-727v117h727q-17 252 -164 394t-379 142q-111 0 -201.5 -26t-185.5 -76v133q176 86 387 86q204 0 360 -89t241 -251t85 -373q0 -226 -85.5 -397t-243.5 -263.5t-367 -92.5q-210 0 -359 57v133q97 -41 173.5 -57.5t181.5 -16.5z
M500 1550l123 252h192l-213 -252h-102z" />
    <glyph glyph-name="uni042E.var.accented" unicode="&#x42e;`" horiz-adv-x="2037" 
d="M1270 -16q-128 0 -235.5 40t-181 107.5t-125.5 158.5t-77 190t-28 204h-279v-684h-135v1434h135v-633h281q25 300 199 474.5t446 174.5q128 0 236 -39.5t183 -108.5t127.5 -162t77.5 -200.5t25 -224.5q0 -173 -50 -313t-138 -230.5t-205.5 -139t-255.5 -48.5zM1270 100
q77 0 148.5 22t136.5 71t113.5 119.5t77 174t28.5 228.5t-28.5 229t-77 175t-113.5 120t-136.5 71.5t-148.5 22.5q-95 0 -182.5 -37t-160 -109.5t-116 -194.5t-43.5 -277q0 -125 28.5 -228.5t76.5 -174t113 -119.5t136.5 -71t147.5 -22zM885 1550l123 252h192l-213 -252
h-102z" />
    <glyph glyph-name="uni042F.var.accented" unicode="&#x42f;`" horiz-adv-x="1290" 
d="M80 0l328 592q-250 98 -250 401q0 210 127 325.5t362 115.5h434v-1434h-135v553h-299q-53 0 -102 6l-299 -559h-166zM647 670h299v647h-299q-344 0 -344 -324q0 -164 86 -243.5t258 -79.5zM598 1550l123 252h192l-213 -252h-102z" />
    <glyph glyph-name="uni0401.var.accented" unicode="&#x401;`" horiz-adv-x="1105" 
d="M209 0v1434h766v-117h-631v-518h592v-117h-592v-565h651v-117h-786zM526 1729l144 245h184l-217 -245h-111zM293 1565v164h141v-164h-141zM762 1565v164h141v-164h-141z" />
    <glyph glyph-name="uni0430.var.accented" unicode="&#x430;`" horiz-adv-x="1142" 
d="M426 -16q-159 0 -246.5 88t-87.5 217q0 335 588 352l145 4v27q0 157 -71.5 220.5t-229.5 63.5q-196 0 -348 -67v119q167 59 352 59q212 0 319 -94t107 -301v-672h-125v166h-8q-141 -182 -395 -182zM463 92q165 0 263.5 100t98.5 259v86l-145 -5q-168 -5 -270.5 -37.5
t-142.5 -82t-40 -121.5q0 -92 61 -145.5t175 -53.5zM494 1249l184 267h192l-274 -267h-102z" />
    <glyph glyph-name="uni0435.var.accented" unicode="&#x435;`" horiz-adv-x="1177" 
d="M1061 487h-813q12 -187 118.5 -291t301.5 -104q169 0 317 68v-119q-148 -57 -321 -57q-256 0 -400.5 145.5t-144.5 413.5q0 243 136 383.5t355 140.5q451 0 451 -539v-41zM610 958q-154 0 -250.5 -96.5t-109.5 -265.5h676q1 23 -0.5 47t-8.5 61t-19.5 70t-36.5 67.5
t-56.5 59.5t-82.5 41t-112 16zM545 1249l184 267h193l-275 -267h-102z" />
    <glyph glyph-name="uni0438.var.accented" unicode="&#x438;`" horiz-adv-x="1259" 
d="M188 0v1051h129l-2 -881h7l606 881h143v-1051h-129l2 881h-6l-606 -881h-144zM580 1249l184 267h192l-274 -267h-102z" />
    <glyph glyph-name="uni043E.var.accented" unicode="&#x43e;`" horiz-adv-x="1269" 
d="M635 -16q-232 0 -374 148t-142 392q0 246 141.5 394.5t374.5 148.5t374.5 -148.5t141.5 -394.5q0 -244 -142 -392t-374 -148zM635 92q77 0 141.5 25.5t108 68t73.5 99t44 116.5t14 123t-14 124t-44 117.5t-73.5 99t-108 68t-141.5 25.5t-141.5 -25.5t-108 -68t-73.5 -99
t-44 -117.5t-14 -124t14 -123t44 -116.5t73.5 -99t108 -68t141.5 -25.5zM584 1249l184 267h193l-275 -267h-102z" />
    <glyph glyph-name="uni0443.var.accented" unicode="&#x443;`" horiz-adv-x="1126" 
d="M295 -451q-16 0 -33.5 2t-32 4.5t-26 5.5t-18.5 5l-7 2v117q48 -19 101 -19q49 0 81 27.5t64 107.5l70 170l-435 1080h140l362 -906h8l361 906h137l-518 -1274q-21 -52 -40.5 -87.5t-49.5 -70.5t-71 -52.5t-93 -17.5zM502 1249l184 267h193l-275 -267h-102z" />
    <glyph glyph-name="uni044B.var.accented" unicode="&#x44b;`" horiz-adv-x="1587" 
d="M188 0v1051h129v-375h269q409 0 409 -338t-409 -338h-398zM317 109h269q274 0 274 229t-274 229h-269v-458zM1270 0v1051h129v-1051h-129zM743 1249l185 267h192l-274 -267h-103z" />
    <glyph glyph-name="uni044D.var.accented" unicode="&#x44d;`" horiz-adv-x="1024" 
d="M379 92q183 0 281 98.5t110 286.5h-489v109h489q-13 180 -114 276t-265 96q-121 0 -256 -59v119q84 28 138 38.5t118 10.5q240 0 377 -140.5t137 -387.5q0 -261 -137 -408t-393 -147q-140 0 -248 41v114q126 -47 252 -47zM467 1249l184 267h193l-275 -267h-102z" />
    <glyph glyph-name="uni044E.var.accented" unicode="&#x44e;`" horiz-adv-x="1716" 
d="M188 0v1051h129v-457h287q20 217 152 345t344 128q226 0 361.5 -148.5t135.5 -394.5q0 -244 -136.5 -392t-360.5 -148q-218 0 -352 135t-146 362h-285v-481h-129zM1100 92q91 0 163 38.5t114 102t63.5 138t21.5 153.5q0 63 -13 124t-41.5 117.5t-70 99t-102.5 68
t-135 25.5q-94 0 -166.5 -38.5t-114 -102.5t-62 -138t-20.5 -155q0 -80 20.5 -154t62 -137.5t114 -102t166.5 -38.5zM805 1249l184 267h193l-275 -267h-102z" />
    <glyph glyph-name="uni044F.var.accented" unicode="&#x44f;`" horiz-adv-x="1146" 
d="M94 0l250 430q-209 69 -209 297q0 156 97 240t292 84h434v-1051h-129v403h-305q-25 0 -49 3l-225 -406h-156zM524 512h305v430h-305q-127 0 -190.5 -56t-63.5 -159t63.5 -159t190.5 -56zM528 1249l185 267h192l-274 -267h-103z" />
    <glyph glyph-name="uni0451.var.accented" unicode="&#x451;`" horiz-adv-x="1177" 
d="M1061 487h-813q12 -187 118.5 -291t301.5 -104q169 0 317 68v-119q-148 -57 -321 -57q-256 0 -400.5 145.5t-144.5 413.5q0 243 136 383.5t355 140.5q451 0 451 -539v-41zM610 958q-154 0 -250.5 -96.5t-109.5 -265.5h676q1 23 -0.5 47t-8.5 61t-19.5 70t-36.5 67.5
t-56.5 59.5t-82.5 41t-112 16zM301 1311v164h141v-164h-141zM750 1311v164h141v-164h-141zM528 1434l166 274h172l-235 -274h-103z" />
    <glyph glyph-name="fi" unicode="fi" horiz-adv-x="1320" 
d="M45 942v109h221v215q0 147 88 224t240 77q61 0 121 -13v-106q-58 10 -103 10q-99 0 -158 -46t-59 -148v-213h305v-109h-305v-942h-129v942h-221zM961 0v1051h129v-1051h-129zM954 1311v164h142v-164h-142z" />
    <glyph glyph-name="fl" unicode="fl" horiz-adv-x="1320" 
d="M45 942v109h221v215q0 147 88 224t240 77q61 0 121 -13v-106q-58 10 -103 10q-99 0 -158 -46t-59 -148v-213h305v-109h-305v-942h-129v942h-221zM961 0v1561h129v-1561h-129z" />
    <glyph glyph-name=".notdef" horiz-adv-x="471" 
 />
    <glyph glyph-name=".null" horiz-adv-x="0" 
 />
    <glyph glyph-name="nonmarkingreturn" horiz-adv-x="682" 
 />
    <glyph glyph-name="space" unicode=" " horiz-adv-x="471" 
 />
    <glyph glyph-name="exclam" unicode="!" horiz-adv-x="737" 
d="M309 358l-24 1076h168l-25 -1076h-119zM285 0v176h168v-176h-168z" />
    <glyph glyph-name="quotedbl" unicode="&#x22;" horiz-adv-x="962" 
d="M285 983v451h114v-451h-114zM561 983v451h115v-451h-115z" />
    <glyph glyph-name="numbersign" unicode="#" horiz-adv-x="1187" 
d="M209 0l59 424h-186v117h203l51 354h-197v117h213l60 422h127l-60 -422h314l59 422h127l-59 -422h186v-117h-203l-51 -354h197v-117h-213l-60 -424h-127l60 424h-314l-59 -424h-127zM412 541h313l51 354h-313z" />
    <glyph glyph-name="dollar" unicode="$" horiz-adv-x="1187" 
d="M528 -205v189q-207 7 -374 67v139q167 -79 376 -88v586q-96 33 -163 67t-121.5 81.5t-81.5 111.5t-27 146q0 151 104 244t302 108v192h110v-188q159 -6 308 -55v-135q-160 65 -308 73v-545q60 -23 95 -38t86 -40.5t81 -47.5t65.5 -55.5t54 -69t31.5 -83t13 -102.5
q0 -163 -119.5 -256.5t-320.5 -107.5v-193h-111zM934 354q0 47 -15 86t-36.5 65.5t-64 54t-78.5 45t-99 44.5v-545q58 6 107.5 21t93 43.5t68 75.5t24.5 110zM283 1098q0 -94 65.5 -158.5t194.5 -112.5v504q-130 -13 -195 -74t-65 -159z" />
    <glyph glyph-name="percent" unicode="%" horiz-adv-x="1843" 
d="M358 0l1000 1434h127l-1000 -1434h-127zM451 754q-140 0 -229 94.5t-89 253.5t89 253.5t229 94.5t228.5 -94.5t88.5 -253.5t-88.5 -253.5t-228.5 -94.5zM451 858q95 0 149.5 62.5t54.5 181.5q0 120 -54.5 183t-149.5 63t-150 -63t-55 -183q0 -119 55 -181.5t150 -62.5z
M1393 -16q-140 0 -229 94.5t-89 253.5t89 253.5t229 94.5t228.5 -94.5t88.5 -253.5t-88.5 -253.5t-228.5 -94.5zM1393 88q95 0 149.5 62.5t54.5 181.5q0 120 -54.5 183t-149.5 63t-150 -63t-55 -183q0 -119 55 -181.5t150 -62.5z" />
    <glyph glyph-name="ampersand" unicode="&#x26;" horiz-adv-x="1515" 
d="M643 -16q-122 0 -218.5 30.5t-157.5 83t-92.5 121.5t-31.5 148q0 34 6 68t25.5 81t52 88.5t92 86t138.5 77.5q-104 99 -152.5 181t-48.5 181q0 155 110 237.5t275 82.5t275 -80.5t110 -228.5q0 -128 -95.5 -229t-260.5 -173q255 -214 456 -411q129 173 144 446h123
q-22 -325 -183 -534q86 -86 226 -240h-170q-11 12 -62.5 68t-77.5 84q-189 -168 -483 -168zM1044 238q-58 58 -114 111.5t-119 109.5t-92.5 82t-101 87.5t-78.5 67.5q-68 -28 -118 -67.5t-74.5 -74.5t-38.5 -75.5t-16.5 -61.5t-2.5 -42q0 -129 104.5 -202t268.5 -73
q225 0 382 138zM379 1135q0 -76 50 -150.5t159 -173.5q148 56 231.5 148.5t83.5 181.5q0 85 -72 138.5t-190 53.5q-115 0 -188.5 -52t-73.5 -146z" />
    <glyph glyph-name="quotesingle" unicode="'" horiz-adv-x="573" 
d="M229 983v451h115v-451h-115z" />
    <glyph glyph-name="parenleft" unicode="(" horiz-adv-x="716" 
d="M475 -283q-332 502 -332 885q0 157 44.5 320t114.5 305t179 317h117q-309 -512 -309 -936q0 -41 5 -91t22.5 -138.5t46.5 -182.5t84 -222t128 -257h-100z" />
    <glyph glyph-name="parenright" unicode=")" horiz-adv-x="716" 
d="M141 -283q90 159 152 312t88.5 267t36.5 185.5t10 122.5q0 428 -309 940h117q165 -265 251 -488t86 -448q0 -391 -331 -891h-101z" />
    <glyph glyph-name="asterisk" unicode="*" horiz-adv-x="1126" 
d="M371 655l-105 72l221 272l-333 82l43 133l321 -122l-18 342h137l-19 -342l314 118l41 -129l-328 -82l213 -270l-113 -74l-182 289z" />
    <glyph glyph-name="plus" unicode="+" horiz-adv-x="1187" 
d="M537 225v434h-435v115h435v434h114v-434h434v-115h-434v-434h-114z" />
    <glyph glyph-name="comma" unicode="," horiz-adv-x="573" 
d="M106 -264l113 440h180l-151 -440h-142z" />
    <glyph glyph-name="hyphen" unicode="-" 
d="M164 543v143h491v-143h-491z" />
    <glyph glyph-name="period" unicode="." horiz-adv-x="573" 
d="M203 0v176h168v-176h-168z" />
    <glyph glyph-name="slash" unicode="/" horiz-adv-x="655" 
d="M-10 0l553 1434h123l-553 -1434h-123z" />
    <glyph glyph-name="zero" unicode="0" horiz-adv-x="1269" 
d="M635 -16q-109 0 -196.5 41t-155 126.5t-104 229t-36.5 336.5t36.5 336.5t104 229t155 126.5t196.5 41t196.5 -41t154.5 -126.5t103.5 -229t36.5 -336.5t-36.5 -336.5t-103.5 -229t-154.5 -126.5t-196.5 -41zM635 106q63 0 114.5 18.5t96.5 63t75.5 113.5t48 174.5
t17.5 241.5q0 170 -26 291t-74.5 189.5t-110 99t-141.5 30.5t-141.5 -30.5t-110 -99t-74.5 -189.5t-26 -291q0 -136 17.5 -241.5t48 -174.5t75.5 -113.5t96.5 -63t114.5 -18.5z" />
    <glyph glyph-name="one" unicode="1" 
d="M455 0v1276l-338 -258l-74 94l422 322h125v-1434h-135z" />
    <glyph glyph-name="two" unicode="2" horiz-adv-x="1146" 
d="M92 0v123l227 209q138 129 230 224.5t147.5 163.5t84.5 125t37.5 97t8.5 92q0 293 -325 293q-194 0 -348 -96v135q186 84 352 84q227 0 346 -107t119 -299q0 -166 -115.5 -333.5t-421.5 -440.5q-98 -87 -168 -145v-2h735v-123h-909z" />
    <glyph glyph-name="three" unicode="3" horiz-adv-x="1146" 
d="M477 -16q-183 0 -348 63v135q158 -76 348 -76q186 0 285.5 81.5t99.5 215.5q0 127 -106 205t-320 78h-143v123h143q208 0 307 73.5t99 202.5q0 111 -84.5 176.5t-259.5 65.5q-89 0 -183.5 -24t-164.5 -58v135q163 70 348 70q245 0 366 -99t121 -266q0 -123 -74.5 -209
t-212.5 -126v-5q145 -29 226.5 -120.5t81.5 -221.5q0 -189 -137.5 -304t-391.5 -115z" />
    <glyph glyph-name="four" unicode="4" horiz-adv-x="1187" 
d="M778 0v348h-725v123l680 963h180v-969h209v-117h-209v-348h-135zM193 465h585v817h-6z" />
    <glyph glyph-name="five" unicode="5" horiz-adv-x="1146" 
d="M483 -16q-192 0 -327 53v135q142 -66 323 -66q194 0 291.5 88.5t97.5 245.5q0 318 -370 318q-171 0 -322 -53l41 729h744v-123h-615l-27 -451q79 21 195 21q245 0 371.5 -115.5t126.5 -319.5q0 -212 -136 -337t-393 -125z" />
    <glyph glyph-name="six" unicode="6" horiz-adv-x="1228" 
d="M643 -16q-111 0 -199 35.5t-157 112.5t-106.5 210.5t-37.5 316.5q0 387 161 589t448 202q132 0 233 -35v-135q-118 47 -237 47q-468 0 -482 -663q59 113 163.5 175t238.5 62q201 0 321.5 -120t120.5 -330q0 -212 -128.5 -339.5t-338.5 -127.5zM643 106q150 0 237 87
t87 251q0 167 -86.5 250.5t-237.5 83.5q-161 0 -248.5 -90t-87.5 -233q0 -165 91 -257t245 -92z" />
    <glyph glyph-name="seven" unicode="7" horiz-adv-x="1126" 
d="M285 0l592 1311h-793v123h938v-123l-584 -1311h-153z" />
    <glyph glyph-name="eight" unicode="8" horiz-adv-x="1228" 
d="M614 -16q-239 0 -368 106.5t-129 278.5q0 268 358 368v2q-158 70 -232.5 156t-74.5 213q0 146 122 244t324 98q201 0 324 -100t123 -242q0 -125 -85 -218t-228 -153v-2q181 -54 272.5 -139.5t91.5 -226.5q0 -172 -129.5 -278.5t-368.5 -106.5zM614 100q169 0 261 72.5
t92 185.5q0 207 -381 320q-65 -18 -119 -42.5t-102 -61t-75.5 -89t-27.5 -116.5q0 -121 91 -195t261 -74zM625 788q56 22 104.5 51t92 68t68.5 90.5t25 108.5q0 98 -80.5 162.5t-220.5 64.5q-143 0 -222 -63t-79 -172q0 -57 18.5 -101t62 -80.5t95 -64t136.5 -64.5z" />
    <glyph glyph-name="nine" unicode="9" horiz-adv-x="1228" 
d="M586 1450q110 0 199 -38t157 -115t105.5 -206t37.5 -300q0 -396 -163 -601.5t-457 -205.5q-146 0 -244 34v136q121 -48 248 -48q228 0 357.5 161t136.5 503q-59 -113 -163.5 -175.5t-238.5 -62.5q-200 0 -321 120.5t-121 330.5q0 212 128.5 339.5t338.5 127.5zM586 1327
q-150 0 -237 -87t-87 -251q0 -167 86.5 -250.5t237.5 -83.5q160 0 248 90.5t88 233.5q0 165 -90.5 256.5t-245.5 91.5z" />
    <glyph glyph-name="colon" unicode=":" horiz-adv-x="573" 
d="M203 874v177h168v-177h-168zM203 0v176h168v-176h-168z" />
    <glyph glyph-name="semicolon" unicode=";" horiz-adv-x="573" 
d="M106 -264l113 440h180l-151 -440h-142zM203 874v177h168v-177h-168z" />
    <glyph glyph-name="less" unicode="&#x3c;" horiz-adv-x="1187" 
d="M1069 319v-124l-967 460v123l967 461v-129l-829 -395z" />
    <glyph glyph-name="equal" unicode="=" horiz-adv-x="1187" 
d="M102 864v115h983v-115h-983zM102 455v114h983v-114h-983z" />
    <glyph glyph-name="greater" unicode="&#x3e;" horiz-adv-x="1187" 
d="M119 195v124l829 396l-829 395v129l966 -461v-123z" />
    <glyph glyph-name="question" unicode="?" horiz-adv-x="1024" 
d="M389 358v62q0 61 18.5 115t48.5 96t66 81.5t72.5 79t67.5 81t51 96.5t22 116q0 126 -80 185t-219 59q-124 0 -282 -49v127q142 43 295 43q198 0 315 -88t117 -266q-2 -68 -24 -130.5t-55 -111.5t-72.5 -94.5t-79 -86.5t-72 -80.5t-52.5 -83.5t-20 -89v-62h-117zM362 0
v176h168v-176h-168z" />
    <glyph glyph-name="at" unicode="@" horiz-adv-x="1740" 
d="M942 -276q-383 0 -611.5 225.5t-228.5 601.5q0 178 60 331.5t165 260.5t251.5 168t314.5 61q163 0 303 -53t236.5 -144t151 -215t54.5 -264q0 -114 -25.5 -210t-67.5 -159.5t-96 -108t-109.5 -64t-110.5 -19.5q-95 0 -141 39.5t-54 112.5q-37 -65 -109.5 -108.5
t-156.5 -43.5q-134 0 -220.5 96.5t-86.5 260.5q0 201 117 329.5t282 128.5q177 0 248 -151h4l25 139h123l-80 -451q-2 -10 -5 -29q-23 -121 -17 -153q14 -45 71 -47q115 0 195.5 112t80.5 326q0 155 -75 280.5t-216 199t-323 73.5q-141 0 -262 -50t-208 -140t-136 -221
t-49 -287q0 -329 188 -517t518 -188q96 0 183.5 19.5t144.5 50.5v-131q-45 -24 -139 -42.5t-189 -18.5zM799 258q119 0 192.5 99.5t73.5 258.5q0 102 -53 156.5t-152 54.5q-112 0 -189 -90.5t-77 -244.5q0 -112 55.5 -173t149.5 -61z" />
    <glyph glyph-name="A" unicode="A" horiz-adv-x="1413" 
d="M78 0l540 1434h177l540 -1434h-147l-146 393h-675l-146 -393h-143zM705 1298l-295 -788h589l-290 788h-4z" />
    <glyph glyph-name="B" unicode="B" horiz-adv-x="1249" 
d="M209 0v1434h475q107 0 188.5 -28.5t129.5 -79t72 -114.5t24 -139q0 -242 -248 -323v-7q132 -25 210.5 -119t78.5 -237q0 -77 -23 -139.5t-57 -101.5t-83 -68.5t-91.5 -43.5t-91 -22.5t-73.5 -10t-48 -1.5h-463zM344 117h309q43 0 81.5 4.5t88.5 21.5t85.5 45t60 81.5
t24.5 125.5q0 137 -89.5 212t-235.5 75h-324v-565zM344 799h322q136 0 211 75.5t75 196.5q0 124 -79 185t-203 61h-326v-518z" />
    <glyph glyph-name="C" unicode="C" horiz-adv-x="1290" 
d="M821 -16q-326 0 -514 199t-188 554q0 320 192.5 516.5t511.5 196.5q194 0 332 -55v-125q-185 63 -326 63q-251 0 -408 -167.5t-157 -434.5q0 -298 151.5 -463.5t411.5 -165.5q193 0 340 62v-125q-163 -55 -346 -55z" />
    <glyph glyph-name="D" unicode="D" horiz-adv-x="1474" 
d="M209 0v1434h436q37 0 67 -1t86.5 -8.5t102.5 -20t105.5 -38.5t106 -61.5t94 -91t79 -125t51 -166.5t19.5 -211q0 -328 -189.5 -519.5t-521.5 -191.5h-436zM344 117h287q125 0 228.5 35.5t183 106.5t123.5 188t44 270q0 123 -26 221t-64 159.5t-96.5 106t-106.5 66
t-113.5 33t-97 13t-75.5 1.5h-287v-1200z" />
    <glyph glyph-name="E" unicode="E" horiz-adv-x="1105" 
d="M209 0v1434h766v-117h-631v-518h592v-117h-592v-565h651v-117h-786z" />
    <glyph glyph-name="F" unicode="F" horiz-adv-x="1064" 
d="M209 0v1434h774v-117h-639v-518h608v-117h-608v-682h-135z" />
    <glyph glyph-name="G" unicode="G" horiz-adv-x="1464" 
d="M836 -16q-152 0 -282.5 49.5t-227 141t-152 231.5t-55.5 313q0 337 192 534t520 197q228 0 392 -68v-133q-53 26 -164.5 53t-229.5 27q-119 0 -221 -39.5t-179 -114t-121 -192t-44 -264.5q0 -177 65 -315.5t195.5 -221t309.5 -82.5q155 0 313 50v483h-381v117h516v-684
q-207 -82 -446 -82z" />
    <glyph glyph-name="H" unicode="H" horiz-adv-x="1474" 
d="M209 0v1434h135v-633h786v633h136v-1434h-136v684h-786v-684h-135z" />
    <glyph glyph-name="I" unicode="I" horiz-adv-x="634" 
d="M250 0v1434h135v-1434h-135z" />
    <glyph glyph-name="J" unicode="J" horiz-adv-x="778" 
d="M250 -16q-115 0 -207 36v123q101 -39 197 -39q99 0 148.5 60.5t49.5 193.5v1076h135v-1080q0 -187 -84 -278.5t-239 -91.5z" />
    <glyph glyph-name="K" unicode="K" horiz-adv-x="1320" 
d="M209 0v1434h135v-617h246l475 617h170l-520 -672l575 -762h-180l-516 700h-250v-700h-135z" />
    <glyph glyph-name="L" unicode="L" horiz-adv-x="1064" 
d="M209 0v1434h135v-1317h670v-117h-805z" />
    <glyph glyph-name="M" unicode="M" horiz-adv-x="1761" 
d="M209 0v1434h213l461 -879l458 879h211v-1434h-135v1307h-4l-475 -897h-115l-475 897h-4v-1307h-135z" />
    <glyph glyph-name="N" unicode="N" horiz-adv-x="1495" 
d="M209 0v1434h174l768 -1256h4l-4 131v1125h135v-1434h-174l-766 1255h-6l4 -131v-1124h-135z" />
    <glyph glyph-name="O" unicode="O" horiz-adv-x="1536" 
d="M768 -16q-138 0 -255.5 48.5t-205.5 139t-138 230.5t-50 313q0 117 25 224.5t77.5 200.5t128 162t183 108.5t235.5 39.5t235.5 -39.5t183 -108.5t128 -162t77.5 -200.5t25 -224.5q0 -173 -50 -313t-138 -230.5t-205.5 -139t-255.5 -48.5zM768 100q77 0 148.5 22t136.5 71
t113.5 119.5t77 174t28.5 228.5t-28.5 229t-77 175t-113.5 120t-136.5 71.5t-148.5 22.5t-148.5 -22.5t-136.5 -71.5t-113.5 -120t-77 -175t-28.5 -229t28.5 -228.5t77 -174t113.5 -119.5t136.5 -71t148.5 -22z" />
    <glyph glyph-name="P" unicode="P" horiz-adv-x="1228" 
d="M209 0v1434h463q233 0 350 -115t117 -322q0 -204 -120 -320t-353 -116h-322v-561h-135zM344 678h322q327 0 327 319q0 162 -76 241t-245 79h-328v-639z" />
    <glyph glyph-name="Q" unicode="Q" horiz-adv-x="1536" 
d="M768 -16q-138 0 -255.5 48.5t-205.5 139t-138 230.5t-50 313q0 117 25 224.5t77.5 200.5t128 162t183 108.5t235.5 39.5t235.5 -39.5t183 -108.5t128 -162t77.5 -200.5t25 -224.5q0 -261 -107 -437t-292 -249l330 -297h-189l-289 260q-66 -8 -102 -8zM768 100
q77 0 148.5 22t136.5 71t113.5 119.5t77 174t28.5 228.5t-28.5 229t-77 175t-113.5 120t-136.5 71.5t-148.5 22.5t-148.5 -22.5t-136.5 -71.5t-113.5 -120t-77 -175t-28.5 -229t28.5 -228.5t77 -174t113.5 -119.5t136.5 -71t148.5 -22z" />
    <glyph glyph-name="R" unicode="R" horiz-adv-x="1280" 
d="M1040 0l-284 582q-56 -9 -121 -9h-291v-573h-135v1434h426q233 0 352 -111.5t119 -318.5q0 -292 -221 -386l315 -618h-160zM344 690h291q170 0 248 76t78 238t-78 237.5t-248 75.5h-291v-627z" />
    <glyph glyph-name="S" unicode="S" horiz-adv-x="1085" 
d="M471 -16q-186 0 -354 63v139q82 -37 179.5 -61.5t174.5 -24.5q59 0 117.5 14t113 42t88 79.5t33.5 118.5q0 49 -19.5 92.5t-45.5 73.5t-75.5 64.5t-85.5 54t-99 51.5q-54 27 -78.5 39.5t-72.5 40.5t-72 47.5t-57.5 52.5t-49.5 63.5t-28.5 72.5t-12.5 88q0 51 12 98
t44 95.5t82.5 83.5t134 57t190.5 22q168 0 332 -51v-137q-163 67 -332 67q-81 0 -141.5 -16t-93 -39.5t-52.5 -55.5t-25.5 -57.5t-5.5 -52.5q0 -22 3.5 -42.5t13.5 -39.5t18 -34.5t27 -32.5t30 -28t37 -27t38.5 -24t44 -24.5t44 -23t47.5 -23.5q46 -22 71.5 -35t68.5 -36.5
t68 -42t58.5 -46t53 -56t38.5 -63.5t27.5 -76t8.5 -87q0 -77 -28.5 -143.5t-86 -121.5t-156 -86.5t-227.5 -31.5z" />
    <glyph glyph-name="T" unicode="T" horiz-adv-x="1146" 
d="M506 0v1317h-445v117h1024v-117h-444v-1317h-135z" />
    <glyph glyph-name="U" unicode="U" horiz-adv-x="1474" 
d="M737 -16q-242 0 -387 133.5t-145 359.5v957h135v-953q0 -86 26 -154t66.5 -109.5t94.5 -69t105.5 -38t104.5 -10.5t104.5 10.5t106 38t95 69t66.5 109.5t26 154v953h135v-957q0 -226 -145 -359.5t-388 -133.5z" />
    <glyph glyph-name="V" unicode="V" horiz-adv-x="1351" 
d="M586 0l-525 1434h150l457 -1284h12l467 1284h143l-524 -1434h-180z" />
    <glyph glyph-name="W" unicode="W" horiz-adv-x="2048" 
d="M518 0l-442 1434h147l381 -1303l357 1303h145l381 -1303l356 1303h129l-401 -1434h-168l-377 1249h-8l-330 -1249h-170z" />
    <glyph glyph-name="X" unicode="X" horiz-adv-x="1413" 
d="M1155 0l-457 666l-446 -666h-162l528 760l-497 674h168l413 -586l414 586h156l-486 -674l537 -760h-168z" />
    <glyph glyph-name="Y" unicode="Y" horiz-adv-x="1331" 
d="M66 1434h161l437 -748h2l438 748h162l-533 -871v-563h-135v563z" />
    <glyph glyph-name="Z" unicode="Z" horiz-adv-x="1187" 
d="M123 0v127l766 1190h-750v117h895v-127l-768 -1190h799v-117h-942z" />
    <glyph glyph-name="bracketleft" unicode="[" horiz-adv-x="716" 
d="M236 -338v1882h368v-117h-225v-1648h225v-117h-368z" />
    <glyph glyph-name="backslash" unicode="\" horiz-adv-x="655" 
d="M543 0l-553 1434h123l553 -1434h-123z" />
    <glyph glyph-name="bracketright" unicode="]" horiz-adv-x="716" 
d="M481 1544v-1882h-368v117h225v1648h-225v117h368z" />
    <glyph glyph-name="asciicircum" unicode="^" horiz-adv-x="1187" 
d="M82 717l440 717h144l440 -717h-143l-369 604l-369 -604h-143z" />
    <glyph glyph-name="underscore" unicode="_" horiz-adv-x="1024" 
d="M0 -256v102h1024v-102h-1024z" />
    <glyph glyph-name="grave" unicode="`" 
d="M371 1249l-275 267h193l184 -267h-102z" />
    <glyph glyph-name="a" unicode="a" horiz-adv-x="1142" 
d="M426 -16q-159 0 -246.5 88t-87.5 217q0 335 588 352l145 4v27q0 157 -71.5 220.5t-229.5 63.5q-196 0 -348 -67v119q167 59 352 59q212 0 319 -94t107 -301v-672h-125v166h-8q-141 -182 -395 -182zM463 92q165 0 263.5 100t98.5 259v86l-145 -5q-168 -5 -270.5 -37.5
t-142.5 -82t-40 -121.5q0 -92 61 -145.5t175 -53.5z" />
    <glyph glyph-name="b" unicode="b" horiz-adv-x="1290" 
d="M696 -16q-126 0 -224 55.5t-157 146.5h-6l-12 -186h-109v1561h129v-678h2q137 184 365 184q213 0 350 -149t137 -394q0 -249 -130 -394.5t-345 -145.5zM684 92q151 0 251.5 116.5t100.5 313.5q0 191 -99 313.5t-257 122.5q-161 0 -263 -122.5t-102 -313.5q0 -90 23 -164
t60.5 -122t86.5 -81.5t99 -48t100 -14.5z" />
    <glyph glyph-name="c" unicode="c" horiz-adv-x="993" 
d="M643 -16q-253 0 -388.5 149t-135.5 406q0 241 137.5 384.5t382.5 143.5q110 0 219 -31v-114q-5 1 -35 8.5t-53.5 12.5t-63 10t-77.5 5q-178 0 -276.5 -113t-98.5 -310q0 -209 102 -326t285 -117q105 0 225 47v-114q-104 -41 -223 -41z" />
    <glyph glyph-name="d" unicode="d" horiz-adv-x="1290" 
d="M594 -16q-215 0 -345 145.5t-130 394.5q0 245 137 394t350 149q219 0 363 -184h4v678h129v-1561h-125v186h-4q-59 -92 -156 -147t-223 -55zM608 92q50 0 99.5 14.5t98.5 48t86 81.5t60 122t23 164q0 191 -102 313.5t-263 122.5q-158 0 -257 -122.5t-99 -313.5
q0 -197 101.5 -313.5t252.5 -116.5z" />
    <glyph glyph-name="e" unicode="e" horiz-adv-x="1177" 
d="M1061 487h-813q12 -187 118.5 -291t301.5 -104q169 0 317 68v-119q-148 -57 -321 -57q-256 0 -400.5 145.5t-144.5 413.5q0 243 136 383.5t355 140.5q451 0 451 -539v-41zM610 958q-154 0 -250.5 -96.5t-109.5 -265.5h676q1 23 -0.5 47t-8.5 61t-19.5 70t-36.5 67.5
t-56.5 59.5t-82.5 41t-112 16z" />
    <glyph glyph-name="f" unicode="f" horiz-adv-x="757" 
d="M45 942v109h221v215q0 147 88 224t240 77q61 0 121 -13v-106q-58 10 -103 10q-99 0 -158 -46t-59 -148v-213h305v-109h-305v-942h-129v942h-221z" />
    <glyph glyph-name="g" unicode="g" horiz-adv-x="1290" 
d="M565 -459q-174 0 -340 58v122q156 -67 363 -67q385 0 385 336v196h-4q-62 -98 -160 -150t-215 -52q-215 0 -345 145.5t-130 396.5q0 243 137 392t350 149q214 0 361 -180h10v164h125v-1037q0 -33 -1 -57t-6.5 -63.5t-15 -70t-29 -69t-46 -67t-67.5 -57.5t-92.5 -47.5
t-123 -30t-156.5 -11.5zM608 92q50 0 99.5 14.5t98.5 48t86 81.5t60 122t23 164q0 191 -102 313.5t-263 122.5q-158 0 -257 -122.5t-99 -313.5q0 -197 101.5 -313.5t252.5 -116.5z" />
    <glyph glyph-name="h" unicode="h" horiz-adv-x="1249" 
d="M188 0v1561h129v-684q55 84 151 137t218 53q92 0 162.5 -27t112 -68t68 -97.5t35.5 -108t9 -107.5v-659h-129v649q0 47 -6 87.5t-24 82.5t-46.5 71.5t-77 48.5t-112.5 19q-153 0 -257 -102t-104 -244v-612h-129z" />
    <glyph glyph-name="i" unicode="i" horiz-adv-x="593" 
d="M233 0v1051h129v-1051h-129zM227 1311v164h142v-164h-142z" />
    <glyph glyph-name="j" unicode="j" horiz-adv-x="593" 
d="M127 -459q-59 0 -117 17v104q40 -12 94 -12q28 0 47.5 5.5t40 22t31 53.5t10.5 93v1227h129v-1215q0 -41 -3 -73.5t-16.5 -76.5t-37 -73.5t-69.5 -50.5t-109 -21zM227 1311v164h142v-164h-142z" />
    <glyph glyph-name="k" unicode="k" horiz-adv-x="1136" 
d="M188 0v1561h129v-1055l572 545h178l-471 -445l506 -606h-170l-430 518l-185 -176v-342h-129z" />
    <glyph glyph-name="l" unicode="l" horiz-adv-x="593" 
d="M233 0v1561h129v-1561h-129z" />
    <glyph glyph-name="m" unicode="m" horiz-adv-x="1812" 
d="M188 0v1051h125v-160q124 176 330 176q122 0 200 -61.5t101 -159.5q125 221 363 221q66 0 118.5 -17t86 -42t58.5 -62t37 -69t19 -71.5t8.5 -61t1.5 -44.5v-700h-129v700q0 34 -4 64.5t-18 67.5t-36.5 63.5t-64 44.5t-96.5 18q-94 0 -166.5 -52t-108.5 -132t-36 -172
v-602h-129v694q0 25 -2.5 49.5t-15 66.5t-34 72t-65 53t-102.5 23q-131 0 -221.5 -103t-90.5 -243v-612h-129z" />
    <glyph glyph-name="n" unicode="n" horiz-adv-x="1249" 
d="M188 0v1051h125v-152h4q62 74 156 121t217 47q91 0 160.5 -26t110.5 -66t67.5 -95.5t35.5 -107t9 -106.5v-666h-129v651q0 307 -266 307q-154 0 -257.5 -97.5t-103.5 -246.5v-614h-129z" />
    <glyph glyph-name="o" unicode="o" horiz-adv-x="1269" 
d="M635 -16q-232 0 -374 148t-142 392q0 246 141.5 394.5t374.5 148.5t374.5 -148.5t141.5 -394.5q0 -244 -142 -392t-374 -148zM635 92q77 0 141.5 25.5t108 68t73.5 99t44 116.5t14 123t-14 124t-44 117.5t-73.5 99t-108 68t-141.5 25.5t-141.5 -25.5t-108 -68t-73.5 -99
t-44 -117.5t-14 -124t14 -123t44 -116.5t73.5 -99t108 -68t141.5 -25.5z" />
    <glyph glyph-name="p" unicode="p" horiz-adv-x="1290" 
d="M317 186v-637h-129v1502h125v-164h11q147 180 360 180t350 -149t137 -394q0 -249 -130 -394.5t-345 -145.5q-125 0 -222.5 55.5t-151.5 146.5h-5zM682 92q151 0 252.5 116.5t101.5 313.5q0 191 -99 313.5t-257 122.5q-161 0 -263 -122.5t-102 -313.5q0 -90 23 -164
t60 -122t86 -81.5t98.5 -48t99.5 -14.5z" />
    <glyph glyph-name="q" unicode="q" horiz-adv-x="1290" 
d="M973 -451v637h-4q-54 -91 -151.5 -146.5t-223.5 -55.5q-215 0 -345 145.5t-130 394.5q0 245 137 394t350 149q214 0 361 -180h10v164h125v-1502h-129zM608 92q50 0 99.5 14.5t98.5 48t86 81.5t60 122t23 164q0 191 -102 313.5t-263 122.5q-158 0 -257 -122.5t-99 -313.5
q0 -197 101.5 -313.5t252.5 -116.5z" />
    <glyph glyph-name="r" unicode="r" horiz-adv-x="829" 
d="M188 0v1051h125v-189q74 205 322 205l106 -6v-113q-79 6 -116 6q-66 0 -120.5 -27.5t-88 -69.5t-57 -95.5t-33 -103.5t-9.5 -95v-563h-129z" />
    <glyph glyph-name="s" unicode="s" horiz-adv-x="962" 
d="M424 -16q-161 0 -297 43v127q149 -60 305 -60q122 0 198.5 46.5t76.5 133.5q0 36 -15.5 67t-35.5 51.5t-60.5 43t-67 34t-79.5 32.5q-41 17 -64 26.5t-60.5 28t-59 33.5t-48.5 38.5t-41.5 47.5t-24.5 56.5t-10 68.5q0 127 104.5 196.5t276.5 69.5q150 0 281 -39v-115
q-124 43 -285 43q-49 0 -91 -7.5t-78.5 -24t-57.5 -47t-21 -72.5q0 -24 8 -45.5t17.5 -37t32.5 -32t37.5 -26t48 -24.5t49 -21t55.5 -21q45 -17 67 -26t63 -28t62.5 -34t50.5 -40.5t43 -51t25 -61t11 -76.5q0 -132 -103 -214.5t-313 -82.5z" />
    <glyph glyph-name="t" unicode="t" horiz-adv-x="778" 
d="M676 1051v-109h-285v-649q0 -112 40 -154.5t138 -42.5q48 0 140 10v-108q-37 -6 -80.5 -9.5t-68.5 -4.5h-25q-56 0 -100.5 11.5t-72.5 28t-48.5 44.5t-30 51t-15 59t-6 56.5t-0.5 54.5v653h-203v109h203v262l129 47v-309h285z" />
    <glyph glyph-name="u" unicode="u" horiz-adv-x="1249" 
d="M1061 1051v-1051h-125v152h-6q-61 -75 -155 -121.5t-216 -46.5q-90 0 -160 26.5t-111 67.5t-67.5 97.5t-35.5 108.5t-9 107v660h129v-652q0 -307 266 -307q155 0 258 98t103 248v613h129z" />
    <glyph glyph-name="v" unicode="v" horiz-adv-x="1105" 
d="M479 0l-424 1051h138l358 -899h4l358 899h138l-424 -1051h-148z" />
    <glyph glyph-name="w" unicode="w" horiz-adv-x="1648" 
d="M414 0l-326 1051h135l266 -895l283 895h105l282 -895l266 895h136l-326 -1051h-143l-267 836l-268 -836h-143z" />
    <glyph glyph-name="x" unicode="x" horiz-adv-x="1105" 
d="M39 0l426 549l-381 502h160l309 -422l309 422h160l-381 -502l426 -549h-166l-350 467l-346 -467h-166z" />
    <glyph glyph-name="y" unicode="y" horiz-adv-x="1126" 
d="M295 -451q-16 0 -33.5 2t-32 4.5t-26 5.5t-18.5 5l-7 2v117q48 -19 101 -19q49 0 81 27.5t64 107.5l70 170l-435 1080h140l362 -906h8l361 906h137l-518 -1274q-21 -52 -40.5 -87.5t-49.5 -70.5t-71 -52.5t-93 -17.5z" />
    <glyph glyph-name="z" unicode="z" horiz-adv-x="1024" 
d="M119 0v106l614 830h-604v115h750v-123l-611 -813h637v-115h-786z" />
    <glyph glyph-name="braceleft" unicode="{" horiz-adv-x="716" 
d="M610 -289q-305 0 -305 305v275q0 48 -2.5 81.5t-14 74t-31.5 67t-57 48t-89 28.5v88q52 7 89 28.5t57 48t31.5 67t14 74t2.5 81.5v274q0 305 305 305v-92q-84 0 -127 -51t-43 -162v-276q0 -159 -49.5 -233t-169.5 -105v-6q120 -31 169.5 -105t49.5 -233v-277
q0 -111 43 -162t127 -51v-92z" />
    <glyph glyph-name="bar" unicode="|" horiz-adv-x="532" 
d="M199 -287v1848h135v-1848h-135z" />
    <glyph glyph-name="braceright" unicode="}" horiz-adv-x="716" 
d="M106 -289v92q84 0 127 51t43 162v277q0 159 49.5 233t170.5 105v6q-121 31 -170.5 105t-49.5 233v276q0 111 -43 162t-127 51v92q306 0 306 -305v-274q0 -48 2.5 -81.5t14 -74t31.5 -67t57 -48t89 -28.5v-88q-52 -7 -89 -28.5t-57 -48t-31.5 -67t-14 -74t-2.5 -81.5v-275
q0 -305 -306 -305z" />
    <glyph glyph-name="asciitilde" unicode="~" horiz-adv-x="1187" 
d="M827 563q-51 0 -103 17t-95 41t-84 48t-85 41t-83 17q-37 0 -76 -14t-81.5 -49.5t-74.5 -88.5l-86 76q144 199 318 199q51 0 103 -17t95 -41t84 -48t85 -41t83 -17q55 0 113.5 34.5t106.5 108.5l81 -67q-56 -92 -133.5 -145.5t-167.5 -53.5z" />
    <glyph glyph-name="uni00A0" unicode="&#xa0;" horiz-adv-x="471" 
 />
    <glyph glyph-name="exclamdown" unicode="&#xa1;" horiz-adv-x="737" 
d="M285 -449l24 1076h119l25 -1076h-168zM285 809v176h168v-176h-168z" />
    <glyph glyph-name="cent" unicode="&#xa2;" horiz-adv-x="1187" 
d="M608 -205v199q-210 20 -336.5 166t-126.5 364q0 221 128 368.5t335 166.5v190h90v-186q141 0 263 -41v-117q-129 49 -259 49q-205 0 -313 -116t-108 -314q0 -199 112 -313.5t318 -114.5q131 0 258 47v-118q-126 -37 -271 -37v-193h-90z" />
    <glyph glyph-name="sterling" unicode="&#xa3;" horiz-adv-x="1187" 
d="M135 0v115h211v596h-211v114h211v179q0 98 27 177.5t82.5 140.5t148.5 94.5t217 33.5q141 0 242 -29v-121q-98 35 -234 35q-101 0 -171.5 -26t-107.5 -74t-53 -104t-16 -127v-179h412v-114h-412v-596h572v-115h-918z" />
    <glyph glyph-name="currency" unicode="&#xa4;" horiz-adv-x="1187" 
d="M164 205l-82 82l119 119q-109 138 -109 311t109 311l-119 119l82 82l119 -119q138 109 311 109t311 -109l119 119l82 -82l-119 -119q109 -138 109 -311t-109 -311l119 -119l-82 -82l-119 119q-138 -109 -311 -109t-311 109zM594 338q157 0 268 111t111 268t-111 268
t-268 111t-268 -111t-111 -268t111 -268t268 -111z" />
    <glyph glyph-name="yen" unicode="&#xa5;" horiz-adv-x="1187" 
d="M133 649v115h293l-369 670h158l381 -711l377 711h157l-368 -670h293v-115h-359l-34 -61v-103h393v-114h-393v-371h-136v371h-393v114h393v103l-37 61h-356z" />
    <glyph glyph-name="brokenbar" unicode="&#xa6;" horiz-adv-x="532" 
d="M199 821v740h135v-740h-135zM199 -287v740h135v-740h-135z" />
    <glyph glyph-name="section" unicode="&#xa7;" horiz-adv-x="1126" 
d="M514 -303q-76 0 -149 15.5t-109 30.5l-35 15v127q151 -71 281 -71q137 0 200.5 45t63.5 118q0 41 -21 75.5t-57 60t-83 48.5t-98.5 45.5t-102.5 47t-98 57t-83 71t-57 94t-21 122.5q0 220 217 326q-133 90 -133 239q0 133 103.5 210t310.5 77q75 0 144 -13t101 -25
l32 -13v-119q-149 53 -273 53q-272 0 -272 -157q0 -54 33 -96t85.5 -71t116 -56t127 -60.5t116 -75t85.5 -107.5t33 -151q0 -220 -217 -336q75 -44 116 -100.5t41 -138.5q0 -135 -105.5 -211t-291.5 -76zM279 604q0 -28 6 -53t14 -45.5t25.5 -40.5t30.5 -34t39 -31.5
t41.5 -27t48 -25t48.5 -22.5t52.5 -22.5t50.5 -21.5q199 93 199 258q0 37 -9.5 69t-23 56t-38.5 47t-47 38t-57 33t-59.5 28.5t-65 28t-63.5 27.5q-91 -49 -141.5 -109.5t-50.5 -152.5z" />
    <glyph glyph-name="dieresis" unicode="&#xa8;" 
d="M563 1311v164h142v-164h-142zM115 1311v164h141v-164h-141z" />
    <glyph glyph-name="copyright" unicode="&#xa9;" horiz-adv-x="1802" 
d="M946 272q-201 0 -317.5 121t-116.5 336q0 194 119.5 313t314.5 119q123 0 211 -33v-114q-112 37 -211 37q-135 0 -217 -90t-82 -232q0 -160 83.5 -252t221.5 -92q121 0 213 35v-115q-105 -33 -219 -33zM901 -39q-157 0 -297.5 58.5t-241 159t-159 241t-58.5 297.5
t58.5 297.5t159 241t241 159t297.5 58.5t297.5 -58.5t241 -159t159 -241t58.5 -297.5t-58.5 -297.5t-159 -241t-241 -159t-297.5 -58.5zM901 63q106 0 205.5 33.5t179.5 94t141 141t94 180t33 205.5q0 176 -88 326.5t-238.5 238.5t-326.5 88t-326.5 -88t-238.5 -238.5
t-88 -326.5q0 -106 33 -205.5t94 -180t141 -141t179.5 -94t205.5 -33.5z" />
    <glyph glyph-name="ordfeminine" unicode="&#xaa;" 
d="M326 569q-128 0 -193 65.5t-67 188.5q-1 68 22 120t62 84t96.5 52.5t119.5 28.5t138 8h100v60q0 52 -17 87t-48 51t-61 21.5t-70 5.5q-128 0 -273 -59v113q124 55 283 55q47 0 85 -5.5t79.5 -23t69.5 -46.5t46.5 -80t18.5 -119v-603h-113v144h-4q-100 -148 -274 -148z
M344 662q113 0 186.5 79.5t73.5 219.5v63h-108q-320 0 -320 -199q0 -74 42 -118.5t126 -44.5z" />
    <glyph glyph-name="guillemotleft" unicode="&#xab;" horiz-adv-x="1136" 
d="M858 205l-326 424l326 424h123l-307 -424l307 -424h-123zM453 205l-326 424l326 424h122l-307 -424l307 -424h-122z" />
    <glyph glyph-name="logicalnot" unicode="&#xac;" horiz-adv-x="1187" 
d="M942 365v438h-840v115h963v-553h-123z" />
    <glyph glyph-name="uni00AD" unicode="&#xad;" 
d="M164 543v143h491v-143h-491z" />
    <glyph glyph-name="registered" unicode="&#xae;" horiz-adv-x="1802" 
d="M901 -39q-157 0 -297.5 58.5t-241 159t-159 241t-58.5 297.5t58.5 297.5t159 241t241 159t297.5 58.5t297.5 -58.5t241 -159t159 -241t58.5 -297.5t-58.5 -297.5t-159 -241t-241 -159t-297.5 -58.5zM901 63q106 0 205.5 33.5t179.5 94t141 141t94 180t33 205.5
q0 176 -88 326.5t-238.5 238.5t-326.5 88t-326.5 -88t-238.5 -238.5t-88 -326.5q0 -106 33 -205.5t94 -180t141 -141t179.5 -94t205.5 -33.5zM641 266v891h262q144 0 217.5 -69.5t73.5 -198.5q0 -180 -143 -240l184 -383h-131l-162 357h-39h-145v-357h-117zM758 725h145
q79 0 123.5 43.5t44.5 120.5q0 78 -44.5 122t-123.5 44h-145v-330z" />
    <glyph glyph-name="macron" unicode="&#xaf;" 
d="M152 1352v110h516v-110h-516z" />
    <glyph glyph-name="degree" unicode="&#xb0;" horiz-adv-x="778" 
d="M389 889q-120 0 -197 78t-77 198t77 197.5t197 77.5q119 0 197 -77.5t78 -197.5t-78 -198t-197 -78zM389 989q74 0 122 50t48 126q0 75 -48.5 124.5t-121.5 49.5q-75 0 -122.5 -49.5t-47.5 -124.5q0 -77 47.5 -126.5t122.5 -49.5z" />
    <glyph glyph-name="plusminus" unicode="&#xb1;" horiz-adv-x="1187" 
d="M537 492v362h-435v115h435v362h114v-362h434v-115h-434v-362h-114zM102 221v115h983v-115h-983z" />
    <glyph glyph-name="twosuperior" unicode="&#xb2;" 
d="M119 580v77q42 43 107.5 107.5t103.5 102t84.5 89.5t71 89.5t42 81.5t17.5 85q0 142 -174 142q-118 0 -232 -56v103q109 49 232 49q288 0 288 -240q0 -62 -21 -118t-73 -122t-117 -130t-176 -164h424v-96h-577z" />
    <glyph glyph-name="threesuperior" unicode="&#xb3;" 
d="M352 569q-136 0 -260 43v105q50 -24 124 -37.5t138 -13.5q59 0 107 14t81 49.5t33 89.5q0 71 -54 114.5t-144 43.5h-141v98h143q89 0 139.5 45t50.5 103q0 57 -51.5 94t-144.5 37q-126 0 -238 -51v104q118 43 238 43q81 0 148.5 -21.5t113 -72.5t45.5 -123
q0 -68 -40.5 -123t-121.5 -80v-6q83 -17 128.5 -73.5t45.5 -131.5q0 -104 -88 -177t-252 -73z" />
    <glyph glyph-name="acute" unicode="&#xb4;" 
d="M356 1249l185 267h192l-274 -267h-103z" />
    <glyph glyph-name="uni00B5" unicode="&#xb5;" horiz-adv-x="1228" 
d="M188 -449v1500h129v-652q0 -35 4.5 -68.5t15 -69.5t31 -65t48.5 -53t70.5 -37.5t95.5 -13.5q138 0 233.5 98t95.5 246v615h129v-1051h-125v152h-4q-141 -168 -329 -168q-162 0 -263 94l-2 -2v-525h-129z" />
    <glyph glyph-name="paragraph" unicode="&#xb6;" horiz-adv-x="1372" 
d="M492 -287v1106h-29q-127 0 -217 89.5t-90 217.5t90 218t217 90h700v-1721h-129v1612h-413v-1612h-129z" />
    <glyph glyph-name="periodcentered" unicode="&#xb7;" horiz-adv-x="573" 
d="M203 647v176h168v-176h-168z" />
    <glyph glyph-name="cedilla" unicode="&#xb8;" 
d="M389 -393q-82 0 -143 47l45 72q39 -29 82 -29q41 0 69.5 24t28.5 68q0 84 -111 84q-18 0 -36 -4l12 151h84l-4 -71q73 2 118.5 -41.5t45.5 -116.5q0 -75 -50.5 -129.5t-140.5 -54.5z" />
    <glyph glyph-name="onesuperior" unicode="&#xb9;" 
d="M145 670h248v630l-153 -124l-62 77l221 181h107v-764h225v-97h-586v97z" />
    <glyph glyph-name="ordmasculine" unicode="&#xba;" 
d="M410 569q-168 0 -260.5 115.5t-92.5 325.5t92.5 325t260.5 115t260 -115t92 -325t-92.5 -325.5t-259.5 -115.5zM410 670q109 0 169 89t60 251t-60 251t-169 89t-169.5 -89t-60.5 -251t60.5 -251t169.5 -89z" />
    <glyph glyph-name="guillemotright" unicode="&#xbb;" horiz-adv-x="1136" 
d="M604 629l-325 -424h-123l307 424l-307 424h123zM1010 629l-326 -424h-123l307 424l-307 424h123z" />
    <glyph glyph-name="onequarter" unicode="&#xbc;" horiz-adv-x="1843" 
d="M393 573v727l-153 -124l-62 77l221 181h107v-861h-113zM1491 -6v205h-465v71l436 584h142v-559h131v-96h-131v-205h-113zM1151 295h340v448zM379 0l999 1434h127l-999 -1434h-127z" />
    <glyph glyph-name="onehalf" unicode="&#xbd;" horiz-adv-x="1843" 
d="M393 573v727l-153 -124l-62 77l221 181h107v-861h-113zM352 0l1000 1434h127l-1000 -1434h-127zM1200 -2v78q42 43 107.5 107.5t103.5 102t84.5 89.5t71 89.5t42 81.5t17.5 85q0 141 -174 141q-119 0 -231 -55v102q109 49 231 49q289 0 289 -239q0 -62 -21 -118
t-73 -122.5t-117 -131t-176 -163.5h424v-96h-578z" />
    <glyph glyph-name="threequarters" unicode="&#xbe;" horiz-adv-x="1843" 
d="M352 569q-136 0 -260 43v105q50 -24 124 -37.5t138 -13.5q59 0 107 14t81 49.5t33 89.5q0 71 -54 114.5t-144 43.5h-141v98h143q89 0 139.5 45t50.5 103q0 57 -51.5 94t-144.5 37q-126 0 -238 -51v104q118 43 238 43q81 0 148.5 -21.5t113 -72.5t45.5 -123
q0 -68 -40.5 -123t-121.5 -80v-6q83 -17 128.5 -73.5t45.5 -131.5q0 -104 -88 -177t-252 -73zM1491 -6v205h-465v71l436 584h142v-559h131v-96h-131v-205h-113zM1151 295h340v448zM434 0l1000 1434h127l-1000 -1434h-127z" />
    <glyph glyph-name="questiondown" unicode="&#xbf;" horiz-adv-x="1024" 
d="M635 627v-62q0 -61 -18.5 -115t-48.5 -96t-66 -81.5t-72.5 -79t-67.5 -81t-51 -96.5t-22 -116q0 -126 80 -185t219 -59q124 0 282 49v-127q-142 -43 -295 -43q-198 0 -315 88t-117 266q2 68 24 130.5t55 111.5t72.5 94.5t79 86.5t72 80.5t52.5 83.5t20 89v62h117z
M662 985v-176h-168v176h168z" />
    <glyph glyph-name="Agrave" unicode="&#xc0;" horiz-adv-x="1413" 
d="M78 0l540 1434h177l540 -1434h-147l-146 393h-675l-146 -393h-143zM705 1298l-295 -788h589l-290 788h-4zM664 1550l-248 252h192l158 -252h-102z" />
    <glyph glyph-name="Aacute" unicode="&#xc1;" horiz-adv-x="1413" 
d="M78 0l540 1434h177l540 -1434h-147l-146 393h-675l-146 -393h-143zM705 1298l-295 -788h589l-290 788h-4zM653 1550l123 252h193l-213 -252h-103z" />
    <glyph glyph-name="Acircumflex" unicode="&#xc2;" horiz-adv-x="1413" 
d="M78 0l540 1434h177l540 -1434h-147l-146 393h-675l-146 -393h-143zM705 1298l-295 -788h589l-290 788h-4zM399 1536l209 246h197l209 -246h-150l-157 176l-158 -176h-150z" />
    <glyph glyph-name="Atilde" unicode="&#xc3;" horiz-adv-x="1413" 
d="M78 0l540 1434h177l540 -1434h-147l-146 393h-675l-146 -393h-143zM705 1298l-295 -788h589l-290 788h-4zM401 1563q-5 75 39.5 127.5t118.5 52.5q56 0 160 -40t135 -40q26 0 51.5 18t30.5 56h82q5 -68 -37 -121t-125 -53q-52 0 -93.5 12.5t-63.5 27t-55 27t-71 12.5
q-14 0 -29.5 -5t-35 -24t-25.5 -50h-82z" />
    <glyph glyph-name="Adieresis" unicode="&#xc4;" horiz-adv-x="1413" 
d="M78 0l540 1434h177l540 -1434h-147l-146 393h-675l-146 -393h-143zM705 1298l-295 -788h589l-290 788h-4zM401 1565v164h142v-164h-142zM870 1565v164h142v-164h-142z" />
    <glyph glyph-name="Aring" unicode="&#xc5;" horiz-adv-x="1413" 
d="M78 0l540 1434h177l540 -1434h-147l-146 393h-675l-146 -393h-143zM705 1298l-295 -788h589l-290 788h-4zM707 1460q-82 0 -139.5 57.5t-57.5 139.5t57.5 139t139.5 57t139 -57t57 -139t-57 -139.5t-139 -57.5zM707 1534q51 0 86.5 36t35.5 87t-35.5 87t-86.5 36t-87 -36
t-36 -87t36 -87t87 -36z" />
    <glyph glyph-name="AE" unicode="&#xc6;" horiz-adv-x="1832" 
d="M10 0l885 1434h821v-117h-598l27 -506h543v-117h-537l33 -577h538v-117h-673l-23 395h-620l-242 -395h-154zM969 1315l-492 -803h543l-43 803h-8z" />
    <glyph glyph-name="Ccedilla" unicode="&#xc7;" horiz-adv-x="1290" 
d="M741 -455q-92 0 -163 54l51 82q46 -33 94 -33q45 0 75.5 29t30.5 81q0 46 -28 69t-92 23q-21 0 -41 -4l12 150q-265 40 -413 233t-148 508q0 320 192.5 516.5t511.5 196.5q194 0 332 -55v-125q-185 63 -326 63q-251 0 -408 -167.5t-157 -434.5q0 -298 151.5 -463.5
t411.5 -165.5q193 0 340 62v-125q-163 -55 -346 -55q-31 0 -47 2l-2 -47q84 2 136.5 -48.5t52.5 -134.5q0 -86 -58 -148.5t-162 -62.5z" />
    <glyph glyph-name="Egrave" unicode="&#xc8;" horiz-adv-x="1105" 
d="M209 0v1434h766v-117h-631v-518h592v-117h-592v-565h651v-117h-786zM555 1550l-248 252h193l157 -252h-102z" />
    <glyph glyph-name="Eacute" unicode="&#xc9;" horiz-adv-x="1105" 
d="M209 0v1434h766v-117h-631v-518h592v-117h-592v-565h651v-117h-786zM545 1550l123 252h192l-213 -252h-102z" />
    <glyph glyph-name="Ecircumflex" unicode="&#xca;" horiz-adv-x="1105" 
d="M209 0v1434h766v-117h-631v-518h592v-117h-592v-565h651v-117h-786zM291 1536l209 246h196l209 -246h-149l-158 176l-158 -176h-149z" />
    <glyph glyph-name="Edieresis" unicode="&#xcb;" horiz-adv-x="1105" 
d="M209 0v1434h766v-117h-631v-518h592v-117h-592v-565h651v-117h-786zM293 1565v164h141v-164h-141zM762 1565v164h141v-164h-141z" />
    <glyph glyph-name="Igrave" unicode="&#xcc;" horiz-adv-x="634" 
d="M250 0v1434h135v-1434h-135zM274 1550l-247 252h192l158 -252h-103z" />
    <glyph glyph-name="Iacute" unicode="&#xcd;" horiz-adv-x="634" 
d="M250 0v1434h135v-1434h-135zM264 1550l123 252h193l-213 -252h-103z" />
    <glyph glyph-name="Icircumflex" unicode="&#xce;" horiz-adv-x="634" 
d="M250 0v1434h135v-1434h-135zM51 1536l168 246h197l168 -246h-144l-123 176l-122 -176h-144z" />
    <glyph glyph-name="Idieresis" unicode="&#xcf;" horiz-adv-x="634" 
d="M250 0v1434h135v-1434h-135zM104 1565v164h142v-164h-142zM389 1565v164h141v-164h-141z" />
    <glyph glyph-name="Eth" unicode="&#xd0;" horiz-adv-x="1474" 
d="M209 0v709h-162v90h162v635h436q37 0 67 -1t86.5 -8.5t102.5 -20t105.5 -38.5t106 -61.5t94 -91t79 -125t51 -166.5t19.5 -211q0 -328 -189.5 -519.5t-521.5 -191.5h-436zM344 117h287q125 0 228.5 35.5t183 106.5t123.5 188t44 270q0 123 -26 221t-64 159.5t-96.5 106
t-106.5 66t-113.5 33t-97 13t-75.5 1.5h-287v-518h404v-90h-404v-592z" />
    <glyph glyph-name="Ntilde" unicode="&#xd1;" horiz-adv-x="1495" 
d="M209 0v1434h174l768 -1256h4l-4 131v1125h135v-1434h-174l-766 1255h-6l4 -131v-1124h-135zM469 1563q-5 75 39.5 127.5t118.5 52.5q56 0 160 -40t135 -40q26 0 51.5 18t30.5 56h81q5 -69 -36.5 -121.5t-124.5 -52.5q-52 0 -93.5 12.5t-63.5 27t-55 27t-71 12.5
q-14 0 -29.5 -5t-35 -24t-25.5 -50h-82z" />
    <glyph glyph-name="Ograve" unicode="&#xd2;" horiz-adv-x="1536" 
d="M768 -16q-138 0 -255.5 48.5t-205.5 139t-138 230.5t-50 313q0 117 25 224.5t77.5 200.5t128 162t183 108.5t235.5 39.5t235.5 -39.5t183 -108.5t128 -162t77.5 -200.5t25 -224.5q0 -173 -50 -313t-138 -230.5t-205.5 -139t-255.5 -48.5zM768 100q77 0 148.5 22t136.5 71
t113.5 119.5t77 174t28.5 228.5t-28.5 229t-77 175t-113.5 120t-136.5 71.5t-148.5 22.5t-148.5 -22.5t-136.5 -71.5t-113.5 -120t-77 -175t-28.5 -229t28.5 -228.5t77 -174t113.5 -119.5t136.5 -71t148.5 -22zM725 1550l-248 252h193l157 -252h-102z" />
    <glyph glyph-name="Oacute" unicode="&#xd3;" horiz-adv-x="1536" 
d="M768 -16q-138 0 -255.5 48.5t-205.5 139t-138 230.5t-50 313q0 117 25 224.5t77.5 200.5t128 162t183 108.5t235.5 39.5t235.5 -39.5t183 -108.5t128 -162t77.5 -200.5t25 -224.5q0 -173 -50 -313t-138 -230.5t-205.5 -139t-255.5 -48.5zM768 100q77 0 148.5 22t136.5 71
t113.5 119.5t77 174t28.5 228.5t-28.5 229t-77 175t-113.5 120t-136.5 71.5t-148.5 22.5t-148.5 -22.5t-136.5 -71.5t-113.5 -120t-77 -175t-28.5 -229t28.5 -228.5t77 -174t113.5 -119.5t136.5 -71t148.5 -22zM715 1550l123 252h192l-213 -252h-102z" />
    <glyph glyph-name="Ocircumflex" unicode="&#xd4;" horiz-adv-x="1536" 
d="M768 -16q-138 0 -255.5 48.5t-205.5 139t-138 230.5t-50 313q0 117 25 224.5t77.5 200.5t128 162t183 108.5t235.5 39.5t235.5 -39.5t183 -108.5t128 -162t77.5 -200.5t25 -224.5q0 -173 -50 -313t-138 -230.5t-205.5 -139t-255.5 -48.5zM768 100q77 0 148.5 22t136.5 71
t113.5 119.5t77 174t28.5 228.5t-28.5 229t-77 175t-113.5 120t-136.5 71.5t-148.5 22.5t-148.5 -22.5t-136.5 -71.5t-113.5 -120t-77 -175t-28.5 -229t28.5 -228.5t77 -174t113.5 -119.5t136.5 -71t148.5 -22zM461 1536l209 246h196l209 -246h-149l-158 176l-158 -176h-149
z" />
    <glyph glyph-name="Otilde" unicode="&#xd5;" horiz-adv-x="1536" 
d="M768 -16q-138 0 -255.5 48.5t-205.5 139t-138 230.5t-50 313q0 117 25 224.5t77.5 200.5t128 162t183 108.5t235.5 39.5t235.5 -39.5t183 -108.5t128 -162t77.5 -200.5t25 -224.5q0 -173 -50 -313t-138 -230.5t-205.5 -139t-255.5 -48.5zM768 100q77 0 148.5 22t136.5 71
t113.5 119.5t77 174t28.5 228.5t-28.5 229t-77 175t-113.5 120t-136.5 71.5t-148.5 22.5t-148.5 -22.5t-136.5 -71.5t-113.5 -120t-77 -175t-28.5 -229t28.5 -228.5t77 -174t113.5 -119.5t136.5 -71t148.5 -22zM463 1563q-5 75 39.5 127.5t118.5 52.5q56 0 159.5 -40
t134.5 -40q26 0 51.5 18t30.5 56h82q5 -69 -36.5 -121.5t-124.5 -52.5q-52 0 -93.5 12.5t-63.5 27t-55 27t-71 12.5q-14 0 -29.5 -5t-35 -24t-25.5 -50h-82z" />
    <glyph glyph-name="Odieresis" unicode="&#xd6;" horiz-adv-x="1536" 
d="M768 -16q-138 0 -255.5 48.5t-205.5 139t-138 230.5t-50 313q0 117 25 224.5t77.5 200.5t128 162t183 108.5t235.5 39.5t235.5 -39.5t183 -108.5t128 -162t77.5 -200.5t25 -224.5q0 -173 -50 -313t-138 -230.5t-205.5 -139t-255.5 -48.5zM768 100q77 0 148.5 22t136.5 71
t113.5 119.5t77 174t28.5 228.5t-28.5 229t-77 175t-113.5 120t-136.5 71.5t-148.5 22.5t-148.5 -22.5t-136.5 -71.5t-113.5 -120t-77 -175t-28.5 -229t28.5 -228.5t77 -174t113.5 -119.5t136.5 -71t148.5 -22zM463 1565v164h141v-164h-141zM932 1565v164h141v-164h-141z
" />
    <glyph glyph-name="multiply" unicode="&#xd7;" horiz-adv-x="1187" 
d="M203 256l-82 82l391 391l-391 391l82 82l391 -391l391 391l82 -82l-391 -391l391 -391l-82 -82l-391 391z" />
    <glyph glyph-name="Oslash" unicode="&#xd8;" horiz-adv-x="1536" 
d="M768 -16q-234 0 -397 129l-152 -191l-86 72l156 196q-170 197 -170 525q0 117 25 224.5t77.5 200.5t128 162t183 108.5t235.5 39.5q240 0 401 -135l156 196l90 -73l-162 -207q81 -99 122.5 -232.5t41.5 -283.5q0 -173 -50 -313t-138 -230.5t-205.5 -139t-255.5 -48.5z
M264 715q0 -252 111 -412l712 907q-132 123 -319 123q-77 0 -148.5 -22.5t-136.5 -71.5t-113.5 -120t-77 -175t-28.5 -229zM768 100q77 0 148.5 22t136.5 71t113.5 119.5t77 174t28.5 228.5q0 246 -107 405l-712 -903q132 -117 315 -117z" />
    <glyph glyph-name="Ugrave" unicode="&#xd9;" horiz-adv-x="1474" 
d="M737 -16q-242 0 -387 133.5t-145 359.5v957h135v-953q0 -86 26 -154t66.5 -109.5t94.5 -69t105.5 -38t104.5 -10.5t104.5 10.5t106 38t95 69t66.5 109.5t26 154v953h135v-957q0 -226 -145 -359.5t-388 -133.5zM694 1550l-248 252h193l158 -252h-103z" />
    <glyph glyph-name="Uacute" unicode="&#xda;" horiz-adv-x="1474" 
d="M737 -16q-242 0 -387 133.5t-145 359.5v957h135v-953q0 -86 26 -154t66.5 -109.5t94.5 -69t105.5 -38t104.5 -10.5t104.5 10.5t106 38t95 69t66.5 109.5t26 154v953h135v-957q0 -226 -145 -359.5t-388 -133.5zM684 1550l123 252h192l-213 -252h-102z" />
    <glyph glyph-name="Ucircumflex" unicode="&#xdb;" horiz-adv-x="1474" 
d="M737 -16q-242 0 -387 133.5t-145 359.5v957h135v-953q0 -86 26 -154t66.5 -109.5t94.5 -69t105.5 -38t104.5 -10.5t104.5 10.5t106 38t95 69t66.5 109.5t26 154v953h135v-957q0 -226 -145 -359.5t-388 -133.5zM430 1536l209 246h197l208 -246h-149l-158 176l-157 -176
h-150z" />
    <glyph glyph-name="Udieresis" unicode="&#xdc;" horiz-adv-x="1474" 
d="M737 -16q-242 0 -387 133.5t-145 359.5v957h135v-953q0 -86 26 -154t66.5 -109.5t94.5 -69t105.5 -38t104.5 -10.5t104.5 10.5t106 38t95 69t66.5 109.5t26 154v953h135v-957q0 -226 -145 -359.5t-388 -133.5zM432 1565v164h141v-164h-141zM901 1565v164h141v-164h-141z
" />
    <glyph glyph-name="Yacute" unicode="&#xdd;" horiz-adv-x="1331" 
d="M66 1434h161l437 -748h2l438 748h162l-533 -871v-563h-135v563zM612 1550l123 252h193l-213 -252h-103z" />
    <glyph glyph-name="Thorn" unicode="&#xde;" horiz-adv-x="1228" 
d="M209 0v1434h135v-271h334q213 0 337 -118.5t124 -321.5t-124.5 -321.5t-336.5 -118.5h-334v-283h-135zM344 399h322q160 0 243.5 83t83.5 241t-82 241t-239 83h-328v-648z" />
    <glyph glyph-name="germandbls" unicode="&#xdf;" horiz-adv-x="1280" 
d="M711 -16q-115 0 -222 28v113q99 -31 213 -31q153 0 242.5 87t89.5 241q0 165 -105 255.5t-302 90.5h-19v96h6q165 0 244.5 84.5t79.5 229.5q0 125 -74.5 202.5t-232.5 77.5q-51 0 -94 -11t-73.5 -27t-54.5 -43.5t-39.5 -51.5t-26 -60t-15.5 -60t-8 -61.5t-3 -53.5v-46
v-1044h-129v1102q0 465 449 465q197 0 316.5 -100.5t119.5 -270.5q0 -132 -67 -229t-177 -138v-6q152 -24 246 -129t94 -276q0 -202 -125 -318t-333 -116z" />
    <glyph glyph-name="agrave" unicode="&#xe0;" horiz-adv-x="1142" 
d="M426 -16q-159 0 -246.5 88t-87.5 217q0 335 588 352l145 4v27q0 157 -71.5 220.5t-229.5 63.5q-196 0 -348 -67v119q167 59 352 59q212 0 319 -94t107 -301v-672h-125v166h-8q-141 -182 -395 -182zM463 92q165 0 263.5 100t98.5 259v86l-145 -5q-168 -5 -270.5 -37.5
t-142.5 -82t-40 -121.5q0 -92 61 -145.5t175 -53.5zM506 1249l-275 267h193l184 -267h-102z" />
    <glyph glyph-name="aacute" unicode="&#xe1;" horiz-adv-x="1142" 
d="M426 -16q-159 0 -246.5 88t-87.5 217q0 335 588 352l145 4v27q0 157 -71.5 220.5t-229.5 63.5q-196 0 -348 -67v119q167 59 352 59q212 0 319 -94t107 -301v-672h-125v166h-8q-141 -182 -395 -182zM463 92q165 0 263.5 100t98.5 259v86l-145 -5q-168 -5 -270.5 -37.5
t-142.5 -82t-40 -121.5q0 -92 61 -145.5t175 -53.5zM494 1249l184 267h192l-274 -267h-102z" />
    <glyph glyph-name="acircumflex" unicode="&#xe2;" horiz-adv-x="1142" 
d="M426 -16q-159 0 -246.5 88t-87.5 217q0 335 588 352l145 4v27q0 157 -71.5 220.5t-229.5 63.5q-196 0 -348 -67v119q167 59 352 59q212 0 319 -94t107 -301v-672h-125v166h-8q-141 -182 -395 -182zM463 92q165 0 263.5 100t98.5 259v86l-145 -5q-168 -5 -270.5 -37.5
t-142.5 -82t-40 -121.5q0 -92 61 -145.5t175 -53.5zM242 1249l225 267h156l225 -267h-123l-180 197l-180 -197h-123z" />
    <glyph glyph-name="atilde" unicode="&#xe3;" horiz-adv-x="1142" 
d="M426 -16q-159 0 -246.5 88t-87.5 217q0 335 588 352l145 4v27q0 157 -71.5 220.5t-229.5 63.5q-196 0 -348 -67v119q167 59 352 59q212 0 319 -94t107 -301v-672h-125v166h-8q-141 -182 -395 -182zM463 92q165 0 263.5 100t98.5 259v86l-145 -5q-168 -5 -270.5 -37.5
t-142.5 -82t-40 -121.5q0 -92 61 -145.5t175 -53.5zM252 1313q-4 77 42.5 124.5t119.5 47.5q60 0 157 -39q6 -3 21 -8.5t20.5 -8t17 -6.5t18 -5.5t15.5 -3t17 -1.5q27 0 51 14.5t31 51.5h78q3 -70 -37.5 -118t-118.5 -48q-57 0 -141 30q-4 2 -16 7t-15.5 6.5t-13.5 6
t-13.5 6t-12 4.5t-12.5 4t-11 3t-11.5 2.5t-10.5 1t-11 0.5q-27 0 -52 -16.5t-34 -54.5h-78z" />
    <glyph glyph-name="adieresis" unicode="&#xe4;" horiz-adv-x="1142" 
d="M426 -16q-159 0 -246.5 88t-87.5 217q0 335 588 352l145 4v27q0 157 -71.5 220.5t-229.5 63.5q-196 0 -348 -67v119q167 59 352 59q212 0 319 -94t107 -301v-672h-125v166h-8q-141 -182 -395 -182zM463 92q165 0 263.5 100t98.5 259v86l-145 -5q-168 -5 -270.5 -37.5
t-142.5 -82t-40 -121.5q0 -92 61 -145.5t175 -53.5zM698 1311v164h142v-164h-142zM250 1311v164h141v-164h-141z" />
    <glyph glyph-name="aring" unicode="&#xe5;" horiz-adv-x="1142" 
d="M426 -16q-159 0 -246.5 88t-87.5 217q0 335 588 352l145 4v27q0 157 -71.5 220.5t-229.5 63.5q-196 0 -348 -67v119q167 59 352 59q212 0 319 -94t107 -301v-672h-125v166h-8q-141 -182 -395 -182zM463 92q165 0 263.5 100t98.5 259v86l-145 -5q-168 -5 -270.5 -37.5
t-142.5 -82t-40 -121.5q0 -92 61 -145.5t175 -53.5zM545 1204q-82 0 -139.5 57.5t-57.5 139.5t57.5 139t139.5 57t139 -57t57 -139t-57 -139.5t-139 -57.5zM545 1278q51 0 87 36t36 87t-36 87t-87 36t-87 -36t-36 -87t36 -87t87 -36z" />
    <glyph glyph-name="ae" unicode="&#xe6;" horiz-adv-x="1812" 
d="M524 1067q295 0 381 -213q62 103 158.5 158t220.5 55q78 0 141.5 -20t105.5 -52t73.5 -78.5t48.5 -92t27 -100.5t13 -95.5t3 -85.5v-41h-750q12 -197 111.5 -303.5t285.5 -106.5q144 0 277 68v-119q-132 -57 -287 -57q-316 0 -454 254q-46 -77 -108.5 -131t-127.5 -79
t-117 -34.5t-102 -9.5q-156 0 -244 75.5t-88 216.5q0 52 12.5 95t33.5 75t53.5 57.5t66 42.5t78.5 29t84 19t89.5 10.5t87.5 4.5t85 1h149q0 59 -4 100t-22 91.5t-49.5 81t-91.5 52t-144 21.5q-185 0 -340 -67v117q164 61 344 61zM459 92q162 0 267 98.5t105 266.5v45h-167
q-102 0 -179.5 -11.5t-136.5 -37t-90 -69t-31 -105.5q0 -89 59.5 -138t172.5 -49zM1278 958q-140 0 -230 -93t-102 -255h615q1 21 -1 45t-8.5 59t-18 67t-33 65t-50.5 57t-73.5 39.5t-98.5 15.5z" />
    <glyph glyph-name="ccedilla" unicode="&#xe7;" horiz-adv-x="993" 
d="M547 -393q-83 0 -144 47l46 72q39 -29 81 -29q41 0 70 24.5t29 67.5q0 84 -111 84q-19 0 -37 -4l11 131q-182 41 -277.5 182t-95.5 357q0 241 137.5 384.5t382.5 143.5q110 0 219 -31v-114q-5 1 -35 8.5t-53.5 12.5t-63 10t-77.5 5q-178 0 -276.5 -113t-98.5 -310
q0 -209 102 -326t285 -117q105 0 225 47v-114q-104 -41 -223 -41q-28 0 -68 4l-2 -39q73 2 118.5 -41.5t45.5 -116.5q0 -75 -50 -129.5t-140 -54.5z" />
    <glyph glyph-name="egrave" unicode="&#xe8;" horiz-adv-x="1177" 
d="M1061 487h-813q12 -187 118.5 -291t301.5 -104q169 0 317 68v-119q-148 -57 -321 -57q-256 0 -400.5 145.5t-144.5 413.5q0 243 136 383.5t355 140.5q451 0 451 -539v-41zM610 958q-154 0 -250.5 -96.5t-109.5 -265.5h676q1 23 -0.5 47t-8.5 61t-19.5 70t-36.5 67.5
t-56.5 59.5t-82.5 41t-112 16zM557 1249l-274 267h192l184 -267h-102z" />
    <glyph glyph-name="eacute" unicode="&#xe9;" horiz-adv-x="1177" 
d="M1061 487h-813q12 -187 118.5 -291t301.5 -104q169 0 317 68v-119q-148 -57 -321 -57q-256 0 -400.5 145.5t-144.5 413.5q0 243 136 383.5t355 140.5q451 0 451 -539v-41zM610 958q-154 0 -250.5 -96.5t-109.5 -265.5h676q1 23 -0.5 47t-8.5 61t-19.5 70t-36.5 67.5
t-56.5 59.5t-82.5 41t-112 16zM545 1249l184 267h193l-275 -267h-102z" />
    <glyph glyph-name="ecircumflex" unicode="&#xea;" horiz-adv-x="1177" 
d="M1061 487h-813q12 -187 118.5 -291t301.5 -104q169 0 317 68v-119q-148 -57 -321 -57q-256 0 -400.5 145.5t-144.5 413.5q0 243 136 383.5t355 140.5q451 0 451 -539v-41zM610 958q-154 0 -250.5 -96.5t-109.5 -265.5h676q1 23 -0.5 47t-8.5 61t-19.5 70t-36.5 67.5
t-56.5 59.5t-82.5 41t-112 16zM293 1249l225 267h156l225 -267h-123l-180 197l-180 -197h-123z" />
    <glyph glyph-name="edieresis" unicode="&#xeb;" horiz-adv-x="1177" 
d="M1061 487h-813q12 -187 118.5 -291t301.5 -104q169 0 317 68v-119q-148 -57 -321 -57q-256 0 -400.5 145.5t-144.5 413.5q0 243 136 383.5t355 140.5q451 0 451 -539v-41zM610 958q-154 0 -250.5 -96.5t-109.5 -265.5h676q1 23 -0.5 47t-8.5 61t-19.5 70t-36.5 67.5
t-56.5 59.5t-82.5 41t-112 16zM750 1311v164h141v-164h-141zM301 1311v164h141v-164h-141z" />
    <glyph glyph-name="igrave" unicode="&#xec;" horiz-adv-x="593" 
d="M233 0v1051h129v-1051h-129zM258 1249l-274 267h192l184 -267h-102z" />
    <glyph glyph-name="iacute" unicode="&#xed;" horiz-adv-x="593" 
d="M233 0v1051h129v-1051h-129zM246 1249l184 267h193l-275 -267h-102z" />
    <glyph glyph-name="icircumflex" unicode="&#xee;" horiz-adv-x="593" 
d="M233 0v1051h129v-1051h-129zM35 1249l184 267h156l184 -267h-123l-139 197l-139 -197h-123z" />
    <glyph glyph-name="idieresis" unicode="&#xef;" horiz-adv-x="593" 
d="M233 0v1051h129v-1051h-129zM358 1311v164h142v-164h-142zM94 1311v164h142v-164h-142z" />
    <glyph glyph-name="eth" unicode="&#xf0;" horiz-adv-x="1269" 
d="M618 -16q-73 0 -141.5 17.5t-134.5 58t-115 100t-78.5 151.5t-29.5 205q0 137 40 244.5t108.5 173t155 99.5t185.5 34q125 0 232.5 -54.5t179.5 -158.5h10q-20 203 -119.5 338.5t-261.5 206.5l-98 -262l-86 32l98 263q-132 39 -268 45l14 100q159 -9 291 -49l84 223
l86 -33l-84 -221q465 -192 465 -819q0 -694 -533 -694zM625 92q78 0 147.5 28.5t123.5 81.5t86 136.5t32 187.5t-32 187.5t-87 136t-126 80.5t-151 28q-154 0 -259 -115t-105 -327q0 -104 30 -186t82 -133.5t118 -78t141 -26.5z" />
    <glyph glyph-name="ntilde" unicode="&#xf1;" horiz-adv-x="1249" 
d="M188 0v1051h125v-152h4q62 74 156 121t217 47q91 0 160.5 -26t110.5 -66t67.5 -95.5t35.5 -107t9 -106.5v-666h-129v651q0 307 -266 307q-154 0 -257.5 -97.5t-103.5 -246.5v-614h-129zM342 1313q-4 77 42.5 124.5t119.5 47.5q61 0 158 -39q6 -3 24 -10t24.5 -9.5
t19 -6.5t21.5 -5.5t19 -1.5q27 0 51 14.5t31 51.5h78q3 -70 -37.5 -118t-118.5 -48q-57 0 -141 30q-4 2 -16 7t-15.5 6.5t-13.5 6t-13.5 6t-12 4.5t-12.5 4t-11 3t-11.5 2.5t-10.5 1t-11 0.5q-27 0 -52 -16.5t-34 -54.5h-78z" />
    <glyph glyph-name="ograve" unicode="&#xf2;" horiz-adv-x="1269" 
d="M635 -16q-232 0 -374 148t-142 392q0 246 141.5 394.5t374.5 148.5t374.5 -148.5t141.5 -394.5q0 -244 -142 -392t-374 -148zM635 92q77 0 141.5 25.5t108 68t73.5 99t44 116.5t14 123t-14 124t-44 117.5t-73.5 99t-108 68t-141.5 25.5t-141.5 -25.5t-108 -68t-73.5 -99
t-44 -117.5t-14 -124t14 -123t44 -116.5t73.5 -99t108 -68t141.5 -25.5zM596 1249l-274 267h192l184 -267h-102z" />
    <glyph glyph-name="oacute" unicode="&#xf3;" horiz-adv-x="1269" 
d="M635 -16q-232 0 -374 148t-142 392q0 246 141.5 394.5t374.5 148.5t374.5 -148.5t141.5 -394.5q0 -244 -142 -392t-374 -148zM635 92q77 0 141.5 25.5t108 68t73.5 99t44 116.5t14 123t-14 124t-44 117.5t-73.5 99t-108 68t-141.5 25.5t-141.5 -25.5t-108 -68t-73.5 -99
t-44 -117.5t-14 -124t14 -123t44 -116.5t73.5 -99t108 -68t141.5 -25.5zM584 1249l184 267h193l-275 -267h-102z" />
    <glyph glyph-name="ocircumflex" unicode="&#xf4;" horiz-adv-x="1269" 
d="M635 -16q-232 0 -374 148t-142 392q0 246 141.5 394.5t374.5 148.5t374.5 -148.5t141.5 -394.5q0 -244 -142 -392t-374 -148zM635 92q77 0 141.5 25.5t108 68t73.5 99t44 116.5t14 123t-14 124t-44 117.5t-73.5 99t-108 68t-141.5 25.5t-141.5 -25.5t-108 -68t-73.5 -99
t-44 -117.5t-14 -124t14 -123t44 -116.5t73.5 -99t108 -68t141.5 -25.5zM332 1249l225 267h156l225 -267h-123l-180 197l-180 -197h-123z" />
    <glyph glyph-name="otilde" unicode="&#xf5;" horiz-adv-x="1269" 
d="M635 -16q-232 0 -374 148t-142 392q0 246 141.5 394.5t374.5 148.5t374.5 -148.5t141.5 -394.5q0 -244 -142 -392t-374 -148zM635 92q77 0 141.5 25.5t108 68t73.5 99t44 116.5t14 123t-14 124t-44 117.5t-73.5 99t-108 68t-141.5 25.5t-141.5 -25.5t-108 -68t-73.5 -99
t-44 -117.5t-14 -124t14 -123t44 -116.5t73.5 -99t108 -68t141.5 -25.5zM342 1313q-4 77 42.5 124.5t119.5 47.5q61 0 158 -39q6 -3 24 -10t24.5 -9.5t19 -6.5t21.5 -5.5t19 -1.5q27 0 51 14.5t31 51.5h78q3 -70 -37.5 -118t-118.5 -48q-57 0 -141 30q-4 2 -16 7t-15.5 6.5
t-13.5 6t-13.5 6t-12 4.5t-12.5 4t-11 3t-11.5 2.5t-10.5 1t-11 0.5q-27 0 -52 -16.5t-34 -54.5h-78z" />
    <glyph glyph-name="odieresis" unicode="&#xf6;" horiz-adv-x="1269" 
d="M635 -16q-232 0 -374 148t-142 392q0 246 141.5 394.5t374.5 148.5t374.5 -148.5t141.5 -394.5q0 -244 -142 -392t-374 -148zM635 92q77 0 141.5 25.5t108 68t73.5 99t44 116.5t14 123t-14 124t-44 117.5t-73.5 99t-108 68t-141.5 25.5t-141.5 -25.5t-108 -68t-73.5 -99
t-44 -117.5t-14 -124t14 -123t44 -116.5t73.5 -99t108 -68t141.5 -25.5zM788 1311v164h142v-164h-142zM340 1311v164h141v-164h-141z" />
    <glyph glyph-name="divide" unicode="&#xf7;" horiz-adv-x="1187" 
d="M102 659v115h983v-115h-983zM594 180q-51 0 -87 36t-36 87t36 87t87 36t87 -36t36 -87t-36 -87t-87 -36zM594 1008q-51 0 -87 35.5t-36 86.5t36 87t87 36t87 -36t36 -87t-36 -86.5t-87 -35.5z" />
    <glyph glyph-name="oslash" unicode="&#xf8;" horiz-adv-x="1269" 
d="M635 -16q-178 0 -305 88l-119 -140l-84 72l119 143q-127 142 -127 377q0 246 141.5 394.5t374.5 148.5q178 0 307 -90l115 135l86 -72l-117 -139q125 -147 125 -377q0 -244 -142 -392t-374 -148zM254 524q0 -156 78 -274l532 633q-94 75 -229 75q-77 0 -141.5 -25.5
t-108 -68t-73.5 -99t-44 -117.5t-14 -124zM635 92q77 0 141.5 25.5t108 68t73.5 99t44 116.5t14 123q0 155 -78 273l-530 -631q90 -74 227 -74z" />
    <glyph glyph-name="ugrave" unicode="&#xf9;" horiz-adv-x="1249" 
d="M1061 1051v-1051h-125v152h-6q-61 -75 -155 -121.5t-216 -46.5q-90 0 -160 26.5t-111 67.5t-67.5 97.5t-35.5 108.5t-9 107v660h129v-652q0 -307 266 -307q155 0 258 98t103 248v613h129zM575 1249l-274 267h193l184 -267h-103z" />
    <glyph glyph-name="uacute" unicode="&#xfa;" horiz-adv-x="1249" 
d="M1061 1051v-1051h-125v152h-6q-61 -75 -155 -121.5t-216 -46.5q-90 0 -160 26.5t-111 67.5t-67.5 97.5t-35.5 108.5t-9 107v660h129v-652q0 -307 266 -307q155 0 258 98t103 248v613h129zM563 1249l185 267h192l-274 -267h-103z" />
    <glyph glyph-name="ucircumflex" unicode="&#xfb;" horiz-adv-x="1249" 
d="M1061 1051v-1051h-125v152h-6q-61 -75 -155 -121.5t-216 -46.5q-90 0 -160 26.5t-111 67.5t-67.5 97.5t-35.5 108.5t-9 107v660h129v-652q0 -307 266 -307q155 0 258 98t103 248v613h129zM311 1249l226 267h155l226 -267h-123l-181 197l-180 -197h-123z" />
    <glyph glyph-name="udieresis" unicode="&#xfc;" horiz-adv-x="1249" 
d="M1061 1051v-1051h-125v152h-6q-61 -75 -155 -121.5t-216 -46.5q-90 0 -160 26.5t-111 67.5t-67.5 97.5t-35.5 108.5t-9 107v660h129v-652q0 -307 266 -307q155 0 258 98t103 248v613h129zM768 1311v164h141v-164h-141zM319 1311v164h142v-164h-142z" />
    <glyph glyph-name="yacute" unicode="&#xfd;" horiz-adv-x="1126" 
d="M295 -451q-16 0 -33.5 2t-32 4.5t-26 5.5t-18.5 5l-7 2v117q48 -19 101 -19q49 0 81 27.5t64 107.5l70 170l-435 1080h140l362 -906h8l361 906h137l-518 -1274q-21 -52 -40.5 -87.5t-49.5 -70.5t-71 -52.5t-93 -17.5zM502 1249l184 267h193l-275 -267h-102z" />
    <glyph glyph-name="thorn" unicode="&#xfe;" horiz-adv-x="1290" 
d="M317 -451h-129v2012h129v-674h7q147 180 360 180t350 -149t137 -394q0 -249 -130 -394.5t-345 -145.5q-125 0 -222.5 55.5t-151.5 146.5h-5v-637zM682 92q151 0 252.5 116.5t101.5 313.5q0 191 -99 313.5t-257 122.5q-161 0 -263 -122.5t-102 -313.5q0 -90 23 -164
t60 -122t86 -81.5t98.5 -48t99.5 -14.5z" />
    <glyph glyph-name="ydieresis" unicode="&#xff;" horiz-adv-x="1126" 
d="M295 -451q-16 0 -33.5 2t-32 4.5t-26 5.5t-18.5 5l-7 2v117q48 -19 101 -19q49 0 81 27.5t64 107.5l70 170l-435 1080h140l362 -906h8l361 906h137l-518 -1274q-21 -52 -40.5 -87.5t-49.5 -70.5t-71 -52.5t-93 -17.5zM707 1311v164h141v-164h-141zM258 1311v164h141v-164
h-141z" />
    <glyph glyph-name="Amacron" unicode="&#x100;" horiz-adv-x="1413" 
d="M78 0l540 1434h177l540 -1434h-147l-146 393h-675l-146 -393h-143zM705 1298l-295 -788h589l-290 788h-4zM434 1606v110h547v-110h-547z" />
    <glyph glyph-name="amacron" unicode="&#x101;" horiz-adv-x="1142" 
d="M426 -16q-159 0 -246.5 88t-87.5 217q0 335 588 352l145 4v27q0 157 -71.5 220.5t-229.5 63.5q-196 0 -348 -67v119q167 59 352 59q212 0 319 -94t107 -301v-672h-125v166h-8q-141 -182 -395 -182zM463 92q165 0 263.5 100t98.5 259v86l-145 -5q-168 -5 -270.5 -37.5
t-142.5 -82t-40 -121.5q0 -92 61 -145.5t175 -53.5zM287 1352v110h516v-110h-516z" />
    <glyph glyph-name="Abreve" unicode="&#x102;" horiz-adv-x="1413" 
d="M78 0l540 1434h177l540 -1434h-147l-146 393h-675l-146 -393h-143zM705 1298l-295 -788h589l-290 788h-4zM707 1544q-111 0 -200.5 62.5t-129.5 175.5h137q14 -43 49 -71t71 -38t73 -10t72.5 10t70.5 38t49 71h137q-40 -113 -129 -175.5t-200 -62.5z" />
    <glyph glyph-name="abreve" unicode="&#x103;" horiz-adv-x="1142" 
d="M426 -16q-159 0 -246.5 88t-87.5 217q0 335 588 352l145 4v27q0 157 -71.5 220.5t-229.5 63.5q-196 0 -348 -67v119q167 59 352 59q212 0 319 -94t107 -301v-672h-125v166h-8q-141 -182 -395 -182zM463 92q165 0 263.5 100t98.5 259v86l-145 -5q-168 -5 -270.5 -37.5
t-142.5 -82t-40 -121.5q0 -92 61 -145.5t175 -53.5zM545 1278q-111 0 -200.5 62.5t-129.5 175.5h115q63 -132 215 -132t215 132h114q-40 -113 -129 -175.5t-200 -62.5z" />
    <glyph glyph-name="Aogonek" unicode="&#x104;" horiz-adv-x="1413" 
d="M1245 -436q-48 0 -85.5 12t-59 30.5t-35.5 43t-18.5 45t-4.5 41.5q0 129 162 264h-16l-146 393h-675l-146 -393h-143l540 1434h177l540 -1434q-168 -142 -168 -240q0 -43 24 -62.5t54 -19.5q22 0 49.5 8t42.5 19l27 -98q-22 -17 -50.5 -27.5t-44 -13t-24.5 -2.5z
M705 1298l-295 -788h589l-290 788h-4z" />
    <glyph glyph-name="aogonek" unicode="&#x105;" horiz-adv-x="1142" 
d="M864 -436q-59 0 -101.5 17.5t-63 46t-29 55t-8.5 53.5q0 129 167 268v162h-8q-141 -182 -395 -182q-159 0 -246.5 88t-87.5 217q0 335 588 352l145 4v27q0 157 -71.5 220.5t-229.5 63.5q-196 0 -348 -67v119q167 59 352 59q212 0 319 -94t107 -301v-672
q-168 -142 -168 -240q0 -43 24 -62.5t54 -19.5q22 0 49.5 8t42.5 19l27 -98q-22 -17 -50.5 -27.5t-44 -13t-24.5 -2.5zM463 92q165 0 263.5 100t98.5 259v86l-145 -5q-168 -5 -270.5 -37.5t-142.5 -82t-40 -121.5q0 -92 61 -145.5t175 -53.5z" />
    <glyph glyph-name="Cacute" unicode="&#x106;" horiz-adv-x="1290" 
d="M821 -16q-326 0 -514 199t-188 554q0 320 192.5 516.5t511.5 196.5q194 0 332 -55v-125q-185 63 -326 63q-251 0 -408 -167.5t-157 -434.5q0 -298 151.5 -463.5t411.5 -165.5q193 0 340 62v-125q-163 -55 -346 -55zM719 1550l123 252h192l-213 -252h-102z" />
    <glyph glyph-name="cacute" unicode="&#x107;" horiz-adv-x="993" 
d="M643 -16q-253 0 -388.5 149t-135.5 406q0 241 137.5 384.5t382.5 143.5q110 0 219 -31v-114q-5 1 -35 8.5t-53.5 12.5t-63 10t-77.5 5q-178 0 -276.5 -113t-98.5 -310q0 -209 102 -326t285 -117q105 0 225 47v-114q-104 -41 -223 -41zM498 1249l184 267h192l-274 -267
h-102z" />
    <glyph glyph-name="Ccircumflex" unicode="&#x108;" horiz-adv-x="1290" 
d="M821 -16q-326 0 -514 199t-188 554q0 320 192.5 516.5t511.5 196.5q194 0 332 -55v-125q-185 63 -326 63q-251 0 -408 -167.5t-157 -434.5q0 -298 151.5 -463.5t411.5 -165.5q193 0 340 62v-125q-163 -55 -346 -55zM465 1536l209 246h196l209 -246h-149l-158 176
l-158 -176h-149z" />
    <glyph glyph-name="ccircumflex" unicode="&#x109;" horiz-adv-x="993" 
d="M643 -16q-253 0 -388.5 149t-135.5 406q0 241 137.5 384.5t382.5 143.5q110 0 219 -31v-114q-5 1 -35 8.5t-53.5 12.5t-63 10t-77.5 5q-178 0 -276.5 -113t-98.5 -310q0 -209 102 -326t285 -117q105 0 225 47v-114q-104 -41 -223 -41zM246 1249l225 267h156l225 -267
h-123l-180 197l-180 -197h-123z" />
    <glyph glyph-name="Cdotaccent" unicode="&#x10a;" horiz-adv-x="1290" 
d="M821 -16q-326 0 -514 199t-188 554q0 320 192.5 516.5t511.5 196.5q194 0 332 -55v-125q-185 63 -326 63q-251 0 -408 -167.5t-157 -434.5q0 -298 151.5 -463.5t411.5 -165.5q193 0 340 62v-125q-163 -55 -346 -55zM688 1556v177h168v-177h-168z" />
    <glyph glyph-name="cdotaccent" unicode="&#x10b;" horiz-adv-x="993" 
d="M643 -16q-253 0 -388.5 149t-135.5 406q0 241 137.5 384.5t382.5 143.5q110 0 219 -31v-114q-5 1 -35 8.5t-53.5 12.5t-63 10t-77.5 5q-178 0 -276.5 -113t-98.5 -310q0 -209 102 -326t285 -117q105 0 225 47v-114q-104 -41 -223 -41zM479 1311v164h142v-164h-142z" />
    <glyph glyph-name="Ccaron" unicode="&#x10c;" horiz-adv-x="1290" 
d="M821 -16q-326 0 -514 199t-188 554q0 320 192.5 516.5t511.5 196.5q194 0 332 -55v-125q-185 63 -326 63q-251 0 -408 -167.5t-157 -434.5q0 -298 151.5 -463.5t411.5 -165.5q193 0 340 62v-125q-163 -55 -346 -55zM674 1536l-209 246h164l143 -176l143 176h164
l-209 -246h-196z" />
    <glyph glyph-name="ccaron" unicode="&#x10d;" horiz-adv-x="993" 
d="M643 -16q-253 0 -388.5 149t-135.5 406q0 241 137.5 384.5t382.5 143.5q110 0 219 -31v-114q-5 1 -35 8.5t-53.5 12.5t-63 10t-77.5 5q-178 0 -276.5 -113t-98.5 -310q0 -209 102 -326t285 -117q105 0 225 47v-114q-104 -41 -223 -41zM471 1249l-225 267h123l180 -197
l180 197h123l-225 -267h-156z" />
    <glyph glyph-name="Dcaron" unicode="&#x10e;" horiz-adv-x="1474" 
d="M209 0v1434h436q37 0 67 -1t86.5 -8.5t102.5 -20t105.5 -38.5t106 -61.5t94 -91t79 -125t51 -166.5t19.5 -211q0 -328 -189.5 -519.5t-521.5 -191.5h-436zM344 117h287q125 0 228.5 35.5t183 106.5t123.5 188t44 270q0 123 -26 221t-64 159.5t-96.5 106t-106.5 66
t-113.5 33t-97 13t-75.5 1.5h-287v-1200zM590 1536l-209 246h164l143 -176l143 176h164l-209 -246h-196z" />
    <glyph glyph-name="dcaron" unicode="&#x10f;" horiz-adv-x="1310" 
d="M594 -16q-215 0 -345 145.5t-130 394.5q0 245 137 394t350 149q219 0 363 -184h4v678h129v-1561h-125v186h-4q-59 -92 -156 -147t-223 -55zM608 92q50 0 99.5 14.5t98.5 48t86 81.5t60 122t23 164q0 191 -102 313.5t-263 122.5q-158 0 -257 -122.5t-99 -313.5
q0 -197 101.5 -313.5t252.5 -116.5zM1192 1217l82 344h143l-123 -344h-102z" />
    <glyph glyph-name="Dcroat" unicode="&#x110;" horiz-adv-x="1474" 
d="M209 0v709h-162v90h162v635h436q37 0 67 -1t86.5 -8.5t102.5 -20t105.5 -38.5t106 -61.5t94 -91t79 -125t51 -166.5t19.5 -211q0 -328 -189.5 -519.5t-521.5 -191.5h-436zM344 117h287q125 0 228.5 35.5t183 106.5t123.5 188t44 270q0 123 -26 221t-64 159.5t-96.5 106
t-106.5 66t-113.5 33t-97 13t-75.5 1.5h-287v-518h404v-90h-404v-592z" />
    <glyph glyph-name="dcroat" unicode="&#x111;" horiz-adv-x="1290" 
d="M559 1260v108h414v193h129v-193h201v-108h-201v-1260h-125v186h-4q-59 -92 -156 -147t-223 -55q-215 0 -345 145.5t-130 394.5q0 245 137 394t350 149q219 0 363 -184h4v377h-414zM608 92q50 0 99.5 14.5t98.5 48t86 81.5t60 122t23 164q0 191 -102 313.5t-263 122.5
q-158 0 -257 -122.5t-99 -313.5q0 -197 101.5 -313.5t252.5 -116.5z" />
    <glyph glyph-name="Emacron" unicode="&#x112;" horiz-adv-x="1105" 
d="M209 0v1434h766v-117h-631v-518h592v-117h-592v-565h651v-117h-786zM326 1606v110h546v-110h-546z" />
    <glyph glyph-name="emacron" unicode="&#x113;" horiz-adv-x="1177" 
d="M1061 487h-813q12 -187 118.5 -291t301.5 -104q169 0 317 68v-119q-148 -57 -321 -57q-256 0 -400.5 145.5t-144.5 413.5q0 243 136 383.5t355 140.5q451 0 451 -539v-41zM610 958q-154 0 -250.5 -96.5t-109.5 -265.5h676q1 23 -0.5 47t-8.5 61t-19.5 70t-36.5 67.5
t-56.5 59.5t-82.5 41t-112 16zM338 1352v110h516v-110h-516z" />
    <glyph glyph-name="Edotaccent" unicode="&#x116;" horiz-adv-x="1105" 
d="M209 0v1434h766v-117h-631v-518h592v-117h-592v-565h651v-117h-786zM514 1556v177h168v-177h-168z" />
    <glyph glyph-name="edotaccent" unicode="&#x117;" horiz-adv-x="1177" 
d="M1061 487h-813q12 -187 118.5 -291t301.5 -104q169 0 317 68v-119q-148 -57 -321 -57q-256 0 -400.5 145.5t-144.5 413.5q0 243 136 383.5t355 140.5q451 0 451 -539v-41zM610 958q-154 0 -250.5 -96.5t-109.5 -265.5h676q1 23 -0.5 47t-8.5 61t-19.5 70t-36.5 67.5
t-56.5 59.5t-82.5 41t-112 16zM526 1311v164h142v-164h-142z" />
    <glyph glyph-name="Eogonek" unicode="&#x118;" horiz-adv-x="1105" 
d="M209 0v1434h766v-117h-631v-518h592v-117h-592v-565h651v-113l4 -4q-168 -142 -168 -240q0 -43 24 -62.5t54 -19.5q22 0 49.5 8t42.5 19l27 -98q-22 -17 -50.5 -27.5t-44 -13t-24.5 -2.5q-59 0 -101.5 17.5t-63 46t-29 55t-8.5 53.5q0 130 161 264h-659z" />
    <glyph glyph-name="eogonek" unicode="&#x119;" horiz-adv-x="1177" 
d="M119 543q0 243 134.5 383.5t352.5 140.5q455 0 455 -539v-41h-811q12 -188 117.5 -291.5t300.5 -103.5q167 0 317 68v-113q-174 -171 -174 -287q0 -43 24 -62.5t54 -19.5q22 0 49.5 8t42.5 19l27 -98q-22 -17 -50.5 -27.5t-44 -13t-24.5 -2.5q-59 0 -102 17.5t-63.5 46
t-29 56t-8.5 56.5q0 129 137 258q-80 -14 -166 -14q-251 0 -394.5 146t-143.5 413zM250 596h676q1 23 -0.5 47t-8.5 61t-19.5 70t-37 67.5t-57 59.5t-83.5 41t-114 16q-152 0 -246.5 -96.5t-109.5 -265.5z" />
    <glyph glyph-name="Ecaron" unicode="&#x11a;" horiz-adv-x="1105" 
d="M209 0v1434h766v-117h-631v-518h592v-117h-592v-565h651v-117h-786zM500 1536l-209 246h164l143 -176l143 176h164l-209 -246h-196z" />
    <glyph glyph-name="ecaron" unicode="&#x11b;" horiz-adv-x="1177" 
d="M1061 487h-813q12 -187 118.5 -291t301.5 -104q169 0 317 68v-119q-148 -57 -321 -57q-256 0 -400.5 145.5t-144.5 413.5q0 243 136 383.5t355 140.5q451 0 451 -539v-41zM610 958q-154 0 -250.5 -96.5t-109.5 -265.5h676q1 23 -0.5 47t-8.5 61t-19.5 70t-36.5 67.5
t-56.5 59.5t-82.5 41t-112 16zM518 1249l-225 267h123l180 -197l180 197h123l-225 -267h-156z" />
    <glyph glyph-name="Gcircumflex" unicode="&#x11c;" horiz-adv-x="1464" 
d="M836 -16q-152 0 -282.5 49.5t-227 141t-152 231.5t-55.5 313q0 337 192 534t520 197q228 0 392 -68v-133q-53 26 -164.5 53t-229.5 27q-119 0 -221 -39.5t-179 -114t-121 -192t-44 -264.5q0 -177 65 -315.5t195.5 -221t309.5 -82.5q155 0 313 50v483h-381v117h516v-684
q-207 -82 -446 -82zM473 1536l209 246h197l208 -246h-149l-158 176l-157 -176h-150z" />
    <glyph glyph-name="gcircumflex" unicode="&#x11d;" horiz-adv-x="1290" 
d="M565 -459q-174 0 -340 58v122q156 -67 363 -67q385 0 385 336v196h-4q-62 -98 -160 -150t-215 -52q-215 0 -345 145.5t-130 396.5q0 243 137 392t350 149q214 0 361 -180h10v164h125v-1037q0 -33 -1 -57t-6.5 -63.5t-15 -70t-29 -69t-46 -67t-67.5 -57.5t-92.5 -47.5
t-123 -30t-156.5 -11.5zM608 92q50 0 99.5 14.5t98.5 48t86 81.5t60 122t23 164q0 191 -102 313.5t-263 122.5q-158 0 -257 -122.5t-99 -313.5q0 -197 101.5 -313.5t252.5 -116.5zM313 1249l226 267h155l226 -267h-123l-181 197l-180 -197h-123z" />
    <glyph glyph-name="Gbreve" unicode="&#x11e;" horiz-adv-x="1464" 
d="M836 -16q-152 0 -282.5 49.5t-227 141t-152 231.5t-55.5 313q0 337 192 534t520 197q228 0 392 -68v-133q-53 26 -164.5 53t-229.5 27q-119 0 -221 -39.5t-179 -114t-121 -192t-44 -264.5q0 -177 65 -315.5t195.5 -221t309.5 -82.5q155 0 313 50v483h-381v117h516v-684
q-207 -82 -446 -82zM780 1544q-111 0 -200 62.5t-129 175.5h137q14 -43 49 -71t70.5 -38t72.5 -10t73 10t71 38t49 71h137q-40 -113 -129.5 -175.5t-200.5 -62.5z" />
    <glyph glyph-name="gbreve" unicode="&#x11f;" horiz-adv-x="1290" 
d="M565 -459q-174 0 -340 58v122q156 -67 363 -67q385 0 385 336v196h-4q-62 -98 -160 -150t-215 -52q-215 0 -345 145.5t-130 396.5q0 243 137 392t350 149q214 0 361 -180h10v164h125v-1037q0 -33 -1 -57t-6.5 -63.5t-15 -70t-29 -69t-46 -67t-67.5 -57.5t-92.5 -47.5
t-123 -30t-156.5 -11.5zM608 92q50 0 99.5 14.5t98.5 48t86 81.5t60 122t23 164q0 191 -102 313.5t-263 122.5q-158 0 -257 -122.5t-99 -313.5q0 -197 101.5 -313.5t252.5 -116.5zM616 1278q-111 0 -200 62.5t-129 175.5h114q63 -132 215 -132t215 132h115
q-40 -113 -129.5 -175.5t-200.5 -62.5z" />
    <glyph glyph-name="Gdotaccent" unicode="&#x120;" horiz-adv-x="1464" 
d="M836 -16q-152 0 -282.5 49.5t-227 141t-152 231.5t-55.5 313q0 337 192 534t520 197q228 0 392 -68v-133q-53 26 -164.5 53t-229.5 27q-119 0 -221 -39.5t-179 -114t-121 -192t-44 -264.5q0 -177 65 -315.5t195.5 -221t309.5 -82.5q155 0 313 50v483h-381v117h516v-684
q-207 -82 -446 -82zM696 1556v177h168v-177h-168z" />
    <glyph glyph-name="gdotaccent" unicode="&#x121;" horiz-adv-x="1290" 
d="M565 -459q-174 0 -340 58v122q156 -67 363 -67q385 0 385 336v196h-4q-62 -98 -160 -150t-215 -52q-215 0 -345 145.5t-130 396.5q0 243 137 392t350 149q214 0 361 -180h10v164h125v-1037q0 -33 -1 -57t-6.5 -63.5t-15 -70t-29 -69t-46 -67t-67.5 -57.5t-92.5 -47.5
t-123 -30t-156.5 -11.5zM608 92q50 0 99.5 14.5t98.5 48t86 81.5t60 122t23 164q0 191 -102 313.5t-263 122.5q-158 0 -257 -122.5t-99 -313.5q0 -197 101.5 -313.5t252.5 -116.5zM547 1311v164h141v-164h-141z" />
    <glyph glyph-name="uni0122" unicode="&#x122;" horiz-adv-x="1464" 
d="M836 -16q-152 0 -282.5 49.5t-227 141t-152 231.5t-55.5 313q0 337 192 534t520 197q228 0 392 -68v-133q-53 26 -164.5 53t-229.5 27q-119 0 -221 -39.5t-179 -114t-121 -192t-44 -264.5q0 -177 65 -315.5t195.5 -221t309.5 -82.5q155 0 313 50v483h-381v117h516v-684
q-207 -82 -446 -82zM590 -451l82 349h143l-123 -349h-102z" />
    <glyph glyph-name="uni0123" unicode="&#x123;" horiz-adv-x="1290" 
d="M565 -459q-174 0 -340 58v122q156 -67 363 -67q385 0 385 336v196h-4q-62 -98 -160 -150t-215 -52q-215 0 -345 145.5t-130 396.5q0 243 137 392t350 149q214 0 361 -180h10v164h125v-1037q0 -33 -1 -57t-6.5 -63.5t-15 -70t-29 -69t-46 -67t-67.5 -57.5t-92.5 -47.5
t-123 -30t-156.5 -11.5zM608 92q50 0 99.5 14.5t98.5 48t86 81.5t60 122t23 164q0 191 -102 313.5t-263 122.5q-158 0 -257 -122.5t-99 -313.5q0 -197 101.5 -313.5t252.5 -116.5zM543 1212l123 349h102l-82 -349h-143z" />
    <glyph glyph-name="Hcircumflex" unicode="&#x124;" horiz-adv-x="1474" 
d="M209 0v1434h135v-633h786v633h136v-1434h-136v684h-786v-684h-135zM430 1536l209 246h197l208 -246h-149l-158 176l-157 -176h-150z" />
    <glyph glyph-name="hcircumflex" unicode="&#x125;" horiz-adv-x="1249" 
d="M188 0v1561h129v-684q55 84 151 137t218 53q92 0 162.5 -27t112 -68t68 -97.5t35.5 -108t9 -107.5v-659h-129v649q0 47 -6 87.5t-24 82.5t-46.5 71.5t-77 48.5t-112.5 19q-153 0 -257 -102t-104 -244v-612h-129zM-53 1632l225 266h156l225 -266h-123l-180 197l-180 -197
h-123z" />
    <glyph glyph-name="Hbar" unicode="&#x126;" horiz-adv-x="1495" 
d="M219 0v1077h-147v109h147v248h135v-248h787v248h135v-248h147v-109h-147v-1077h-135v684h-787v-684h-135zM354 801h787v276h-787v-276z" />
    <glyph glyph-name="hbar" unicode="&#x127;" horiz-adv-x="1249" 
d="M6 1260v108h182v193h129v-193h433v-108h-433v-383q55 84 151 137t218 53q92 0 162.5 -27t112 -68t68 -97.5t35.5 -108t9 -107.5v-659h-129v649q0 47 -6 87.5t-24 82.5t-46.5 71.5t-77 48.5t-112.5 19q-153 0 -257 -102t-104 -244v-612h-129v1260h-182z" />
    <glyph glyph-name="Imacron" unicode="&#x12a;" horiz-adv-x="634" 
d="M250 0v1434h135v-1434h-135zM106 1606v110h404v-110h-404z" />
    <glyph glyph-name="imacron" unicode="&#x12b;" horiz-adv-x="593" 
d="M233 0v1051h129v-1051h-129zM80 1352v110h434v-110h-434z" />
    <glyph glyph-name="Iogonek" unicode="&#x12e;" horiz-adv-x="634" 
d="M250 0v1434h135v-1434q-168 -142 -168 -240q0 -43 24 -62.5t54 -19.5q22 0 49.5 8t42.5 19l27 -98q-22 -17 -50.5 -27.5t-44 -13t-24.5 -2.5q-48 0 -85.5 12t-59 30.5t-35.5 43t-18.5 45t-4.5 41.5q0 129 162 264h-4z" />
    <glyph glyph-name="iogonek" unicode="&#x12f;" horiz-adv-x="593" 
d="M272 -436q-59 0 -101.5 17.5t-63 46t-29 55t-8.5 53.5q0 130 163 264v1051h129v-1051q-167 -141 -167 -240q0 -43 23.5 -62.5t53.5 -19.5q22 0 50 8t43 19l26 -98q-22 -17 -50.5 -27.5t-44 -13t-24.5 -2.5zM227 1311v164h142v-164h-142z" />
    <glyph glyph-name="Idotaccent" unicode="&#x130;" horiz-adv-x="634" 
d="M250 0v1434h135v-1434h-135zM233 1556v177h168v-177h-168z" />
    <glyph glyph-name="dotlessi" unicode="&#x131;" horiz-adv-x="593" 
d="M233 0v1051h129v-1051h-129z" />
    <glyph glyph-name="Jcircumflex" unicode="&#x134;" horiz-adv-x="778" 
d="M250 -16q-115 0 -207 36v123q101 -39 197 -39q99 0 148.5 60.5t49.5 193.5v1076h135v-1080q0 -187 -84 -278.5t-239 -91.5zM193 1536l208 246h197l209 -246h-150l-157 176l-158 -176h-149z" />
    <glyph glyph-name="jcircumflex" unicode="&#x135;" horiz-adv-x="593" 
d="M127 -459q-59 0 -117 17v104q40 -12 94 -12q28 0 47.5 5.5t40 22t31 53.5t10.5 93v1227h129v-1215q0 -41 -3 -73.5t-16.5 -76.5t-37 -73.5t-69.5 -50.5t-109 -21zM35 1249l184 267h156l184 -267h-123l-139 197l-139 -197h-123z" />
    <glyph glyph-name="uni0136" unicode="&#x136;" horiz-adv-x="1320" 
d="M209 0v1434h135v-617h246l475 617h170l-520 -672l575 -762h-180l-516 700h-250v-700h-135zM512 -451l82 349h143l-123 -349h-102z" />
    <glyph glyph-name="uni0137" unicode="&#x137;" horiz-adv-x="1136" 
d="M188 0v1561h129v-1055l572 545h178l-471 -445l506 -606h-170l-430 518l-185 -176v-342h-129zM446 -451l82 349h144l-123 -349h-103z" />
    <glyph glyph-name="Lacute" unicode="&#x139;" horiz-adv-x="1064" 
d="M209 0v1434h135v-1317h670v-117h-805zM229 1550l123 252h193l-213 -252h-103z" />
    <glyph glyph-name="lacute" unicode="&#x13a;" horiz-adv-x="593" 
d="M233 0v1561h129v-1561h-129zM246 1620l184 266h193l-275 -266h-102z" />
    <glyph glyph-name="uni013B" unicode="&#x13b;" horiz-adv-x="1064" 
d="M209 0v1434h135v-1317h670v-117h-805zM389 -451l82 349h143l-122 -349h-103z" />
    <glyph glyph-name="uni013C" unicode="&#x13c;" horiz-adv-x="593" 
d="M233 0v1561h129v-1561h-129zM147 -451l82 349h144l-123 -349h-103z" />
    <glyph glyph-name="Lcaron" unicode="&#x13d;" horiz-adv-x="1064" 
d="M594 1065l82 369h155l-126 -369h-111zM209 0v1434h135v-1317h670v-117h-805z" />
    <glyph glyph-name="lcaron" unicode="&#x13e;" horiz-adv-x="593" 
d="M233 0v1561h129v-1561h-129zM422 1217l82 344h143l-123 -344h-102z" />
    <glyph glyph-name="Ldot" unicode="&#x13f;" horiz-adv-x="1064" 
d="M729 680v160h160v-160h-160zM209 0v1434h135v-1317h670v-117h-805z" />
    <glyph glyph-name="ldot" unicode="&#x140;" horiz-adv-x="921" 
d="M682 725v160h154v-160h-154zM233 0v1561h129v-1561h-129z" />
    <glyph glyph-name="Lslash" unicode="&#x141;" horiz-adv-x="1064" 
d="M209 0v532l-172 -106v129l172 107v772h135v-691l371 230v-129l-371 -230v-497h670v-117h-805z" />
    <glyph glyph-name="lslash" unicode="&#x142;" horiz-adv-x="614" 
d="M244 0v709l-232 -144v137l232 144v715h129v-633l229 143v-137l-229 -143v-791h-129z" />
    <glyph glyph-name="Nacute" unicode="&#x143;" horiz-adv-x="1495" 
d="M209 0v1434h174l768 -1256h4l-4 131v1125h135v-1434h-174l-766 1255h-6l4 -131v-1124h-135zM721 1550l123 252h192l-213 -252h-102z" />
    <glyph glyph-name="nacute" unicode="&#x144;" horiz-adv-x="1249" 
d="M188 0v1051h125v-152h4q62 74 156 121t217 47q91 0 160.5 -26t110.5 -66t67.5 -95.5t35.5 -107t9 -106.5v-666h-129v651q0 307 -266 307q-154 0 -257.5 -97.5t-103.5 -246.5v-614h-129zM584 1249l184 267h193l-275 -267h-102z" />
    <glyph glyph-name="uni0145" unicode="&#x145;" horiz-adv-x="1495" 
d="M209 0v1434h174l768 -1256h4l-4 131v1125h135v-1434h-174l-766 1255h-6l4 -131v-1124h-135zM631 -451l82 349h143l-123 -349h-102z" />
    <glyph glyph-name="uni0146" unicode="&#x146;" horiz-adv-x="1249" 
d="M188 0v1051h125v-152h4q62 74 156 121t217 47q91 0 160.5 -26t110.5 -66t67.5 -95.5t35.5 -107t9 -106.5v-666h-129v651q0 307 -266 307q-154 0 -257.5 -97.5t-103.5 -246.5v-614h-129zM471 -451l82 349h143l-123 -349h-102z" />
    <glyph glyph-name="Ncaron" unicode="&#x147;" horiz-adv-x="1495" 
d="M209 0v1434h174l768 -1256h4l-4 131v1125h135v-1434h-174l-766 1255h-6l4 -131v-1124h-135zM676 1536l-209 246h164l143 -176l144 176h163l-209 -246h-196z" />
    <glyph glyph-name="ncaron" unicode="&#x148;" horiz-adv-x="1249" 
d="M188 0v1051h125v-152h4q62 74 156 121t217 47q91 0 160.5 -26t110.5 -66t67.5 -95.5t35.5 -107t9 -106.5v-666h-129v651q0 307 -266 307q-154 0 -257.5 -97.5t-103.5 -246.5v-614h-129zM557 1249l-225 267h123l180 -197l180 197h123l-225 -267h-156z" />
    <glyph glyph-name="Omacron" unicode="&#x14c;" horiz-adv-x="1536" 
d="M768 -16q-138 0 -255.5 48.5t-205.5 139t-138 230.5t-50 313q0 117 25 224.5t77.5 200.5t128 162t183 108.5t235.5 39.5t235.5 -39.5t183 -108.5t128 -162t77.5 -200.5t25 -224.5q0 -173 -50 -313t-138 -230.5t-205.5 -139t-255.5 -48.5zM768 100q77 0 148.5 22t136.5 71
t113.5 119.5t77 174t28.5 228.5t-28.5 229t-77 175t-113.5 120t-136.5 71.5t-148.5 22.5t-148.5 -22.5t-136.5 -71.5t-113.5 -120t-77 -175t-28.5 -229t28.5 -228.5t77 -174t113.5 -119.5t136.5 -71t148.5 -22zM496 1606v110h546v-110h-546z" />
    <glyph glyph-name="omacron" unicode="&#x14d;" horiz-adv-x="1269" 
d="M635 -16q-232 0 -374 148t-142 392q0 246 141.5 394.5t374.5 148.5t374.5 -148.5t141.5 -394.5q0 -244 -142 -392t-374 -148zM635 92q77 0 141.5 25.5t108 68t73.5 99t44 116.5t14 123t-14 124t-44 117.5t-73.5 99t-108 68t-141.5 25.5t-141.5 -25.5t-108 -68t-73.5 -99
t-44 -117.5t-14 -124t14 -123t44 -116.5t73.5 -99t108 -68t141.5 -25.5zM377 1352v110h516v-110h-516z" />
    <glyph glyph-name="Obreve" unicode="&#x14e;" horiz-adv-x="1536" 
d="M768 -16q-138 0 -255.5 48.5t-205.5 139t-138 230.5t-50 313q0 117 25 224.5t77.5 200.5t128 162t183 108.5t235.5 39.5t235.5 -39.5t183 -108.5t128 -162t77.5 -200.5t25 -224.5q0 -173 -50 -313t-138 -230.5t-205.5 -139t-255.5 -48.5zM768 100q77 0 148.5 22t136.5 71
t113.5 119.5t77 174t28.5 228.5t-28.5 229t-77 175t-113.5 120t-136.5 71.5t-148.5 22.5t-148.5 -22.5t-136.5 -71.5t-113.5 -120t-77 -175t-28.5 -229t28.5 -228.5t77 -174t113.5 -119.5t136.5 -71t148.5 -22zM768 1544q-111 0 -200.5 62.5t-129.5 175.5h137q14 -43 49 -71
t71 -38t73 -10t73 10t71 38t49 71h137q-40 -113 -129.5 -175.5t-200.5 -62.5z" />
    <glyph glyph-name="obreve" unicode="&#x14f;" horiz-adv-x="1269" 
d="M635 -16q-232 0 -374 148t-142 392q0 246 141.5 394.5t374.5 148.5t374.5 -148.5t141.5 -394.5q0 -244 -142 -392t-374 -148zM635 92q77 0 141.5 25.5t108 68t73.5 99t44 116.5t14 123t-14 124t-44 117.5t-73.5 99t-108 68t-141.5 25.5t-141.5 -25.5t-108 -68t-73.5 -99
t-44 -117.5t-14 -124t14 -123t44 -116.5t73.5 -99t108 -68t141.5 -25.5zM635 1278q-111 0 -200.5 62.5t-129.5 175.5h115q63 -132 215 -132t215 132h115q-40 -113 -129.5 -175.5t-200.5 -62.5z" />
    <glyph glyph-name="Ohungarumlaut" unicode="&#x150;" horiz-adv-x="1536" 
d="M768 -16q-138 0 -255.5 48.5t-205.5 139t-138 230.5t-50 313q0 117 25 224.5t77.5 200.5t128 162t183 108.5t235.5 39.5t235.5 -39.5t183 -108.5t128 -162t77.5 -200.5t25 -224.5q0 -173 -50 -313t-138 -230.5t-205.5 -139t-255.5 -48.5zM768 100q77 0 148.5 22t136.5 71
t113.5 119.5t77 174t28.5 228.5t-28.5 229t-77 175t-113.5 120t-136.5 71.5t-148.5 22.5t-148.5 -22.5t-136.5 -71.5t-113.5 -120t-77 -175t-28.5 -229t28.5 -228.5t77 -174t113.5 -119.5t136.5 -71t148.5 -22zM827 1550l185 252h184l-266 -252h-103zM520 1550l185 252h184
l-266 -252h-103z" />
    <glyph glyph-name="ohungarumlaut" unicode="&#x151;" horiz-adv-x="1269" 
d="M635 -16q-232 0 -374 148t-142 392q0 246 141.5 394.5t374.5 148.5t374.5 -148.5t141.5 -394.5q0 -244 -142 -392t-374 -148zM635 92q77 0 141.5 25.5t108 68t73.5 99t44 116.5t14 123t-14 124t-44 117.5t-73.5 99t-108 68t-141.5 25.5t-141.5 -25.5t-108 -68t-73.5 -99
t-44 -117.5t-14 -124t14 -123t44 -116.5t73.5 -99t108 -68t141.5 -25.5zM719 1249l192 267h185l-275 -267h-102zM412 1249l192 267h184l-274 -267h-102z" />
    <glyph glyph-name="OE" unicode="&#x152;" horiz-adv-x="1925" 
d="M666 -16q-115 0 -214 48.5t-173.5 139t-117 230.5t-42.5 313q0 117 21 224.5t65.5 200.5t108 162t153.5 108.5t197 39.5q256 0 403 -242v226h721v-117h-586v-518h549v-117h-549v-565h613v-117h-748v223q-72 -117 -175 -178t-226 -61zM666 100q78 0 148 36.5t127.5 108.5
t91.5 193.5t34 276.5t-34.5 277t-92 194.5t-127.5 109.5t-147 37q-78 0 -148 -37t-128 -109.5t-92 -194.5t-34 -277t34 -276.5t92 -193.5t128 -108.5t148 -36.5z" />
    <glyph glyph-name="oe" unicode="&#x153;" horiz-adv-x="1925" 
d="M1446 -16q-317 0 -440 274h-5q-59 -130 -163.5 -202t-241.5 -72q-215 0 -346 148t-131 392q0 246 131 394.5t346 148.5q136 0 240 -70t163 -196h5q58 129 158 197.5t235 68.5q78 0 141.5 -21t105 -53.5t73 -80.5t48.5 -95t27 -103.5t13 -98t3 -87.5v-41h-737
q11 -190 107 -292.5t278 -102.5q144 0 277 68v-119q-132 -57 -287 -57zM254 524q0 -79 20.5 -153.5t60 -138t107.5 -102t154 -38.5t154 38.5t107.5 102t60 138t20.5 153.5q0 80 -20.5 155t-60 138.5t-107.5 102t-154 38.5t-154 -38.5t-107.5 -102t-60 -138.5t-20.5 -155z
M1391 958q-138 0 -224 -96.5t-96 -265.5h602q1 22 -0.5 47t-8.5 61.5t-18 69.5t-32.5 67.5t-50.5 59.5t-73.5 41t-98.5 16z" />
    <glyph glyph-name="Racute" unicode="&#x154;" horiz-adv-x="1280" 
d="M1040 0l-284 582q-56 -9 -121 -9h-291v-573h-135v1434h426q233 0 352 -111.5t119 -318.5q0 -292 -221 -386l315 -618h-160zM344 690h291q170 0 248 76t78 238t-78 237.5t-248 75.5h-291v-627zM588 1550l123 252h192l-213 -252h-102z" />
    <glyph glyph-name="racute" unicode="&#x155;" horiz-adv-x="829" 
d="M188 0v1051h125v-189q74 205 322 205l106 -6v-113q-79 6 -116 6q-66 0 -120.5 -27.5t-88 -69.5t-57 -95.5t-33 -103.5t-9.5 -95v-563h-129zM379 1249l184 267h193l-275 -267h-102z" />
    <glyph glyph-name="uni0156" unicode="&#x156;" horiz-adv-x="1280" 
d="M1040 0l-284 582q-56 -9 -121 -9h-291v-573h-135v1434h426q233 0 352 -111.5t119 -318.5q0 -292 -221 -386l315 -618h-160zM344 690h291q170 0 248 76t78 238t-78 237.5t-248 75.5h-291v-627zM498 -451l82 349h143l-123 -349h-102z" />
    <glyph glyph-name="uni0157" unicode="&#x157;" horiz-adv-x="829" 
d="M188 0v1051h125v-189q74 205 322 205l106 -6v-113q-79 6 -116 6q-66 0 -120.5 -27.5t-88 -69.5t-57 -95.5t-33 -103.5t-9.5 -95v-563h-129zM106 -451l82 349h144l-123 -349h-103z" />
    <glyph glyph-name="Rcaron" unicode="&#x158;" horiz-adv-x="1280" 
d="M1040 0l-284 582q-56 -9 -121 -9h-291v-573h-135v1434h426q233 0 352 -111.5t119 -318.5q0 -292 -221 -386l315 -618h-160zM344 690h291q170 0 248 76t78 238t-78 237.5t-248 75.5h-291v-627zM543 1536l-209 246h164l143 -176l143 176h164l-209 -246h-196z" />
    <glyph glyph-name="rcaron" unicode="&#x159;" horiz-adv-x="829" 
d="M188 0v1051h125v-189q74 205 322 205l106 -6v-113q-79 6 -116 6q-66 0 -120.5 -27.5t-88 -69.5t-57 -95.5t-33 -103.5t-9.5 -95v-563h-129zM352 1249l-225 267h123l180 -197l180 197h123l-225 -267h-156z" />
    <glyph glyph-name="Sacute" unicode="&#x15a;" horiz-adv-x="1085" 
d="M471 -16q-186 0 -354 63v139q82 -37 179.5 -61.5t174.5 -24.5q59 0 117.5 14t113 42t88 79.5t33.5 118.5q0 49 -19.5 92.5t-45.5 73.5t-75.5 64.5t-85.5 54t-99 51.5q-54 27 -78.5 39.5t-72.5 40.5t-72 47.5t-57.5 52.5t-49.5 63.5t-28.5 72.5t-12.5 88q0 51 12 98
t44 95.5t82.5 83.5t134 57t190.5 22q168 0 332 -51v-137q-163 67 -332 67q-81 0 -141.5 -16t-93 -39.5t-52.5 -55.5t-25.5 -57.5t-5.5 -52.5q0 -22 3.5 -42.5t13.5 -39.5t18 -34.5t27 -32.5t30 -28t37 -27t38.5 -24t44 -24.5t44 -23t47.5 -23.5q46 -22 71.5 -35t68.5 -36.5
t68 -42t58.5 -46t53 -56t38.5 -63.5t27.5 -76t8.5 -87q0 -77 -28.5 -143.5t-86 -121.5t-156 -86.5t-227.5 -31.5zM489 1550l123 252h193l-213 -252h-103z" />
    <glyph glyph-name="sacute" unicode="&#x15b;" horiz-adv-x="962" 
d="M424 -16q-161 0 -297 43v127q149 -60 305 -60q122 0 198.5 46.5t76.5 133.5q0 36 -15.5 67t-35.5 51.5t-60.5 43t-67 34t-79.5 32.5q-41 17 -64 26.5t-60.5 28t-59 33.5t-48.5 38.5t-41.5 47.5t-24.5 56.5t-10 68.5q0 127 104.5 196.5t276.5 69.5q150 0 281 -39v-115
q-124 43 -285 43q-49 0 -91 -7.5t-78.5 -24t-57.5 -47t-21 -72.5q0 -24 8 -45.5t17.5 -37t32.5 -32t37.5 -26t48 -24.5t49 -21t55.5 -21q45 -17 67 -26t63 -28t62.5 -34t50.5 -40.5t43 -51t25 -61t11 -76.5q0 -132 -103 -214.5t-313 -82.5zM430 1249l184 267h193l-275 -267
h-102z" />
    <glyph glyph-name="Scircumflex" unicode="&#x15c;" horiz-adv-x="1085" 
d="M471 -16q-186 0 -354 63v139q82 -37 179.5 -61.5t174.5 -24.5q59 0 117.5 14t113 42t88 79.5t33.5 118.5q0 49 -19.5 92.5t-45.5 73.5t-75.5 64.5t-85.5 54t-99 51.5q-54 27 -78.5 39.5t-72.5 40.5t-72 47.5t-57.5 52.5t-49.5 63.5t-28.5 72.5t-12.5 88q0 51 12 98
t44 95.5t82.5 83.5t134 57t190.5 22q168 0 332 -51v-137q-163 67 -332 67q-81 0 -141.5 -16t-93 -39.5t-52.5 -55.5t-25.5 -57.5t-5.5 -52.5q0 -22 3.5 -42.5t13.5 -39.5t18 -34.5t27 -32.5t30 -28t37 -27t38.5 -24t44 -24.5t44 -23t47.5 -23.5q46 -22 71.5 -35t68.5 -36.5
t68 -42t58.5 -46t53 -56t38.5 -63.5t27.5 -76t8.5 -87q0 -77 -28.5 -143.5t-86 -121.5t-156 -86.5t-227.5 -31.5zM236 1536l208 246h197l209 -246h-150l-157 176l-158 -176h-149z" />
    <glyph glyph-name="scircumflex" unicode="&#x15d;" horiz-adv-x="962" 
d="M424 -16q-161 0 -297 43v127q149 -60 305 -60q122 0 198.5 46.5t76.5 133.5q0 36 -15.5 67t-35.5 51.5t-60.5 43t-67 34t-79.5 32.5q-41 17 -64 26.5t-60.5 28t-59 33.5t-48.5 38.5t-41.5 47.5t-24.5 56.5t-10 68.5q0 127 104.5 196.5t276.5 69.5q150 0 281 -39v-115
q-124 43 -285 43q-49 0 -91 -7.5t-78.5 -24t-57.5 -47t-21 -72.5q0 -24 8 -45.5t17.5 -37t32.5 -32t37.5 -26t48 -24.5t49 -21t55.5 -21q45 -17 67 -26t63 -28t62.5 -34t50.5 -40.5t43 -51t25 -61t11 -76.5q0 -132 -103 -214.5t-313 -82.5zM178 1249l225 267h156l225 -267
h-122l-181 197l-180 -197h-123z" />
    <glyph glyph-name="Scedilla" unicode="&#x15e;" horiz-adv-x="1085" 
d="M516 -455q-93 0 -164 54l51 82q46 -33 95 -33q45 0 75.5 29t30.5 81q0 46 -28.5 69t-92.5 23q-21 0 -41 -4l11 138q-177 3 -336 63v139q82 -37 179.5 -61.5t174.5 -24.5q59 0 117.5 14t113 42t88 79.5t33.5 118.5q0 49 -19.5 92.5t-45.5 73.5t-75.5 64.5t-85.5 54
t-99 51.5q-54 27 -78.5 39.5t-72.5 40.5t-72 47.5t-57.5 52.5t-49.5 63.5t-28.5 72.5t-12.5 88q0 51 12 98t44 95.5t82.5 83.5t134 57t190.5 22q168 0 332 -51v-137q-163 67 -332 67q-81 0 -141.5 -16t-93 -39.5t-52.5 -55.5t-25.5 -57.5t-5.5 -52.5q0 -22 3.5 -42.5
t13.5 -39.5t18 -34.5t27 -32.5t30 -28t37 -27t38.5 -24t44 -24.5t44 -23t47.5 -23.5q46 -22 71.5 -35t68.5 -36.5t68 -42t58.5 -46t53 -56t38.5 -63.5t27.5 -76t8.5 -87q0 -70 -24 -132.5t-73 -115.5t-131 -87.5t-190 -43.5l-4 -49q84 2 136 -48.5t52 -134.5
q0 -86 -57.5 -148.5t-161.5 -62.5z" />
    <glyph glyph-name="scedilla" unicode="&#x15f;" horiz-adv-x="962" 
d="M479 -393q-82 0 -143 47l45 72q39 -29 82 -29q41 0 69.5 24t28.5 68q0 84 -110 84q-19 0 -37 -4l8 115q-159 0 -295 43v127q149 -60 305 -60q122 0 198.5 46.5t76.5 133.5q0 36 -15.5 67t-35.5 51.5t-60.5 43t-67 34t-79.5 32.5q-41 17 -64 26.5t-60.5 28t-59 33.5
t-48.5 38.5t-41.5 47.5t-24.5 56.5t-10 68.5q0 127 104.5 196.5t276.5 69.5q150 0 281 -39v-115q-124 43 -285 43q-49 0 -91 -7.5t-78.5 -24t-57.5 -47t-21 -72.5q0 -24 8 -45.5t17.5 -37t32.5 -32t37.5 -26t48 -24.5t49 -21t55.5 -21q45 -17 67 -26t63 -28t62.5 -34
t50.5 -40.5t43 -51t25 -61t11 -76.5q0 -117 -82.5 -197t-249.5 -96l-2 -39q73 2 118.5 -41.5t45.5 -116.5q0 -75 -50.5 -129.5t-140.5 -54.5z" />
    <glyph glyph-name="Scaron" unicode="&#x160;" horiz-adv-x="1085" 
d="M471 -16q-186 0 -354 63v139q82 -37 179.5 -61.5t174.5 -24.5q59 0 117.5 14t113 42t88 79.5t33.5 118.5q0 49 -19.5 92.5t-45.5 73.5t-75.5 64.5t-85.5 54t-99 51.5q-54 27 -78.5 39.5t-72.5 40.5t-72 47.5t-57.5 52.5t-49.5 63.5t-28.5 72.5t-12.5 88q0 51 12 98
t44 95.5t82.5 83.5t134 57t190.5 22q168 0 332 -51v-137q-163 67 -332 67q-81 0 -141.5 -16t-93 -39.5t-52.5 -55.5t-25.5 -57.5t-5.5 -52.5q0 -22 3.5 -42.5t13.5 -39.5t18 -34.5t27 -32.5t30 -28t37 -27t38.5 -24t44 -24.5t44 -23t47.5 -23.5q46 -22 71.5 -35t68.5 -36.5
t68 -42t58.5 -46t53 -56t38.5 -63.5t27.5 -76t8.5 -87q0 -77 -28.5 -143.5t-86 -121.5t-156 -86.5t-227.5 -31.5zM444 1536l-208 246h163l144 -176l143 176h164l-209 -246h-197z" />
    <glyph glyph-name="scaron" unicode="&#x161;" horiz-adv-x="962" 
d="M424 -16q-161 0 -297 43v127q149 -60 305 -60q122 0 198.5 46.5t76.5 133.5q0 36 -15.5 67t-35.5 51.5t-60.5 43t-67 34t-79.5 32.5q-41 17 -64 26.5t-60.5 28t-59 33.5t-48.5 38.5t-41.5 47.5t-24.5 56.5t-10 68.5q0 127 104.5 196.5t276.5 69.5q150 0 281 -39v-115
q-124 43 -285 43q-49 0 -91 -7.5t-78.5 -24t-57.5 -47t-21 -72.5q0 -24 8 -45.5t17.5 -37t32.5 -32t37.5 -26t48 -24.5t49 -21t55.5 -21q45 -17 67 -26t63 -28t62.5 -34t50.5 -40.5t43 -51t25 -61t11 -76.5q0 -132 -103 -214.5t-313 -82.5zM403 1249l-225 267h123l180 -197
l181 197h122l-225 -267h-156z" />
    <glyph glyph-name="uni0162" unicode="&#x162;" horiz-adv-x="1146" 
d="M506 0v1317h-445v117h1024v-117h-444v-1317h-20l-5 -61q84 2 136.5 -48.5t52.5 -134.5q0 -86 -57.5 -148.5t-161.5 -62.5q-93 0 -164 54l51 82q46 -33 94 -33q45 0 76 29t31 81q0 46 -28.5 69t-92.5 23q-21 0 -41 -4l12 154h-18z" />
    <glyph glyph-name="uni0163" unicode="&#x163;" horiz-adv-x="778" 
d="M475 -393q-82 0 -143 47l45 72q39 -29 82 -29q41 0 69.5 24t28.5 68q0 84 -111 84q-18 0 -36 -4l10 129q-38 11 -66.5 29.5t-45 45t-26.5 50t-14 58.5t-5 54.5t-1 53.5v653h-203v109h203v262l129 47v-309h285v-109h-285v-649q0 -112 40 -154.5t138 -42.5q48 0 140 10
v-108q-37 -6 -80.5 -9.5t-68.5 -4.5h-25q-21 0 -31 2l-2 -37q73 2 118.5 -41.5t45.5 -116.5q0 -75 -50.5 -129.5t-140.5 -54.5z" />
    <glyph glyph-name="Tcaron" unicode="&#x164;" horiz-adv-x="1146" 
d="M506 0v1317h-445v117h1024v-117h-444v-1317h-135zM475 1536l-209 246h164l143 -176l144 176h164l-209 -246h-197z" />
    <glyph glyph-name="tcaron" unicode="&#x165;" horiz-adv-x="778" 
d="M676 1051v-109h-285v-649q0 -112 40 -154.5t138 -42.5q48 0 140 10v-108q-37 -6 -80.5 -9.5t-68.5 -4.5h-25q-56 0 -100.5 11.5t-72.5 28t-48.5 44.5t-30 51t-15 59t-6 56.5t-0.5 54.5v653h-203v109h203v262l129 47v-309h285zM514 1217l82 344h143l-123 -344h-102z" />
    <glyph glyph-name="Umacron" unicode="&#x16a;" horiz-adv-x="1474" 
d="M737 -16q-242 0 -387 133.5t-145 359.5v957h135v-953q0 -86 26 -154t66.5 -109.5t94.5 -69t105.5 -38t104.5 -10.5t104.5 10.5t106 38t95 69t66.5 109.5t26 154v953h135v-957q0 -226 -145 -359.5t-388 -133.5zM465 1606v110h547v-110h-547z" />
    <glyph glyph-name="umacron" unicode="&#x16b;" horiz-adv-x="1249" 
d="M1061 1051v-1051h-125v152h-6q-61 -75 -155 -121.5t-216 -46.5q-90 0 -160 26.5t-111 67.5t-67.5 97.5t-35.5 108.5t-9 107v660h129v-652q0 -307 266 -307q155 0 258 98t103 248v613h129zM356 1352v110h516v-110h-516z" />
    <glyph glyph-name="Ubreve" unicode="&#x16c;" horiz-adv-x="1474" 
d="M737 -16q-242 0 -387 133.5t-145 359.5v957h135v-953q0 -86 26 -154t66.5 -109.5t94.5 -69t105.5 -38t104.5 -10.5t104.5 10.5t106 38t95 69t66.5 109.5t26 154v953h135v-957q0 -226 -145 -359.5t-388 -133.5zM737 1544q-111 0 -200 62.5t-129 175.5h137q14 -43 49 -71
t70.5 -38t72.5 -10t73 10t71 38t49 71h137q-40 -113 -129.5 -175.5t-200.5 -62.5z" />
    <glyph glyph-name="ubreve" unicode="&#x16d;" horiz-adv-x="1249" 
d="M1061 1051v-1051h-125v152h-6q-61 -75 -155 -121.5t-216 -46.5q-90 0 -160 26.5t-111 67.5t-67.5 97.5t-35.5 108.5t-9 107v660h129v-652q0 -307 266 -307q155 0 258 98t103 248v613h129zM614 1278q-111 0 -200 62.5t-129 175.5h114q63 -132 215 -132t215 132h115
q-40 -113 -129.5 -175.5t-200.5 -62.5z" />
    <glyph glyph-name="Uring" unicode="&#x16e;" horiz-adv-x="1474" 
d="M737 -16q-242 0 -387 133.5t-145 359.5v957h135v-953q0 -86 26 -154t66.5 -109.5t94.5 -69t105.5 -38t104.5 -10.5t104.5 10.5t106 38t95 69t66.5 109.5t26 154v953h135v-957q0 -226 -145 -359.5t-388 -133.5zM737 1460q-82 0 -139 57.5t-57 139.5t57 139t139 57
t139.5 -57t57.5 -139t-57.5 -139.5t-139.5 -57.5zM737 1534q51 0 87 36t36 87t-36 87t-87 36t-87 -36t-36 -87t36 -87t87 -36z" />
    <glyph glyph-name="uring" unicode="&#x16f;" horiz-adv-x="1249" 
d="M1061 1051v-1051h-125v152h-6q-61 -75 -155 -121.5t-216 -46.5q-90 0 -160 26.5t-111 67.5t-67.5 97.5t-35.5 108.5t-9 107v660h129v-652q0 -307 266 -307q155 0 258 98t103 248v613h129zM614 1204q-82 0 -139 57.5t-57 139.5t57 139t139 57t139.5 -57t57.5 -139
t-57.5 -139.5t-139.5 -57.5zM614 1278q51 0 87 36t36 87t-36 87t-87 36t-86.5 -36t-35.5 -87t35.5 -87t86.5 -36z" />
    <glyph glyph-name="Uhungarumlaut" unicode="&#x170;" horiz-adv-x="1474" 
d="M737 -16q-242 0 -387 133.5t-145 359.5v957h135v-953q0 -86 26 -154t66.5 -109.5t94.5 -69t105.5 -38t104.5 -10.5t104.5 10.5t106 38t95 69t66.5 109.5t26 154v953h135v-957q0 -226 -145 -359.5t-388 -133.5zM797 1550l184 252h184l-266 -252h-102zM489 1550l185 252
h184l-266 -252h-103z" />
    <glyph glyph-name="uhungarumlaut" unicode="&#x171;" horiz-adv-x="1249" 
d="M1061 1051v-1051h-125v152h-6q-61 -75 -155 -121.5t-216 -46.5q-90 0 -160 26.5t-111 67.5t-67.5 97.5t-35.5 108.5t-9 107v660h129v-652q0 -307 266 -307q155 0 258 98t103 248v613h129zM698 1249l193 267h184l-274 -267h-103zM391 1249l193 267h184l-274 -267h-103z
" />
    <glyph glyph-name="Uogonek" unicode="&#x172;" horiz-adv-x="1474" 
d="M846 -436q-48 0 -85.5 12t-59 30.5t-35.5 43t-18.5 46.5t-4.5 44q0 121 141 246q-20 -2 -59 -2q-229 0 -374.5 131.5t-145.5 361.5v957h135v-953q0 -86 26 -154t66.5 -109.5t94.5 -69t105.5 -38t104.5 -10.5t104.5 10.5t106 38t95 69t66.5 109.5t26 154v953h135v-951
q0 -312 -289 -458q-81 -41 -147 -118.5t-66 -146.5q0 -43 25 -62.5t57 -19.5q49 0 88 27l27 -98q-22 -17 -50.5 -27.5t-44 -13t-24.5 -2.5z" />
    <glyph glyph-name="uogonek" unicode="&#x173;" horiz-adv-x="1249" 
d="M971 -436q-48 0 -85.5 12t-59 30.5t-35.5 43t-18.5 45t-4.5 41.5q0 128 168 268v148h-6q-61 -75 -155 -121.5t-216 -46.5q-90 0 -160 26.5t-111 67.5t-67.5 97.5t-35.5 108.5t-9 107v660h129v-652q0 -307 266 -307q155 0 258 98t103 248v613h129v-1051
q-168 -142 -168 -240q0 -43 24 -62.5t54 -19.5q22 0 49.5 8t42.5 19l27 -98q-22 -17 -50.5 -27.5t-44 -13t-24.5 -2.5z" />
    <glyph glyph-name="Ydieresis" unicode="&#x178;" horiz-adv-x="1331" 
d="M66 1434h161l437 -748h2l438 748h162l-533 -871v-563h-135v563zM360 1565v164h142v-164h-142zM829 1565v164h142v-164h-142z" />
    <glyph glyph-name="Zacute" unicode="&#x179;" horiz-adv-x="1187" 
d="M123 0v127l766 1190h-750v117h895v-127l-768 -1190h799v-117h-942zM541 1550l123 252h192l-213 -252h-102z" />
    <glyph glyph-name="zacute" unicode="&#x17a;" horiz-adv-x="1024" 
d="M119 0v106l614 830h-604v115h750v-123l-611 -813h637v-115h-786zM461 1249l184 267h193l-275 -267h-102z" />
    <glyph glyph-name="Zdotaccent" unicode="&#x17b;" horiz-adv-x="1187" 
d="M123 0v127l766 1190h-750v117h895v-127l-768 -1190h799v-117h-942zM510 1556v177h168v-177h-168z" />
    <glyph glyph-name="zdotaccent" unicode="&#x17c;" horiz-adv-x="1024" 
d="M119 0v106l614 830h-604v115h750v-123l-611 -813h637v-115h-786zM442 1311v164h142v-164h-142z" />
    <glyph glyph-name="Zcaron" unicode="&#x17d;" horiz-adv-x="1187" 
d="M123 0v127l766 1190h-750v117h895v-127l-768 -1190h799v-117h-942zM496 1536l-209 246h164l143 -176l143 176h164l-209 -246h-196z" />
    <glyph glyph-name="zcaron" unicode="&#x17e;" horiz-adv-x="1024" 
d="M119 0v106l614 830h-604v115h750v-123l-611 -813h637v-115h-786zM434 1249l-225 267h123l180 -197l180 197h123l-225 -267h-156z" />
    <glyph glyph-name="uni018F" unicode="&#x18f;" horiz-adv-x="1474" 
d="M119 715v59h1089q-13 279 -149.5 419t-362.5 140q-120 0 -237.5 -38t-200.5 -87v135q233 107 457 107q134 0 243 -39.5t182 -108t122.5 -163t71.5 -200t22 -224.5q0 -174 -47.5 -314t-131 -230.5t-196 -138.5t-244.5 -48q-131 0 -243 48.5t-195.5 139t-131.5 230.5
t-48 313zM737 100q86 0 165 33t146 98t110 175t50 251h-942q9 -141 52.5 -250.5t109.5 -175t144.5 -98.5t164.5 -33z" />
    <glyph glyph-name="florin" unicode="&#x192;" horiz-adv-x="1187" 
d="M219 725l19 109h258l57 319q53 297 385 297q106 0 170 -18l-18 -105q-74 14 -144 14q-229 0 -264 -188l-57 -319h290l-18 -109h-291l-151 -862q-28 -162 -109 -246t-240 -84q-38 0 -91.5 11.5t-92.5 33.5l19 105q25 -17 75 -29t86 -12q101 0 151.5 49.5t72.5 171.5
l151 862h-258z" />
    <glyph glyph-name="uni01CF" unicode="&#x1cf;" horiz-adv-x="634" 
d="M250 0v1434h135v-1434h-135zM219 1536l-168 246h144l122 -176l123 176h144l-168 -246h-197z" />
    <glyph glyph-name="uni01D0" unicode="&#x1d0;" horiz-adv-x="593" 
d="M233 0v1051h129v-1051h-129zM223 1241l-188 272h123l139 -202l139 202h123l-188 -272h-148z" />
    <glyph glyph-name="uni01DD" unicode="&#x1dd;" horiz-adv-x="1177" 
d="M117 522v41h811q-11 188 -113.5 291.5t-296.5 103.5q-176 0 -321 -67v119q148 57 325 57q255 0 396 -145t141 -414q0 -243 -136.5 -383.5t-355.5 -140.5q-450 0 -450 538zM567 92q152 0 249 97t112 266h-676q-1 -23 0.5 -47t8.5 -61.5t19 -70t36 -67.5t56.5 -60t82.5 -41
t112 -16z" />
    <glyph glyph-name="Gcaron" unicode="&#x1e6;" horiz-adv-x="1464" 
d="M836 -16q-152 0 -282.5 49.5t-227 141t-152 231.5t-55.5 313q0 337 192 534t520 197q228 0 392 -68v-133q-53 26 -164.5 53t-229.5 27q-119 0 -221 -39.5t-179 -114t-121 -192t-44 -264.5q0 -177 65 -315.5t195.5 -221t309.5 -82.5q155 0 313 50v483h-381v117h516v-684
q-207 -82 -446 -82zM682 1536l-209 246h164l143 -176l144 176h163l-208 -246h-197z" />
    <glyph glyph-name="gcaron" unicode="&#x1e7;" horiz-adv-x="1290" 
d="M565 -459q-174 0 -340 58v122q156 -67 363 -67q385 0 385 336v196h-4q-62 -98 -160 -150t-215 -52q-215 0 -345 145.5t-130 396.5q0 243 137 392t350 149q214 0 361 -180h10v164h125v-1037q0 -33 -1 -57t-6.5 -63.5t-15 -70t-29 -69t-46 -67t-67.5 -57.5t-92.5 -47.5
t-123 -30t-156.5 -11.5zM608 92q50 0 99.5 14.5t98.5 48t86 81.5t60 122t23 164q0 191 -102 313.5t-263 122.5q-158 0 -257 -122.5t-99 -313.5q0 -197 101.5 -313.5t252.5 -116.5zM539 1249l-226 267h123l180 -197l181 197h123l-226 -267h-155z" />
    <glyph glyph-name="uni0218" unicode="&#x218;" horiz-adv-x="1085" 
d="M471 -16q-186 0 -354 63v139q82 -37 179.5 -61.5t174.5 -24.5q59 0 117.5 14t113 42t88 79.5t33.5 118.5q0 49 -19.5 92.5t-45.5 73.5t-75.5 64.5t-85.5 54t-99 51.5q-54 27 -78.5 39.5t-72.5 40.5t-72 47.5t-57.5 52.5t-49.5 63.5t-28.5 72.5t-12.5 88q0 51 12 98
t44 95.5t82.5 83.5t134 57t190.5 22q168 0 332 -51v-137q-163 67 -332 67q-81 0 -141.5 -16t-93 -39.5t-52.5 -55.5t-25.5 -57.5t-5.5 -52.5q0 -22 3.5 -42.5t13.5 -39.5t18 -34.5t27 -32.5t30 -28t37 -27t38.5 -24t44 -24.5t44 -23t47.5 -23.5q46 -22 71.5 -35t68.5 -36.5
t68 -42t58.5 -46t53 -56t38.5 -63.5t27.5 -76t8.5 -87q0 -77 -28.5 -143.5t-86 -121.5t-156 -86.5t-227.5 -31.5zM360 -451l82 349h144l-123 -349h-103z" />
    <glyph glyph-name="uni0219" unicode="&#x219;" horiz-adv-x="962" 
d="M424 -16q-161 0 -297 43v127q149 -60 305 -60q122 0 198.5 46.5t76.5 133.5q0 36 -15.5 67t-35.5 51.5t-60.5 43t-67 34t-79.5 32.5q-41 17 -64 26.5t-60.5 28t-59 33.5t-48.5 38.5t-41.5 47.5t-24.5 56.5t-10 68.5q0 127 104.5 196.5t276.5 69.5q150 0 281 -39v-115
q-124 43 -285 43q-49 0 -91 -7.5t-78.5 -24t-57.5 -47t-21 -72.5q0 -24 8 -45.5t17.5 -37t32.5 -32t37.5 -26t48 -24.5t49 -21t55.5 -21q45 -17 67 -26t63 -28t62.5 -34t50.5 -40.5t43 -51t25 -61t11 -76.5q0 -132 -103 -214.5t-313 -82.5zM317 -451l82 349h144l-123 -349
h-103z" />
    <glyph glyph-name="uni021A" unicode="&#x21a;" horiz-adv-x="1146" 
d="M506 0v1317h-445v117h1024v-117h-444v-1317h-135zM430 -451l82 349h143l-123 -349h-102z" />
    <glyph glyph-name="uni021B" unicode="&#x21b;" horiz-adv-x="778" 
d="M676 1051v-109h-285v-649q0 -112 40 -154.5t138 -42.5q48 0 140 10v-108q-37 -6 -80.5 -9.5t-68.5 -4.5h-25q-56 0 -100.5 11.5t-72.5 28t-48.5 44.5t-30 51t-15 59t-6 56.5t-0.5 54.5v653h-203v109h203v262l129 47v-309h285zM313 -451l82 349h144l-123 -349h-103z" />
    <glyph glyph-name="uni0237" unicode="&#x237;" horiz-adv-x="593" 
d="M127 -459q-59 0 -117 17v104q40 -12 94 -12q28 0 47.5 5.5t40 22t31 53.5t10.5 93v1227h129v-1215q0 -41 -3 -73.5t-16.5 -76.5t-37 -73.5t-69.5 -50.5t-109 -21z" />
    <glyph glyph-name="uni0259" unicode="&#x259;" horiz-adv-x="1177" 
d="M117 522v41h811q-11 188 -113.5 291.5t-296.5 103.5q-176 0 -321 -67v119q148 57 325 57q255 0 396 -145t141 -414q0 -243 -136.5 -383.5t-355.5 -140.5q-450 0 -450 538zM567 92q152 0 249 97t112 266h-676q-1 -23 0.5 -47t8.5 -61.5t19 -70t36 -67.5t56.5 -60t82.5 -41
t112 -16z" />
    <glyph glyph-name="uni02BC" unicode="&#x2bc;" horiz-adv-x="614" 
d="M211 1217l82 344h143l-123 -344h-102z" />
    <glyph glyph-name="circumflex" unicode="&#x2c6;" 
d="M106 1249l226 267h155l226 -267h-123l-180 197l-181 -197h-123z" />
    <glyph glyph-name="caron" unicode="&#x2c7;" 
d="M332 1249l-226 267h123l181 -197l180 197h123l-226 -267h-155z" />
    <glyph glyph-name="uni02C9" unicode="&#x2c9;" 
d="M125 1606v110h547v-110h-547z" />
    <glyph glyph-name="breve" unicode="&#x2d8;" 
d="M410 1278q-111 0 -200.5 62.5t-129.5 175.5h115q63 -132 215 -132t215 132h114q-40 -113 -129 -175.5t-200 -62.5z" />
    <glyph glyph-name="dotaccent" unicode="&#x2d9;" 
d="M340 1311v164h141v-164h-141z" />
    <glyph glyph-name="ring" unicode="&#x2da;" 
d="M410 1204q-82 0 -139.5 57.5t-57.5 139.5t57.5 139t139.5 57t139 -57t57 -139t-57 -139.5t-139 -57.5zM410 1278q51 0 86.5 36t35.5 87t-35.5 87t-86.5 36t-87 -36t-36 -87t36 -87t87 -36z" />
    <glyph glyph-name="ogonek" unicode="&#x2db;" 
d="M399 -436q-59 0 -101.5 17.5t-63 46t-29 55t-8.5 53.5q0 153 235 319l57 -55q-167 -141 -167 -240q0 -43 23.5 -62.5t53.5 -19.5q22 0 50 8t43 19l26 -98q-22 -17 -50.5 -27.5t-44 -13t-24.5 -2.5z" />
    <glyph glyph-name="tilde" unicode="&#x2dc;" 
d="M117 1313q-4 77 42.5 124.5t119.5 47.5q60 0 157 -39q6 -3 21 -8.5t20.5 -8t17 -6.5t18 -5.5t15.5 -3t17 -1.5q27 0 51 14.5t31 51.5h78q3 -70 -37.5 -118t-118.5 -48q-57 0 -141 30q-4 2 -16 7t-15.5 6.5t-13.5 6t-13.5 6t-12 4.5t-12.5 4t-11 3t-11.5 2.5t-10.5 1
t-11 0.5q-27 0 -52 -16.5t-34 -54.5h-78z" />
    <glyph glyph-name="hungarumlaut" unicode="&#x2dd;" 
d="M469 1249l193 267h184l-275 -267h-102zM162 1249l192 267h185l-275 -267h-102z" />
    <glyph glyph-name="gravecomb" unicode="&#x300;" horiz-adv-x="0" 
d="M-653 1249l-275 267h193l184 -267h-102z" />
    <glyph glyph-name="acutecomb" unicode="&#x301;" horiz-adv-x="0" 
d="M-668 1249l185 267h192l-274 -267h-103z" />
    <glyph glyph-name="uni0302" unicode="&#x302;" 
d="M106 1249l226 267h155l226 -267h-123l-180 197l-181 -197h-123z" />
    <glyph glyph-name="tildecomb" unicode="&#x303;" 
d="M117 1313q-4 77 42.5 124.5t119.5 47.5q60 0 157 -39q6 -3 21 -8.5t20.5 -8t17 -6.5t18 -5.5t15.5 -3t17 -1.5q27 0 51 14.5t31 51.5h78q3 -70 -37.5 -118t-118.5 -48q-57 0 -141 30q-4 2 -16 7t-15.5 6.5t-13.5 6t-13.5 6t-12 4.5t-12.5 4t-11 3t-11.5 2.5t-10.5 1
t-11 0.5q-27 0 -52 -16.5t-34 -54.5h-78z" />
    <glyph glyph-name="uni0307" unicode="&#x307;" 
d="M340 1311v164h141v-164h-141z" />
    <glyph glyph-name="uni0308" unicode="&#x308;" 
d="M563 1311v164h142v-164h-142zM115 1311v164h141v-164h-141z" />
    <glyph glyph-name="uni030A" unicode="&#x30a;" 
d="M410 1204q-82 0 -139.5 57.5t-57.5 139.5t57.5 139t139.5 57t139 -57t57 -139t-57 -139.5t-139 -57.5zM410 1278q51 0 86.5 36t35.5 87t-35.5 87t-86.5 36t-87 -36t-36 -87t36 -87t87 -36z" />
    <glyph glyph-name="uni0326" unicode="&#x326;" 
d="M266 -451l82 349h144l-123 -349h-103z" />
    <glyph glyph-name="uni0327" unicode="&#x327;" 
d="M389 -393q-82 0 -143 47l45 72q39 -29 82 -29q41 0 69.5 24t28.5 68q0 84 -111 84q-18 0 -36 -4l12 151h84l-4 -71q73 2 118.5 -41.5t45.5 -116.5q0 -75 -50.5 -129.5t-140.5 -54.5z" />
    <glyph glyph-name="uni0394" unicode="&#x394;" horiz-adv-x="1433" 
d="M88 0l551 1434h156l551 -1434h-1258zM305 143h823l-411 1080z" />
    <glyph glyph-name="uni03A9" unicode="&#x3a9;" horiz-adv-x="1556" 
d="M123 0l-39 244l113 12l22 -139h354v59q-100 28 -180 80.5t-131 115t-85 136t-48 142t-14 134.5q0 124 46.5 242.5t129 213t210 152.5t277.5 58t277.5 -58t210.5 -152.5t129.5 -213t46.5 -242.5q0 -66 -14 -134.5t-48.5 -142t-85 -136t-131 -115t-180.5 -80.5v-59h354
l23 139l113 -12l-39 -244h-568v250q198 47 314 191t116 345q0 110 -34.5 203.5t-89.5 155t-124.5 105.5t-138 63.5t-131.5 19.5t-131.5 -19.5t-138 -63.5t-124.5 -105.5t-89.5 -155t-34.5 -203.5q0 -201 116 -345t314 -191v-250h-567z" />
    <glyph glyph-name="mu" unicode="&#x3bc;" horiz-adv-x="1228" 
d="M188 -449v1500h129v-652q0 -35 4.5 -68.5t15 -69.5t31 -65t48.5 -53t70.5 -37.5t95.5 -13.5q138 0 233.5 98t95.5 246v615h129v-1051h-125v152h-4q-141 -168 -329 -168q-162 0 -263 94l-2 -2v-525h-129z" />
    <glyph glyph-name="pi" unicode="&#x3c0;" horiz-adv-x="1341" 
d="M1194 -18q-95 0 -156 57.5t-61 175.5v727h-582v-942h-129v942h-41q-117 0 -188 -123l-94 53q38 85 112.5 132t169.5 47h1047v-109h-166v-711q0 -27 4 -47t15.5 -43.5t39.5 -35.5t70 -11v-110q-14 -2 -41 -2z" />
    <glyph glyph-name="uni0401" unicode="&#x401;" horiz-adv-x="1105" 
d="M209 0v1434h766v-117h-631v-518h592v-117h-592v-565h651v-117h-786zM762 1565v164h141v-164h-141zM293 1565h141v164h-141v-164z" />
    <glyph glyph-name="uni0402" unicode="&#x402;" horiz-adv-x="1454" 
d="M1044 1434v-117h-563v-510q192 115 377 115q226 0 353.5 -136.5t127.5 -363.5q0 -92 -21 -184.5t-66.5 -190t-128 -191t-193.5 -169.5l-92 100q97 69 168 150t111 162.5t58.5 158t18.5 150.5q0 190 -94.5 289.5t-282.5 99.5q-158 0 -336 -111v-686h-135v1317h-293v117
h991z" />
    <glyph glyph-name="uni0403" unicode="&#x403;" horiz-adv-x="1064" 
d="M209 0v1434h774v-117h-639v-1317h-135zM479 1550l123 252h193l-213 -252h-103z" />
    <glyph glyph-name="uni0404" unicode="&#x404;" horiz-adv-x="1310" 
d="M819 100q105 0 181.5 16.5t173.5 57.5v-133q-149 -57 -359 -57q-209 0 -367 92.5t-243.5 263.5t-85.5 397q0 211 85 373t241 251t360 89q211 0 387 -86v-133q-95 50 -185.5 76t-201.5 26q-232 0 -379 -142t-164 -394h727v-117h-727q13 -280 157.5 -430t399.5 -150z" />
    <glyph glyph-name="uni0405" unicode="&#x405;" horiz-adv-x="1085" 
d="M471 -16q-186 0 -354 63v139q82 -37 179.5 -61.5t174.5 -24.5q59 0 117.5 14t113 42t88 79.5t33.5 118.5q0 49 -19.5 92.5t-45.5 73.5t-75.5 64.5t-85.5 54t-99 51.5q-54 27 -78.5 39.5t-72.5 40.5t-72 47.5t-57.5 52.5t-49.5 63.5t-28.5 72.5t-12.5 88q0 51 12 98
t44 95.5t82.5 83.5t134 57t190.5 22q168 0 332 -51v-137q-163 67 -332 67q-81 0 -141.5 -16t-93 -39.5t-52.5 -55.5t-25.5 -57.5t-5.5 -52.5q0 -22 3.5 -42.5t13.5 -39.5t18 -34.5t27 -32.5t30 -28t37 -27t38.5 -24t44 -24.5t44 -23t47.5 -23.5q46 -22 71.5 -35t68.5 -36.5
t68 -42t58.5 -46t53 -56t38.5 -63.5t27.5 -76t8.5 -87q0 -77 -28.5 -143.5t-86 -121.5t-156 -86.5t-227.5 -31.5z" />
    <glyph glyph-name="uni0406" unicode="&#x406;" horiz-adv-x="634" 
d="M250 0v1434h135v-1434h-135z" />
    <glyph glyph-name="uni0407" unicode="&#x407;" horiz-adv-x="634" 
d="M250 0v1434h135v-1434h-135zM94 1565v164h142v-164h-142zM399 1565v164h142v-164h-142z" />
    <glyph glyph-name="uni0408" unicode="&#x408;" horiz-adv-x="778" 
d="M250 -16q-115 0 -207 36v123q101 -39 197 -39q99 0 148.5 60.5t49.5 193.5v1076h135v-1080q0 -187 -84 -278.5t-239 -91.5z" />
    <glyph glyph-name="uni0409" unicode="&#x409;" horiz-adv-x="1945" 
d="M33 -2v127q40 -12 90 -12q40 0 67.5 18.5t53.5 77.5t41.5 164t24.5 282.5t9 429.5v349h762v-562h312q210 0 338.5 -123t128.5 -313t-128.5 -313t-338.5 -123h-447v1317h-491v-232q0 -238 -8.5 -414t-27.5 -297.5t-43.5 -198t-63 -119t-80 -57.5t-99.5 -15q-53 0 -100 14z
M1081 117h312q149 0 235 86t86 231q0 148 -86 235t-235 87h-312v-639z" />
    <glyph glyph-name="uni040A" unicode="&#x40a;" horiz-adv-x="1945" 
d="M209 0v1434h135v-603h637v603h135v-603h277q210 0 338.5 -117t128.5 -298t-129 -298.5t-338 -117.5h-412v715h-637v-715h-135zM1116 117h277q148 0 234.5 80.5t86.5 216.5q0 138 -86 219.5t-235 81.5h-277v-598z" />
    <glyph glyph-name="uni040B" unicode="&#x40b;" horiz-adv-x="1495" 
d="M1044 1434v-117h-557v-520q215 110 435 110q212 0 321 -105t109 -313v-489h-135v487q0 153 -75 228.5t-251 75.5q-198 0 -404 -113v-678h-135v1317h-299v117h991z" />
    <glyph glyph-name="uni040C" unicode="&#x40c;" horiz-adv-x="1320" 
d="M209 0v1434h135v-617h246l475 617h170l-520 -672l575 -762h-180l-516 700h-250v-700h-135zM588 1550l123 252h192l-213 -252h-102z" />
    <glyph glyph-name="uni040E" unicode="&#x40e;" horiz-adv-x="1269" 
d="M276 137q86 -28 130 -28q53 0 88.5 41.5t85.5 152.5l-519 1131h150l434 -961h8l410 961h145l-516 -1207q-46 -109 -73 -147q-70 -96 -203 -96q-75 0 -140 24v129zM635 1499q-139 0 -230 70t-98 211h119q20 -174 209 -174q193 0 213 174h115q-7 -141 -98 -211t-230 -70z
" />
    <glyph glyph-name="uni040F" unicode="&#x40f;" horiz-adv-x="1443" 
d="M655 -311v311h-446v1434h135v-1317h756v1317h135v-1434h-444v-311h-136z" />
    <glyph glyph-name="uni0410" unicode="&#x410;" horiz-adv-x="1413" 
d="M78 0l540 1434h177l540 -1434h-147l-146 393h-675l-146 -393h-143zM705 1298l-295 -788h589l-290 788h-4z" />
    <glyph glyph-name="uni0411" unicode="&#x411;" horiz-adv-x="1249" 
d="M209 0v1434h846v-117h-711v-473h340q119 0 209 -33.5t137.5 -80.5t76.5 -110.5t36.5 -110t7.5 -93.5q0 -194 -129.5 -305t-347.5 -111h-465zM344 117h303q85 0 151 19.5t104 49t62.5 70.5t33 79.5t8.5 80.5q0 48 -9.5 90t-34 84t-63.5 71t-103 47.5t-147 18.5h-305v-610z
" />
    <glyph glyph-name="uni0412" unicode="&#x412;" horiz-adv-x="1249" 
d="M209 0v1434h475q107 0 188.5 -28.5t129.5 -79t72 -114.5t24 -139q0 -242 -248 -323v-7q132 -25 210.5 -119t78.5 -237q0 -77 -23 -139.5t-57 -101.5t-83 -68.5t-91.5 -43.5t-91 -22.5t-73.5 -10t-48 -1.5h-463zM344 117h309q43 0 81.5 4.5t88.5 21.5t85.5 45t60 81.5
t24.5 125.5q0 137 -89.5 212t-235.5 75h-324v-565zM344 799h322q136 0 211 75.5t75 196.5q0 124 -79 185t-203 61h-326v-518z" />
    <glyph glyph-name="uni0413" unicode="&#x413;" horiz-adv-x="1064" 
d="M209 0v1434h774v-117h-639v-1317h-135z" />
    <glyph glyph-name="uni0414" unicode="&#x414;" horiz-adv-x="1525" 
d="M33 -311v428h125q51 72 86.5 157.5t55.5 167.5t31 189.5t14 195.5t3 213v394h916v-1317h186v-428h-135v311h-1147v-311h-135zM483 1024q0 -112 -2 -190t-12 -185t-27.5 -189.5t-50.5 -174.5t-80 -168h817v1200h-645v-293z" />
    <glyph glyph-name="uni0415" unicode="&#x415;" horiz-adv-x="1105" 
d="M209 0v1434h766v-117h-631v-518h592v-117h-592v-565h651v-117h-786z" />
    <glyph glyph-name="uni0416" unicode="&#x416;" horiz-adv-x="1925" 
d="M1714 0l-489 711h-195v-711h-135v711h-197l-487 -711h-180l547 772l-492 662h170l444 -607h195v607h135v-607h195l444 607h170l-491 -662l546 -772h-180z" />
    <glyph glyph-name="uni0417" unicode="&#x417;" horiz-adv-x="1105" 
d="M469 -16q-208 0 -399 90v125q84 -44 192.5 -71.5t206.5 -27.5q189 0 292 78t103 209q0 134 -100 218.5t-295 84.5h-174v117h174q176 0 262 73.5t86 202.5q0 250 -348 250q-175 0 -358 -76v125q191 68 358 68q246 0 370 -98.5t124 -266.5q0 -124 -61 -211.5t-173 -117.5
v-4q135 -25 208 -124.5t73 -238.5q0 -181 -139.5 -293t-401.5 -112z" />
    <glyph glyph-name="uni0418" unicode="&#x418;" horiz-adv-x="1515" 
d="M209 0v1434h135v-1078l-4 -155h6l76 127l731 1106h154v-1434h-136v1077l5 156h-7l-67 -117l-740 -1116h-153z" />
    <glyph glyph-name="uni0419" unicode="&#x419;" horiz-adv-x="1515" 
d="M209 0v1434h135v-1078l-4 -155h6l76 127l731 1106h154v-1434h-136v1077l5 156h-7l-67 -117l-740 -1116h-153zM758 1499q-139 0 -230 70t-98 211h119q20 -174 209 -174q193 0 213 174h114q-4 -72 -31 -127.5t-72 -88t-101.5 -49t-122.5 -16.5z" />
    <glyph glyph-name="uni041A" unicode="&#x41a;" horiz-adv-x="1320" 
d="M209 0v1434h135v-617h246l475 617h170l-520 -672l575 -762h-180l-516 700h-250v-700h-135z" />
    <glyph glyph-name="uni041B" unicode="&#x41b;" horiz-adv-x="1474" 
d="M131 -16q-51 0 -98 14v127q40 -12 90 -12q40 0 67.5 18.5t53.5 77.5t41.5 164t24.5 282.5t9 429.5v349h947v-1434h-136v1317h-675v-232q0 -239 -8 -414.5t-27 -297t-43.5 -198t-63.5 -119t-81 -57.5t-101 -15z" />
    <glyph glyph-name="uni041C" unicode="&#x41c;" horiz-adv-x="1761" 
d="M209 0v1434h213l461 -879l458 879h211v-1434h-135v1307h-4l-475 -897h-115l-475 897h-4v-1307h-135z" />
    <glyph glyph-name="uni041D" unicode="&#x41d;" horiz-adv-x="1474" 
d="M209 0v1434h135v-633h786v633h136v-1434h-136v684h-786v-684h-135z" />
    <glyph glyph-name="uni041E" unicode="&#x41e;" horiz-adv-x="1536" 
d="M768 -16q-138 0 -255.5 48.5t-205.5 139t-138 230.5t-50 313q0 117 25 224.5t77.5 200.5t128 162t183 108.5t235.5 39.5t235.5 -39.5t183 -108.5t128 -162t77.5 -200.5t25 -224.5q0 -173 -50 -313t-138 -230.5t-205.5 -139t-255.5 -48.5zM768 100q77 0 148.5 22t136.5 71
t113.5 119.5t77 174t28.5 228.5t-28.5 229t-77 175t-113.5 120t-136.5 71.5t-148.5 22.5t-148.5 -22.5t-136.5 -71.5t-113.5 -120t-77 -175t-28.5 -229t28.5 -228.5t77 -174t113.5 -119.5t136.5 -71t148.5 -22z" />
    <glyph glyph-name="uni041F" unicode="&#x41f;" horiz-adv-x="1454" 
d="M209 0v1434h1036v-1434h-135v1317h-766v-1317h-135z" />
    <glyph glyph-name="uni0420" unicode="&#x420;" horiz-adv-x="1228" 
d="M209 0v1434h463q233 0 350 -115t117 -322q0 -204 -120 -320t-353 -116h-322v-561h-135zM344 678h322q327 0 327 319q0 162 -76 241t-245 79h-328v-639z" />
    <glyph glyph-name="uni0421" unicode="&#x421;" horiz-adv-x="1290" 
d="M821 -16q-326 0 -514 199t-188 554q0 320 192.5 516.5t511.5 196.5q194 0 332 -55v-125q-185 63 -326 63q-251 0 -408 -167.5t-157 -434.5q0 -298 151.5 -463.5t411.5 -165.5q193 0 340 62v-125q-163 -55 -346 -55z" />
    <glyph glyph-name="uni0422" unicode="&#x422;" horiz-adv-x="1146" 
d="M506 0v1317h-445v117h1024v-117h-444v-1317h-135z" />
    <glyph glyph-name="uni0423" unicode="&#x423;" horiz-adv-x="1269" 
d="M276 137q86 -28 130 -28q53 0 88.5 41.5t85.5 152.5l-519 1131h150l434 -961h8l410 961h145l-516 -1207q-46 -109 -73 -147q-70 -96 -203 -96q-75 0 -140 24v129z" />
    <glyph glyph-name="uni0424" unicode="&#x424;" horiz-adv-x="1781" 
d="M823 -16v176h-75q-145 0 -267.5 44t-206 121t-130 183.5t-46.5 228.5t46.5 228.5t130 183.5t206 121.5t267.5 44.5h75v176h135v-176h76q145 0 267.5 -44.5t205.5 -121.5t129.5 -183.5t46.5 -228.5t-46.5 -228.5t-129.5 -183.5t-205.5 -121t-267.5 -44h-76v-176h-135z
M748 276h75v922h-75q-231 0 -367.5 -127.5t-136.5 -333.5t136.5 -333.5t367.5 -127.5zM958 276h76q231 0 367.5 127.5t136.5 333.5t-136.5 333.5t-367.5 127.5h-76v-922z" />
    <glyph glyph-name="uni0425" unicode="&#x425;" horiz-adv-x="1413" 
d="M1155 0l-457 666l-446 -666h-162l528 760l-497 674h168l413 -586l414 586h156l-486 -674l537 -760h-168z" />
    <glyph glyph-name="uni0426" unicode="&#x426;" horiz-adv-x="1505" 
d="M1294 -311v311h-1085v1434h135v-1317h752v1317h135v-1317h199v-428h-136z" />
    <glyph glyph-name="uni0427" unicode="&#x427;" horiz-adv-x="1331" 
d="M987 0v623q-234 -58 -414 -58q-97 0 -171 18t-134.5 59t-92.5 116t-32 182v494h136v-504q0 -254 319 -254q203 0 389 57v701h135v-1434h-135z" />
    <glyph glyph-name="uni0428" unicode="&#x428;" horiz-adv-x="1974" 
d="M209 0v1434h135v-1317h576v1317h135v-1317h575v1317h135v-1434h-1556z" />
    <glyph glyph-name="uni0429" unicode="&#x429;" horiz-adv-x="2027" 
d="M209 0v1434h135v-1317h576v1317h135v-1317h575v1317h135v-1317h187v-428h-135v311h-1608z" />
    <glyph glyph-name="uni042A" unicode="&#x42a;" horiz-adv-x="1351" 
d="M352 0v1317h-299v117h434v-566h312q209 0 338 -122.5t129 -311.5t-129 -311.5t-338 -122.5h-447zM487 117h312q148 0 234.5 86t86.5 229q0 147 -86 233.5t-235 86.5h-312v-635z" />
    <glyph glyph-name="uni042B" unicode="&#x42b;" horiz-adv-x="1792" 
d="M209 0v1434h135v-574h291q209 0 338 -121.5t129 -308.5t-129 -308.5t-338 -121.5h-426zM344 117h291q148 0 234.5 84.5t86.5 226.5q0 145 -86 230t-235 85h-291v-626zM1448 0v1434h135v-1434h-135z" />
    <glyph glyph-name="uni042C" unicode="&#x42c;" horiz-adv-x="1208" 
d="M209 0v1434h135v-566h311q209 0 338 -122.5t129 -311.5t-129 -311.5t-338 -122.5h-446zM344 117h311q148 0 235 86t87 229q0 147 -86.5 233.5t-235.5 86.5h-311v-635z" />
    <glyph glyph-name="uni042D" unicode="&#x42d;" horiz-adv-x="1310" 
d="M492 100q255 0 399.5 150t157.5 430h-727v117h727q-17 252 -164 394t-379 142q-111 0 -201.5 -26t-185.5 -76v133q176 86 387 86q204 0 360 -89t241 -251t85 -373q0 -226 -85.5 -397t-243.5 -263.5t-367 -92.5q-210 0 -359 57v133q97 -41 173.5 -57.5t181.5 -16.5z" />
    <glyph glyph-name="uni042E" unicode="&#x42e;" horiz-adv-x="2037" 
d="M1270 -16q-128 0 -235.5 40t-181 107.5t-125.5 158.5t-77 190t-28 204h-279v-684h-135v1434h135v-633h281q25 300 199 474.5t446 174.5q128 0 236 -39.5t183 -108.5t127.5 -162t77.5 -200.5t25 -224.5q0 -173 -50 -313t-138 -230.5t-205.5 -139t-255.5 -48.5zM1270 100
q77 0 148.5 22t136.5 71t113.5 119.5t77 174t28.5 228.5t-28.5 229t-77 175t-113.5 120t-136.5 71.5t-148.5 22.5q-95 0 -182.5 -37t-160 -109.5t-116 -194.5t-43.5 -277q0 -125 28.5 -228.5t76.5 -174t113 -119.5t136.5 -71t147.5 -22z" />
    <glyph glyph-name="uni042F" unicode="&#x42f;" horiz-adv-x="1290" 
d="M80 0l328 592q-250 98 -250 401q0 210 127 325.5t362 115.5h434v-1434h-135v553h-299q-53 0 -102 6l-299 -559h-166zM647 670h299v647h-299q-344 0 -344 -324q0 -164 86 -243.5t258 -79.5z" />
    <glyph glyph-name="uni0430" unicode="&#x430;" horiz-adv-x="1142" 
d="M426 -16q-159 0 -246.5 88t-87.5 217q0 335 588 352l145 4v27q0 157 -71.5 220.5t-229.5 63.5q-196 0 -348 -67v119q167 59 352 59q212 0 319 -94t107 -301v-672h-125v166h-8q-141 -182 -395 -182zM463 92q165 0 263.5 100t98.5 259v86l-145 -5q-168 -5 -270.5 -37.5
t-142.5 -82t-40 -121.5q0 -92 61 -145.5t175 -53.5z" />
    <glyph glyph-name="uni0431" unicode="&#x431;" horiz-adv-x="1269" 
d="M119 709q0 731 559 823q20 3 147 19t228 34v-110q-65 -9 -196 -25.5t-179 -26.5q-412 -75 -445 -587h7q64 106 175.5 168.5t248.5 62.5q99 0 185.5 -34t154.5 -99.5t107.5 -173t39.5 -244.5q0 -243 -136.5 -387.5t-363.5 -144.5q-532 0 -532 725zM647 92
q156 0 262.5 110.5t106.5 313.5q0 108 -30 194t-81.5 139t-116.5 81t-139 28q-78 0 -147 -27t-124 -78.5t-87.5 -135t-32.5 -189.5q0 -105 31 -189t84.5 -137t123.5 -81.5t150 -28.5z" />
    <glyph glyph-name="uni0432" unicode="&#x432;" horiz-adv-x="1120" 
d="M979 778q0 -144 -156 -219v-2q90 -27 144.5 -98t54.5 -170q0 -57 -17.5 -103.5t-44 -76t-64 -51.5t-70 -32.5t-69 -17t-55 -7.5t-34.5 -1h-480v1051h465q158 0 242 -78t84 -195zM317 109h340q115 0 172.5 53.5t57.5 132.5q0 83 -61 137.5t-189 54.5h-320v-378zM317 596
h308q24 0 45 1.5t55.5 11t58.5 25.5t43 48.5t21 77.5q1 32 -7.5 61t-29.5 58t-63.5 46t-102.5 17h-328v-346z" />
    <glyph glyph-name="uni0433" unicode="&#x433;" horiz-adv-x="890" 
d="M188 0v1051h631v-109h-502v-942h-129z" />
    <glyph glyph-name="uni0434" unicode="&#x434;" horiz-adv-x="1218" 
d="M14 109h123q78 132 105.5 268.5t27.5 361.5v312h744v-942h160v-392h-130v283h-901v-283h-129v392zM399 737q0 -235 -22 -363t-92 -265h600v833h-486v-205z" />
    <glyph glyph-name="uni0435" unicode="&#x435;" horiz-adv-x="1177" 
d="M1061 487h-813q12 -187 118.5 -291t301.5 -104q169 0 317 68v-119q-148 -57 -321 -57q-256 0 -400.5 145.5t-144.5 413.5q0 243 136 383.5t355 140.5q451 0 451 -539v-41zM610 958q-154 0 -250.5 -96.5t-109.5 -265.5h676q1 23 -0.5 47t-8.5 61t-19.5 70t-36.5 67.5
t-56.5 59.5t-82.5 41t-112 16z" />
    <glyph glyph-name="uni0436" unicode="&#x436;" horiz-adv-x="1679" 
d="M1479 0l-326 487h-248v-487h-131v487h-250l-323 -487h-160l369 549l-334 502h155l301 -455h242v455h131v-455h242l301 455h156l-334 -502l368 -549h-159z" />
    <glyph glyph-name="uni0437" unicode="&#x437;" horiz-adv-x="983" 
d="M420 -16q-154 0 -311 45v127q132 -62 317 -62q143 0 225 53.5t82 151.5q0 85 -69 139t-222 54h-163v108h163q128 0 193 48.5t65 135.5q0 172 -264 172q-171 0 -303 -51v117q145 45 305 45q196 0 293.5 -77.5t97.5 -203.5q0 -90 -47 -146.5t-120 -80.5v-6
q35 -7 68.5 -24.5t65.5 -47t52 -77.5t20 -107q0 -143 -118 -228t-330 -85z" />
    <glyph glyph-name="uni0438" unicode="&#x438;" horiz-adv-x="1259" 
d="M188 0v1051h129l-2 -881h7l606 881h143v-1051h-129l2 881h-6l-606 -881h-144z" />
    <glyph glyph-name="uni0439" unicode="&#x439;" horiz-adv-x="1259" 
d="M188 0v1051h129l-2 -881h7l606 881h143v-1051h-129l2 881h-6l-606 -881h-144zM631 1257q-63 0 -117 16.5t-98.5 49t-71.5 88t-31 127.5h115q20 -178 203 -178q187 0 207 178h110q-4 -72 -31 -127.5t-71 -88t-98 -49t-117 -16.5z" />
    <glyph glyph-name="uni043A" unicode="&#x43a;" horiz-adv-x="1157" 
d="M188 0v1051h129v-455h289l320 455h155l-354 -502l389 -549h-160l-344 487h-295v-487h-129z" />
    <glyph glyph-name="uni043B" unicode="&#x43b;" horiz-adv-x="1208" 
d="M111 -16q-23 0 -48 2.5t-39 5.5l-14 2v117q29 -11 78 -11q28 0 49 8.5t44 33t39 73.5t29.5 124t20 191t6.5 269v252h744v-1051h-129v942h-485v-143q0 -205 -14 -352t-38 -236t-63 -140.5t-80.5 -69t-99.5 -17.5z" />
    <glyph glyph-name="uni043C" unicode="&#x43c;" horiz-adv-x="1495" 
d="M188 0v1051h209l353 -668l352 668h205v-1051h-131v930h-5l-358 -678h-131l-358 678h-5v-930h-131z" />
    <glyph glyph-name="uni043D" unicode="&#x43d;" horiz-adv-x="1249" 
d="M188 0v1051h129v-451h615v451h129v-1051h-129v492h-615v-492h-129z" />
    <glyph glyph-name="uni043E" unicode="&#x43e;" horiz-adv-x="1269" 
d="M635 -16q-232 0 -374 148t-142 392q0 246 141.5 394.5t374.5 148.5t374.5 -148.5t141.5 -394.5q0 -244 -142 -392t-374 -148zM635 92q77 0 141.5 25.5t108 68t73.5 99t44 116.5t14 123t-14 124t-44 117.5t-73.5 99t-108 68t-141.5 25.5t-141.5 -25.5t-108 -68t-73.5 -99
t-44 -117.5t-14 -124t14 -123t44 -116.5t73.5 -99t108 -68t141.5 -25.5z" />
    <glyph glyph-name="uni043F" unicode="&#x43f;" horiz-adv-x="1228" 
d="M188 0v1051h852v-1051h-129v942h-594v-942h-129z" />
    <glyph glyph-name="uni0440" unicode="&#x440;" horiz-adv-x="1290" 
d="M317 186v-637h-129v1502h125v-164h9q147 180 362 180q213 0 350 -149t137 -394q0 -249 -130 -394.5t-345 -145.5q-125 0 -222.5 55.5t-151.5 146.5h-5zM682 92q151 0 252.5 116.5t101.5 313.5q0 191 -99 313.5t-257 122.5q-161 0 -263 -122.5t-102 -313.5q0 -90 23 -164
t60 -122t86 -81.5t98.5 -48t99.5 -14.5z" />
    <glyph glyph-name="uni0441" unicode="&#x441;" horiz-adv-x="993" 
d="M643 -16q-253 0 -388.5 149t-135.5 406q0 241 137.5 384.5t382.5 143.5q110 0 219 -31v-114q-5 1 -35 8.5t-53.5 12.5t-63 10t-77.5 5q-178 0 -276.5 -113t-98.5 -310q0 -209 102 -326t285 -117q105 0 225 47v-114q-104 -41 -223 -41z" />
    <glyph glyph-name="uni0442" unicode="&#x442;" horiz-adv-x="983" 
d="M428 0v942h-371v109h869v-109h-371v-942h-127z" />
    <glyph glyph-name="uni0443" unicode="&#x443;" horiz-adv-x="1126" 
d="M295 -451q-16 0 -33.5 2t-32 4.5t-26 5.5t-18.5 5l-7 2v117q48 -19 101 -19q49 0 81 27.5t64 107.5l70 170l-435 1080h140l362 -906h8l361 906h137l-518 -1274q-21 -52 -40.5 -87.5t-49.5 -70.5t-71 -52.5t-93 -17.5z" />
    <glyph glyph-name="uni0444" unicode="&#x444;" horiz-adv-x="1617" 
d="M745 -449v439q-87 -6 -96 -6q-238 0 -384 144.5t-146 403.5q0 244 139.5 389.5t374.5 145.5q54 0 112 -4v498h127v-498q54 4 113 4q235 0 374.5 -145.5t139.5 -389.5q0 -259 -146 -403.5t-384 -144.5q-16 0 -97 6v-439h-127zM979 958q-45 0 -107 -4v-860q25 -2 78 -2
q196 0 305 109.5t109 326.5q0 203 -102 316.5t-283 113.5zM668 92q50 0 77 2v860q-66 4 -106 4q-181 0 -283 -113.5t-102 -316.5q0 -217 109 -326.5t305 -109.5z" />
    <glyph glyph-name="uni0445" unicode="&#x445;" horiz-adv-x="1105" 
d="M39 0l426 549l-381 502h160l309 -422l309 422h160l-381 -502l426 -549h-166l-350 467l-346 -467h-166z" />
    <glyph glyph-name="uni0446" unicode="&#x446;" horiz-adv-x="1228" 
d="M1055 -283v283h-867v1051h129v-942h578v942h129v-942h160v-392h-129z" />
    <glyph glyph-name="uni0447" unicode="&#x447;" horiz-adv-x="1157" 
d="M840 0v449q-158 -58 -330 -58q-90 0 -156.5 16t-107.5 43.5t-66 68.5t-34 84.5t-9 98.5v349h129v-328q0 -41 4 -69t19 -59.5t42.5 -50.5t77.5 -31.5t121 -12.5q164 0 310 57v494h129v-1051h-129z" />
    <glyph glyph-name="uni0448" unicode="&#x448;" horiz-adv-x="1761" 
d="M188 0v1051h129v-942h500v942h127v-942h500v942h129v-1051h-1385z" />
    <glyph glyph-name="uni0449" unicode="&#x449;" horiz-adv-x="1781" 
d="M188 0v1051h129v-942h502v942h127v-942h502v942h129l-2 -942h162v-392h-129l2 283h-1422z" />
    <glyph glyph-name="uni044A" unicode="&#x44a;" horiz-adv-x="1167" 
d="M270 0v942h-250v109h379v-375h301q410 0 410 -338t-410 -338h-430zM700 567h-301v-458h301q275 0 275 229t-275 229z" />
    <glyph glyph-name="uni044B" unicode="&#x44b;" horiz-adv-x="1587" 
d="M188 0v1051h129v-375h269q409 0 409 -338t-409 -338h-398zM317 109h269q274 0 274 229t-274 229h-269v-458zM1270 0v1051h129v-1051h-129z" />
    <glyph glyph-name="uni044C" unicode="&#x44c;" horiz-adv-x="1085" 
d="M188 0v1051h129v-375h301q410 0 410 -338t-410 -338h-430zM618 567h-301v-458h301q275 0 275 229t-275 229z" />
    <glyph glyph-name="uni044D" unicode="&#x44d;" horiz-adv-x="1024" 
d="M379 92q183 0 281 98.5t110 286.5h-489v109h489q-13 180 -114 276t-265 96q-121 0 -256 -59v119q84 28 138 38.5t118 10.5q240 0 377 -140.5t137 -387.5q0 -261 -137 -408t-393 -147q-140 0 -248 41v114q126 -47 252 -47z" />
    <glyph glyph-name="uni044E" unicode="&#x44e;" horiz-adv-x="1716" 
d="M188 0v1051h129v-457h287q20 217 152 345t344 128q226 0 361.5 -148.5t135.5 -394.5q0 -244 -136.5 -392t-360.5 -148q-218 0 -352 135t-146 362h-285v-481h-129zM1100 92q91 0 163 38.5t114 102t63.5 138t21.5 153.5q0 63 -13 124t-41.5 117.5t-70 99t-102.5 68
t-135 25.5q-94 0 -166.5 -38.5t-114 -102.5t-62 -138t-20.5 -155q0 -80 20.5 -154t62 -137.5t114 -102t166.5 -38.5z" />
    <glyph glyph-name="uni044F" unicode="&#x44f;" horiz-adv-x="1146" 
d="M94 0l250 430q-209 69 -209 297q0 156 97 240t292 84h434v-1051h-129v403h-305q-25 0 -49 3l-225 -406h-156zM524 512h305v430h-305q-127 0 -190.5 -56t-63.5 -159t63.5 -159t190.5 -56z" />
    <glyph glyph-name="uni0451" unicode="&#x451;" horiz-adv-x="1177" 
d="M1061 487h-813q12 -187 118.5 -291t301.5 -104q169 0 317 68v-119q-148 -57 -321 -57q-256 0 -400.5 145.5t-144.5 413.5q0 243 136 383.5t355 140.5q451 0 451 -539v-41zM610 958q-154 0 -250.5 -96.5t-109.5 -265.5h676q1 23 -0.5 47t-8.5 61t-19.5 70t-36.5 67.5
t-56.5 59.5t-82.5 41t-112 16zM317 1300v164h142v-164h-142zM729 1300v164h141v-164h-141z" />
    <glyph glyph-name="uni0452" unicode="&#x452;" horiz-adv-x="1249" 
d="M6 1260v108h182v193h129v-193h433v-108h-433v-383q55 84 151 137t218 53q92 0 162.5 -27t112 -68t68 -97.5t35.5 -108t9 -107.5v-823q0 -41 -3 -73.5t-16.5 -76.5t-37 -73.5t-69.5 -50.5t-109 -21q-59 0 -117 17v104q40 -12 94 -12q28 0 47.5 5.5t40 22t31 53.5t10.5 93
v825q0 47 -6 87.5t-24 82.5t-46.5 71.5t-77 48.5t-112.5 19q-153 0 -257 -102t-104 -244v-612h-129v1260h-182z" />
    <glyph glyph-name="uni0453" unicode="&#x453;" horiz-adv-x="890" 
d="M188 0v1051h631v-109h-502v-942h-129zM438 1249l185 267h192l-274 -267h-103z" />
    <glyph glyph-name="uni0454" unicode="&#x454;" horiz-adv-x="1024" 
d="M645 92q126 0 252 47v-114q-108 -41 -248 -41q-256 0 -393 147t-137 408q0 247 137 387.5t377 140.5q64 0 118 -10.5t138 -38.5v-119q-135 59 -256 59q-164 0 -265 -96t-114 -276h489v-109h-489q12 -188 110 -286.5t281 -98.5z" />
    <glyph glyph-name="uni0455" unicode="&#x455;" horiz-adv-x="962" 
d="M424 -16q-161 0 -297 43v127q149 -60 305 -60q122 0 198.5 46.5t76.5 133.5q0 36 -15.5 67t-35.5 51.5t-60.5 43t-67 34t-79.5 32.5q-41 17 -64 26.5t-60.5 28t-59 33.5t-48.5 38.5t-41.5 47.5t-24.5 56.5t-10 68.5q0 127 104.5 196.5t276.5 69.5q150 0 281 -39v-115
q-124 43 -285 43q-49 0 -91 -7.5t-78.5 -24t-57.5 -47t-21 -72.5q0 -24 8 -45.5t17.5 -37t32.5 -32t37.5 -26t48 -24.5t49 -21t55.5 -21q45 -17 67 -26t63 -28t62.5 -34t50.5 -40.5t43 -51t25 -61t11 -76.5q0 -132 -103 -214.5t-313 -82.5z" />
    <glyph glyph-name="uni0456" unicode="&#x456;" horiz-adv-x="593" 
d="M233 0v1051h129v-1051h-129zM227 1311v164h142v-164h-142z" />
    <glyph glyph-name="uni0457" unicode="&#x457;" horiz-adv-x="593" 
d="M233 0v1051h129v-1051h-129zM94 1311v164h142v-164h-142zM358 1311v164h142v-164h-142z" />
    <glyph glyph-name="uni0458" unicode="&#x458;" horiz-adv-x="593" 
d="M127 -459q-59 0 -117 17v104q40 -12 94 -12q28 0 47.5 5.5t40 22t31 53.5t10.5 93v1227h129v-1215q0 -41 -3 -73.5t-16.5 -76.5t-37 -73.5t-69.5 -50.5t-109 -21zM227 1311v164h142v-164h-142z" />
    <glyph glyph-name="uni0459" unicode="&#x459;" horiz-adv-x="1689" 
d="M10 -6v112q29 -14 72 -14q36 0 61.5 13t52 56t43 118t27 206t10.5 314v252h701v-437h235q420 0 420 -297q0 -317 -420 -317h-364v942h-442v-143q0 -204 -15 -351.5t-40 -236.5t-65.5 -140.5t-83 -69t-100.5 -17.5q-23 0 -46 2.5t-34 5.5zM977 109h235q285 0 285 208
q0 189 -285 189h-235v-397z" />
    <glyph glyph-name="uni045A" unicode="&#x45a;" horiz-adv-x="1689" 
d="M188 0v1051h129v-437h531v437h129v-437h246q409 0 409 -297q0 -317 -409 -317h-375v506h-531v-506h-129zM977 109h246q274 0 274 206q0 191 -274 191h-246v-397z" />
    <glyph glyph-name="uni045B" unicode="&#x45b;" horiz-adv-x="1249" 
d="M6 1260v108h182v193h129v-193h433v-108h-433v-383q55 84 151 137t218 53q92 0 162.5 -27t112 -68t68 -97.5t35.5 -108t9 -107.5v-659h-129v649q0 47 -6 87.5t-24 82.5t-46.5 71.5t-77 48.5t-112.5 19q-153 0 -257 -102t-104 -244v-612h-129v1260h-182z" />
    <glyph glyph-name="uni045C" unicode="&#x45c;" horiz-adv-x="1157" 
d="M188 0v1051h129v-455h289l320 455h155l-354 -502l389 -549h-160l-344 487h-295v-487h-129zM528 1249l185 267h192l-274 -267h-103z" />
    <glyph glyph-name="uni045E" unicode="&#x45e;" horiz-adv-x="1126" 
d="M295 -451q-16 0 -33.5 2t-32 4.5t-26 5.5t-18.5 5l-7 2v117q48 -19 101 -19q49 0 81 27.5t64 107.5l70 170l-435 1080h140l362 -906h8l361 906h137l-518 -1274q-21 -52 -40.5 -87.5t-49.5 -70.5t-71 -52.5t-93 -17.5zM553 1257q-63 0 -117 16.5t-98 49t-71 88t-31 127.5
h114q20 -178 203 -178q187 0 207 178h110q-4 -72 -31 -127.5t-71 -88t-98 -49t-117 -16.5z" />
    <glyph glyph-name="uni045F" unicode="&#x45f;" horiz-adv-x="1218" 
d="M545 -303v303h-357v1051h129v-942h584v942h129v-1051h-356v-303h-129z" />
    <glyph glyph-name="uni0462" unicode="&#x462;" horiz-adv-x="1290" 
d="M-23 1075v109h314v250h135v-250h506v-109h-506v-229h311q209 0 338 -120t129 -304t-128.5 -303t-338.5 -119h-446v1075h-314zM426 117h311q148 0 235 83t87 220q0 142 -86.5 225.5t-235.5 83.5h-311v-612z" />
    <glyph glyph-name="uni0463" unicode="&#x463;" horiz-adv-x="1167" 
d="M20 942v109h250v510h129v-510h322v-109h-322v-266h301q410 0 410 -338t-410 -338h-430v942h-250zM399 109h301q275 0 275 229t-275 229h-301v-458z" />
    <glyph glyph-name="uni0472" unicode="&#x472;" horiz-adv-x="1536" 
d="M768 -16q-138 0 -255.5 48.5t-205.5 139t-138 230.5t-50 313q0 117 25 224.5t77.5 200.5t128 162t183 108.5t235.5 39.5t235.5 -39.5t183 -108.5t128 -162t77.5 -200.5t25 -224.5q0 -173 -50 -313t-138 -230.5t-205.5 -139t-255.5 -48.5zM768 100q94 0 179 34
t156.5 101.5t116.5 180.5t50 258h-1006q5 -117 35.5 -213.5t79 -162.5t112 -111t133.5 -66t144 -21zM768 1333q-91 0 -174.5 -33t-153.5 -97.5t-117 -171.5t-57 -243h1002q-10 136 -56 243t-116 171.5t-153.5 97.5t-174.5 33z" />
    <glyph glyph-name="uni0473" unicode="&#x473;" horiz-adv-x="1269" 
d="M635 -16q-232 0 -374 148t-142 392q0 246 141.5 394.5t374.5 148.5t374.5 -148.5t141.5 -394.5q0 -244 -142 -392t-374 -148zM635 92q89 0 160.5 33t116 88.5t70.5 122.5t32 141h-758q6 -74 32 -141t70.5 -122.5t116 -88.5t160.5 -33zM635 958q-86 0 -155.5 -31
t-114 -83.5t-71.5 -116t-36 -135.5h754q-9 72 -36 135.5t-71.5 116t-114 83.5t-155.5 31z" />
    <glyph glyph-name="uni0474" unicode="&#x474;" horiz-adv-x="1372" 
d="M586 0l-525 1434h150l457 -1284h12l356 1062q41 126 95.5 181t148.5 55q43 0 92 -14v-113q-43 12 -74 12q-53 0 -81 -36t-58 -126l-393 -1171h-180z" />
    <glyph glyph-name="uni0475" unicode="&#x475;" horiz-adv-x="1136" 
d="M477 0l-422 1051h142l358 -918l279 737q74 195 235 195q31 0 66 -6v-113q-16 4 -48 4q-52 0 -82.5 -31t-58.5 -102l-317 -817h-152z" />
    <glyph glyph-name="uni0490" unicode="&#x490;" horiz-adv-x="1064" 
d="M209 0v1434h670v311h135v-428h-670v-1317h-135z" />
    <glyph glyph-name="uni0491" unicode="&#x491;" horiz-adv-x="901" 
d="M188 0v1051h512v282h129v-391h-512v-942h-129z" />
    <glyph glyph-name="uni0492" unicode="&#x492;" horiz-adv-x="1105" 
d="M250 0v657h-227v117h227v660h774v-117h-639v-543h481v-117h-481v-657h-135z" />
    <glyph glyph-name="uni0493" unicode="&#x493;" horiz-adv-x="911" 
d="M209 0v451h-156v108h156v492h631v-109h-502v-383h369v-108h-369v-451h-129z" />
    <glyph glyph-name="uni0494" unicode="&#x494;" horiz-adv-x="1300" 
d="M852 -410q-63 0 -166 21l12 119q90 -23 146 -23q96 0 143 70t47 229v463q0 154 -76 228.5t-243 74.5q-180 0 -371 -90v-682h-135v1434h819v-117h-684v-518q201 90 385 90q440 0 440 -418v-465q0 -215 -79 -315.5t-238 -100.5z" />
    <glyph glyph-name="uni0495" unicode="&#x495;" horiz-adv-x="1064" 
d="M188 0v1051h631v-109h-502v-360q127 34 254 34q81 0 146.5 -17.5t117.5 -54.5t80.5 -101.5t28.5 -151.5v-361q0 -189 -68.5 -285t-216.5 -96q-69 0 -155 21v115q83 -17 127 -17q99 0 141.5 60t42.5 190v352q0 126 -72.5 182t-195.5 56q-93 0 -230 -35v-473h-129z" />
    <glyph glyph-name="uni0496" unicode="&#x496;" horiz-adv-x="1925" 
d="M1714 0l-489 711h-195v-711h-135v711h-197l-487 -711h-180l547 772l-492 662h170l444 -607h195v607h135v-607h195l444 607h170l-491 -662l462 -655h84v-428h-135v311h-45z" />
    <glyph glyph-name="uni0497" unicode="&#x497;" horiz-adv-x="1699" 
d="M1479 0l-326 487h-248v-487h-131v487h-250l-323 -487h-160l369 549l-334 502h155l301 -455h242v455h131v-455h242l301 455h156l-334 -502l295 -440h90v-392h-129v283h-47z" />
    <glyph glyph-name="uni0498" unicode="&#x498;" horiz-adv-x="1105" 
d="M573 -311h-135v295q-201 8 -368 90v125q84 -44 192.5 -71.5t206.5 -27.5q189 0 292 78t103 209q0 134 -100 218.5t-295 84.5h-174v117h174q176 0 262 73.5t86 202.5q0 250 -348 250q-175 0 -358 -76v125q191 68 358 68q246 0 370 -98.5t124 -266.5q0 -124 -61 -211.5
t-173 -117.5v-4q135 -25 208 -124.5t73 -238.5q0 -162 -112 -270t-325 -129v-301z" />
    <glyph glyph-name="uni0499" unicode="&#x499;" horiz-adv-x="983" 
d="M502 -287h-129v273q-132 4 -264 43v127q132 -62 317 -62q143 0 225 53.5t82 151.5q0 85 -69 139t-222 54h-163v108h163q128 0 193 48.5t65 135.5q0 172 -264 172q-171 0 -303 -51v117q145 45 305 45q196 0 293.5 -77.5t97.5 -203.5q0 -90 -47 -146.5t-120 -80.5v-6
q35 -7 68.5 -24.5t65.5 -47t52 -77.5t20 -107q0 -129 -95.5 -211.5t-270.5 -97.5v-275z" />
    <glyph glyph-name="uni049A" unicode="&#x49a;" horiz-adv-x="1320" 
d="M209 0v1434h135v-617h246l475 617h170l-520 -672l487 -645h88v-428h-135v311h-45l-516 700h-250v-700h-135z" />
    <glyph glyph-name="uni049B" unicode="&#x49b;" horiz-adv-x="1177" 
d="M188 0v1051h129v-455h289l320 455h155l-354 -502l311 -440h95v-392h-129v283h-48l-344 487h-295v-487h-129z" />
    <glyph glyph-name="uni049C" unicode="&#x49c;" horiz-adv-x="1454" 
d="M1243 0l-516 700h-113v-315h-110v315h-160v-700h-135v1434h135v-617h160v279h110v-279h109l475 617h170l-520 -672l575 -762h-180z" />
    <glyph glyph-name="uni049D" unicode="&#x49d;" horiz-adv-x="1280" 
d="M1075 0l-373 487h-118v-256h-111v256h-156v-487h-129v1051h129v-455h156v258h111v-258h112l357 455h155l-391 -504l422 -547h-164z" />
    <glyph glyph-name="uni04A0" unicode="&#x4a0;" horiz-adv-x="1464" 
d="M352 0v1317h-299v117h434v-617h246l475 617h170l-520 -672l576 -762h-181l-516 700h-250v-700h-135z" />
    <glyph glyph-name="uni04A1" unicode="&#x4a1;" horiz-adv-x="1239" 
d="M270 0v942h-250v109h379v-455h289l320 455h155l-354 -502l389 -549h-160l-344 487h-295v-487h-129z" />
    <glyph glyph-name="uni04A2" unicode="&#x4a2;" horiz-adv-x="1525" 
d="M1315 -311v311h-185v684h-786v-684h-135v1434h135v-633h786v633h136v-1317h184v-428h-135z" />
    <glyph glyph-name="uni04A3" unicode="&#x4a3;" horiz-adv-x="1269" 
d="M1096 -283v283h-164v492h-615v-492h-129v1051h129v-451h615v451h129v-942h164v-392h-129z" />
    <glyph glyph-name="uni04A4" unicode="&#x4a4;" horiz-adv-x="1884" 
d="M209 0v1434h135v-633h725v633h754v-117h-619v-1317h-135v684h-725v-684h-135z" />
    <glyph glyph-name="uni04A5" unicode="&#x4a5;" horiz-adv-x="1536" 
d="M188 0v1051h129v-451h543v451h604v-109h-475v-942h-129v492h-543v-492h-129z" />
    <glyph glyph-name="uni04AA" unicode="&#x4aa;" horiz-adv-x="1290" 
d="M821 -16h-4v-295h-135v305q-265 40 -414 234t-149 509q0 320 192.5 516.5t511.5 196.5q194 0 332 -55v-125q-185 63 -326 63q-251 0 -408 -167.5t-157 -434.5q0 -298 151.5 -463.5t411.5 -165.5q193 0 340 62v-125q-163 -55 -346 -55z" />
    <glyph glyph-name="uni04AB" unicode="&#x4ab;" horiz-adv-x="993" 
d="M643 -16h-14v-271h-129v285q-185 39 -283 181t-98 360q0 241 137.5 384.5t382.5 143.5q110 0 219 -31v-114q-5 1 -35 8.5t-53.5 12.5t-63 10t-77.5 5q-178 0 -276.5 -113t-98.5 -310q0 -209 102 -326t285 -117q105 0 225 47v-114q-104 -41 -223 -41z" />
    <glyph glyph-name="uni04AE" unicode="&#x4ae;" horiz-adv-x="1331" 
d="M66 1434h161l437 -748h2l438 748h162l-533 -871v-563h-135v563z" />
    <glyph glyph-name="uni04AF" unicode="&#x4af;" horiz-adv-x="1105" 
d="M53 1051h137l361 -899h6l358 899h138l-435 -1076v-426h-129v426z" />
    <glyph glyph-name="uni04B0" unicode="&#x4b0;" horiz-adv-x="1331" 
d="M66 1434h161l437 -748h2l438 748h162l-512 -838h372v-117h-393v-479h-135v479h-373v117h353z" />
    <glyph glyph-name="uni04B1" unicode="&#x4b1;" horiz-adv-x="1105" 
d="M53 1051h137l361 -899h6l358 899h138l-424 -1051h346v-115h-357v-336h-129v336h-358v115h348z" />
    <glyph glyph-name="uni04B2" unicode="&#x4b2;" horiz-adv-x="1413" 
d="M1155 0l-457 666l-446 -666h-162l528 760l-497 674h168l413 -586l414 586h156l-486 -674l453 -643h84v-428h-135v311h-33z" />
    <glyph glyph-name="uni04B3" unicode="&#x4b3;" horiz-adv-x="1126" 
d="M39 0l426 549l-381 502h160l309 -422l309 422h160l-381 -502l342 -440h98v-392h-129v283h-51l-350 467l-346 -467h-166z" />
    <glyph glyph-name="uni04B6" unicode="&#x4b6;" horiz-adv-x="1382" 
d="M1171 -311v311h-184v623q-234 -58 -414 -58q-97 0 -171 18t-134.5 59t-92.5 116t-32 182v494h136v-504q0 -254 319 -254q203 0 389 57v701h135v-1317h185v-428h-136z" />
    <glyph glyph-name="uni04B7" unicode="&#x4b7;" horiz-adv-x="1177" 
d="M840 0v449q-158 -58 -330 -58q-90 0 -156.5 16t-107.5 43.5t-66 68.5t-34 84.5t-9 98.5v349h129v-328q0 -41 4 -69t19 -59.5t42.5 -50.5t77.5 -31.5t121 -12.5q164 0 310 57v494h129v-942h164v-392h-129v283h-164z" />
    <glyph glyph-name="uni04B8" unicode="&#x4b8;" horiz-adv-x="1351" 
d="M604 993h111v-323q140 3 293 49v715h135v-1434h-135v602q-146 -39 -293 -45v-274h-111v274q-82 3 -149 16.5t-126.5 42.5t-99.5 73t-63 111.5t-23 155.5v478h136v-476q0 -76 24.5 -130.5t70.5 -86t101.5 -47.5t128.5 -22v321z" />
    <glyph glyph-name="uni04B9" unicode="&#x4b9;" horiz-adv-x="1177" 
d="M860 561v490h129v-1051h-129v453q-127 -47 -248 -58v-233h-110v229q-86 1 -151 17.5t-105 43t-65 66.5t-34.5 83t-9.5 97v353h129v-332q0 -38 4 -65t18.5 -56.5t39.5 -48.5t69 -32.5t105 -16.5v284h110v-282q128 12 248 59z" />
    <glyph glyph-name="uni04BA" unicode="&#x4ba;" horiz-adv-x="1351" 
d="M344 1434v-637q215 110 434 110q212 0 321 -105t109 -313v-489h-135v487q0 154 -74.5 229t-250.5 75q-198 0 -404 -113v-678h-135v1434h135z" />
    <glyph glyph-name="uni04BB" unicode="&#x4bb;" horiz-adv-x="1249" 
d="M188 0v1561h129v-684q55 84 151 137t218 53q92 0 162.5 -27t112 -68t68 -97.5t35.5 -108t9 -107.5v-659h-129v649q0 47 -6 87.5t-24 82.5t-46.5 71.5t-77 48.5t-112.5 19q-153 0 -257 -102t-104 -244v-612h-129z" />
    <glyph glyph-name="uni04C0" unicode="&#x4c0;" horiz-adv-x="634" 
d="M250 0v1434h135v-1434h-135z" />
    <glyph glyph-name="uni04C3" unicode="&#x4c3;" horiz-adv-x="1320" 
d="M209 0v1434h135v-627h215l504 627h174l-553 -670q131 -60 233 -132t167.5 -143.5t108 -150.5t60 -152t17.5 -149q0 -87 -25 -166t-72.5 -142.5t-125 -101t-175.5 -37.5q-68 0 -165 23l16 121q76 -15 131 -15q63 0 112 17.5t80 47t51.5 71.5t29 87.5t8.5 98.5
q0 397 -572 649h-219v-690h-135z" />
    <glyph glyph-name="uni04C4" unicode="&#x4c4;" horiz-adv-x="1157" 
d="M188 0v1051h129v-451h293l316 451h155l-342 -498q184 -93 275.5 -237t91.5 -312q0 -96 -23.5 -175t-62 -131.5t-91 -88.5t-108.5 -52t-116 -16q-32 0 -99 13v114q36 -8 78 -8q132 0 212.5 97t80.5 257q0 292 -356 469h-304v-483h-129z" />
    <glyph glyph-name="uni04C7" unicode="&#x4c7;" horiz-adv-x="1474" 
d="M944 -410q-65 0 -151 21v115q82 -19 135 -19q108 0 155 66.5t47 191.5v719h-786v-684h-135v1434h135v-633h786v633h136v-1469q0 -180 -78.5 -277.5t-243.5 -97.5z" />
    <glyph glyph-name="uni04C8" unicode="&#x4c8;" horiz-adv-x="1249" 
d="M825 -459q-58 0 -116 17v104q40 -12 94 -12q28 0 47.5 5.5t40 22t31 53.5t10.5 93v668h-615v-492h-129v1051h129v-451h615v451h129v-1215q0 -33 -2.5 -60t-9.5 -64t-23.5 -65t-41 -53.5t-65.5 -39t-94 -13.5z" />
    <glyph glyph-name="uni04CF" unicode="&#x4cf;" horiz-adv-x="593" 
d="M233 0v1561h129v-1561h-129z" />
    <glyph glyph-name="uni04D0" unicode="&#x4d0;" horiz-adv-x="1413" 
d="M78 0l540 1434h177l540 -1434h-147l-146 393h-675l-146 -393h-143zM705 1298l-295 -788h589l-290 788h-4zM707 1499q-139 0 -230 70t-98 211h119q20 -174 209 -174q193 0 213 174h114q-4 -72 -31 -127.5t-72 -88t-101.5 -49t-122.5 -16.5z" />
    <glyph glyph-name="uni04D1" unicode="&#x4d1;" horiz-adv-x="1142" 
d="M426 -16q-159 0 -246.5 88t-87.5 217q0 335 588 352l145 4v27q0 157 -71.5 220.5t-229.5 63.5q-196 0 -348 -67v119q167 59 352 59q212 0 319 -94t107 -301v-672h-125v166h-8q-141 -182 -395 -182zM463 92q165 0 263.5 100t98.5 259v86l-145 -5q-168 -5 -270.5 -37.5
t-142.5 -82t-40 -121.5q0 -92 61 -145.5t175 -53.5zM545 1257q-63 0 -117 16.5t-98.5 49t-71.5 88t-31 127.5h115q20 -178 203 -178q187 0 207 178h110q-4 -72 -31 -127.5t-71 -88t-98 -49t-117 -16.5z" />
    <glyph glyph-name="uni04D2" unicode="&#x4d2;" horiz-adv-x="1413" 
d="M78 0l540 1434h177l540 -1434h-147l-146 393h-675l-146 -393h-143zM705 1298l-295 -788h589l-290 788h-4zM870 1565v164h142v-164h-142zM401 1565h142v164h-142v-164z" />
    <glyph glyph-name="uni04D3" unicode="&#x4d3;" horiz-adv-x="1142" 
d="M426 -16q-159 0 -246.5 88t-87.5 217q0 335 588 352l145 4v27q0 157 -71.5 220.5t-229.5 63.5q-196 0 -348 -67v119q167 59 352 59q212 0 319 -94t107 -301v-672h-125v166h-8q-141 -182 -395 -182zM463 92q165 0 263.5 100t98.5 259v86l-145 -5q-168 -5 -270.5 -37.5
t-142.5 -82t-40 -121.5q0 -92 61 -145.5t175 -53.5zM266 1300v164h142v-164h-142zM678 1300v164h141v-164h-141z" />
    <glyph glyph-name="uni04D4" unicode="&#x4d4;" horiz-adv-x="1832" 
d="M10 0l885 1434h821v-117h-598l27 -506h543v-117h-537l33 -577h538v-117h-673l-23 395h-620l-242 -395h-154zM969 1315l-492 -803h543l-43 803h-8z" />
    <glyph glyph-name="uni04D5" unicode="&#x4d5;" horiz-adv-x="1812" 
d="M524 1067q295 0 381 -213q62 103 158.5 158t220.5 55q78 0 141.5 -20t105.5 -52t73.5 -78.5t48.5 -92t27 -100.5t13 -95.5t3 -85.5v-41h-750q12 -197 111.5 -303.5t285.5 -106.5q144 0 277 68v-119q-132 -57 -287 -57q-316 0 -454 254q-46 -77 -108.5 -131t-127.5 -79
t-117 -34.5t-102 -9.5q-156 0 -244 75.5t-88 216.5q0 52 12.5 95t33.5 75t53.5 57.5t66 42.5t78.5 29t84 19t89.5 10.5t87.5 4.5t85 1h149q0 59 -4 100t-22 91.5t-49.5 81t-91.5 52t-144 21.5q-185 0 -340 -67v117q164 61 344 61zM459 92q162 0 267 98.5t105 266.5v45h-167
q-102 0 -179.5 -11.5t-136.5 -37t-90 -69t-31 -105.5q0 -89 59.5 -138t172.5 -49zM1278 958q-140 0 -230 -93t-102 -255h615q1 21 -1 45t-8.5 59t-18 67t-33 65t-50.5 57t-73.5 39.5t-98.5 15.5z" />
    <glyph glyph-name="uni04D6" unicode="&#x4d6;" horiz-adv-x="1105" 
d="M209 0v1434h766v-117h-631v-518h592v-117h-592v-565h651v-117h-786zM598 1499q-139 0 -230 70t-98 211h119q20 -174 209 -174q193 0 213 174h115q-7 -141 -98 -211t-230 -70z" />
    <glyph glyph-name="uni04D7" unicode="&#x4d7;" horiz-adv-x="1177" 
d="M1061 487h-813q12 -187 118.5 -291t301.5 -104q169 0 317 68v-119q-148 -57 -321 -57q-256 0 -400.5 145.5t-144.5 413.5q0 243 136 383.5t355 140.5q451 0 451 -539v-41zM610 958q-154 0 -250.5 -96.5t-109.5 -265.5h676q1 23 -0.5 47t-8.5 61t-19.5 70t-36.5 67.5
t-56.5 59.5t-82.5 41t-112 16zM596 1257q-63 0 -117 16.5t-98 49t-71 88t-31 127.5h114q20 -178 203 -178q187 0 207 178h110q-4 -72 -31 -127.5t-71 -88t-98 -49t-117 -16.5z" />
    <glyph glyph-name="uni04D8" unicode="&#x4d8;" horiz-adv-x="1474" 
d="M119 715v59h1089q-13 279 -149.5 419t-362.5 140q-120 0 -237.5 -38t-200.5 -87v135q233 107 457 107q134 0 243 -39.5t182 -108t122.5 -163t71.5 -200t22 -224.5q0 -174 -47.5 -314t-131 -230.5t-196 -138.5t-244.5 -48q-131 0 -243 48.5t-195.5 139t-131.5 230.5
t-48 313zM737 100q86 0 165 33t146 98t110 175t50 251h-942q9 -141 52.5 -250.5t109.5 -175t144.5 -98.5t164.5 -33z" />
    <glyph glyph-name="uni04D9" unicode="&#x4d9;" horiz-adv-x="1177" 
d="M117 522v41h811q-11 188 -113.5 291.5t-296.5 103.5q-176 0 -321 -67v119q148 57 325 57q255 0 396 -145t141 -414q0 -243 -136.5 -383.5t-355.5 -140.5q-450 0 -450 538zM567 92q152 0 249 97t112 266h-676q-1 -23 0.5 -47t8.5 -61.5t19 -70t36 -67.5t56.5 -60t82.5 -41
t112 -16z" />
    <glyph glyph-name="uni04DA" unicode="&#x4da;" horiz-adv-x="1474" 
d="M119 715v59h1089q-13 279 -149.5 419t-362.5 140q-120 0 -237.5 -38t-200.5 -87v135q233 107 457 107q134 0 243 -39.5t182 -108t122.5 -163t71.5 -200t22 -224.5q0 -174 -47.5 -314t-131 -230.5t-196 -138.5t-244.5 -48q-131 0 -243 48.5t-195.5 139t-131.5 230.5
t-48 313zM737 100q86 0 165 33t146 98t110 175t50 251h-942q9 -141 52.5 -250.5t109.5 -175t144.5 -98.5t164.5 -33zM901 1565v164h141v-164h-141zM432 1565h141v164h-141v-164z" />
    <glyph glyph-name="uni04DB" unicode="&#x4db;" horiz-adv-x="1177" 
d="M117 522v41h811q-11 188 -113.5 291.5t-296.5 103.5q-176 0 -321 -67v119q148 57 325 57q255 0 396 -145t141 -414q0 -243 -136.5 -383.5t-355.5 -140.5q-450 0 -450 538zM567 92q152 0 249 97t112 266h-676q-1 -23 0.5 -47t8.5 -61.5t19 -70t36 -67.5t56.5 -60t82.5 -41
t112 -16zM289 1300v164h141v-164h-141zM700 1300v164h142v-164h-142z" />
    <glyph glyph-name="uni04DC" unicode="&#x4dc;" horiz-adv-x="1925" 
d="M1714 0l-489 711h-195v-711h-135v711h-197l-487 -711h-180l547 772l-492 662h170l444 -607h195v607h135v-607h195l444 607h170l-491 -662l546 -772h-180zM1126 1565v164h142v-164h-142zM657 1565h142v164h-142v-164z" />
    <glyph glyph-name="uni04DD" unicode="&#x4dd;" horiz-adv-x="1679" 
d="M1479 0l-326 487h-248v-487h-131v487h-250l-323 -487h-160l369 549l-334 502h155l301 -455h242v455h131v-455h242l301 455h156l-334 -502l368 -549h-159zM567 1300v164h142v-164h-142zM979 1300v164h141v-164h-141z" />
    <glyph glyph-name="uni04DE" unicode="&#x4de;" horiz-adv-x="1105" 
d="M469 -16q-208 0 -399 90v125q84 -44 192.5 -71.5t206.5 -27.5q189 0 292 78t103 209q0 134 -100 218.5t-295 84.5h-174v117h174q176 0 262 73.5t86 202.5q0 250 -348 250q-175 0 -358 -76v125q191 68 358 68q246 0 370 -98.5t124 -266.5q0 -124 -61 -211.5t-173 -117.5
v-4q135 -25 208 -124.5t73 -238.5q0 -181 -139.5 -293t-401.5 -112zM659 1565v164h142v-164h-142zM190 1565h142v164h-142v-164z" />
    <glyph glyph-name="uni04DF" unicode="&#x4df;" horiz-adv-x="983" 
d="M420 -16q-154 0 -311 45v127q132 -62 317 -62q143 0 225 53.5t82 151.5q0 85 -69 139t-222 54h-163v108h163q128 0 193 48.5t65 135.5q0 172 -264 172q-171 0 -303 -51v117q145 45 305 45q196 0 293.5 -77.5t97.5 -203.5q0 -90 -47 -146.5t-120 -80.5v-6
q35 -7 68.5 -24.5t65.5 -47t52 -77.5t20 -107q0 -143 -118 -228t-330 -85zM162 1300v164h141v-164h-141zM573 1300v164h142v-164h-142z" />
    <glyph glyph-name="uni04E2" unicode="&#x4e2;" horiz-adv-x="1515" 
d="M209 0v1434h135v-1078l-4 -155h6l76 127l731 1106h154v-1434h-136v1077l5 156h-7l-67 -117l-740 -1116h-153zM485 1606v110h547v-110h-547z" />
    <glyph glyph-name="uni04E3" unicode="&#x4e3;" horiz-adv-x="1259" 
d="M188 0v1051h129l-2 -881h7l606 881h143v-1051h-129l2 881h-6l-606 -881h-144zM373 1352v110h516v-110h-516z" />
    <glyph glyph-name="uni04E4" unicode="&#x4e4;" horiz-adv-x="1515" 
d="M209 0v1434h135v-1078l-4 -155h6l76 127l731 1106h154v-1434h-136v1077l5 156h-7l-67 -117l-740 -1116h-153zM922 1565v164h141v-164h-141zM453 1565h141v164h-141v-164z" />
    <glyph glyph-name="uni04E5" unicode="&#x4e5;" horiz-adv-x="1259" 
d="M188 0v1051h129l-2 -881h7l606 881h143v-1051h-129l2 881h-6l-606 -881h-144zM352 1300v164h142v-164h-142zM764 1300v164h141v-164h-141z" />
    <glyph glyph-name="uni04E6" unicode="&#x4e6;" horiz-adv-x="1536" 
d="M768 -16q-138 0 -255.5 48.5t-205.5 139t-138 230.5t-50 313q0 117 25 224.5t77.5 200.5t128 162t183 108.5t235.5 39.5t235.5 -39.5t183 -108.5t128 -162t77.5 -200.5t25 -224.5q0 -173 -50 -313t-138 -230.5t-205.5 -139t-255.5 -48.5zM768 100q77 0 148.5 22t136.5 71
t113.5 119.5t77 174t28.5 228.5t-28.5 229t-77 175t-113.5 120t-136.5 71.5t-148.5 22.5t-148.5 -22.5t-136.5 -71.5t-113.5 -120t-77 -175t-28.5 -229t28.5 -228.5t77 -174t113.5 -119.5t136.5 -71t148.5 -22zM932 1565v164h141v-164h-141zM463 1565h141v164h-141v-164z
" />
    <glyph glyph-name="uni04E7" unicode="&#x4e7;" horiz-adv-x="1269" 
d="M635 -16q-232 0 -374 148t-142 392q0 246 141.5 394.5t374.5 148.5t374.5 -148.5t141.5 -394.5q0 -244 -142 -392t-374 -148zM635 92q77 0 141.5 25.5t108 68t73.5 99t44 116.5t14 123t-14 124t-44 117.5t-73.5 99t-108 68t-141.5 25.5t-141.5 -25.5t-108 -68t-73.5 -99
t-44 -117.5t-14 -124t14 -123t44 -116.5t73.5 -99t108 -68t141.5 -25.5zM356 1300v164h142v-164h-142zM768 1300v164h141v-164h-141z" />
    <glyph glyph-name="uni04E8" unicode="&#x4e8;" horiz-adv-x="1536" 
d="M768 -16q-138 0 -255.5 48.5t-205.5 139t-138 230.5t-50 313q0 117 25 224.5t77.5 200.5t128 162t183 108.5t235.5 39.5t235.5 -39.5t183 -108.5t128 -162t77.5 -200.5t25 -224.5q0 -173 -50 -313t-138 -230.5t-205.5 -139t-255.5 -48.5zM768 100q94 0 179 34
t156.5 101.5t116.5 180.5t50 258h-1006q5 -117 35.5 -213.5t79 -162.5t112 -111t133.5 -66t144 -21zM768 1333q-91 0 -174.5 -33t-153.5 -97.5t-117 -171.5t-57 -243h1002q-10 136 -56 243t-116 171.5t-153.5 97.5t-174.5 33z" />
    <glyph glyph-name="uni04E9" unicode="&#x4e9;" horiz-adv-x="1269" 
d="M635 -16q-232 0 -374 148t-142 392q0 246 141.5 394.5t374.5 148.5t374.5 -148.5t141.5 -394.5q0 -244 -142 -392t-374 -148zM635 92q89 0 160.5 33t116 88.5t70.5 122.5t32 141h-758q6 -74 32 -141t70.5 -122.5t116 -88.5t160.5 -33zM635 958q-86 0 -155.5 -31
t-114 -83.5t-71.5 -116t-36 -135.5h754q-9 72 -36 135.5t-71.5 116t-114 83.5t-155.5 31z" />
    <glyph glyph-name="uni04EA" unicode="&#x4ea;" horiz-adv-x="1536" 
d="M768 -16q-138 0 -255.5 48.5t-205.5 139t-138 230.5t-50 313q0 117 25 224.5t77.5 200.5t128 162t183 108.5t235.5 39.5t235.5 -39.5t183 -108.5t128 -162t77.5 -200.5t25 -224.5q0 -173 -50 -313t-138 -230.5t-205.5 -139t-255.5 -48.5zM768 100q94 0 179 34
t156.5 101.5t116.5 180.5t50 258h-1006q5 -117 35.5 -213.5t79 -162.5t112 -111t133.5 -66t144 -21zM768 1333q-91 0 -174.5 -33t-153.5 -97.5t-117 -171.5t-57 -243h1002q-10 136 -56 243t-116 171.5t-153.5 97.5t-174.5 33zM463 1565v164h141v-164h-141zM932 1565v164h141
v-164h-141z" />
    <glyph glyph-name="uni04EB" unicode="&#x4eb;" horiz-adv-x="1269" 
d="M635 -16q-232 0 -374 148t-142 392q0 246 141.5 394.5t374.5 148.5t374.5 -148.5t141.5 -394.5q0 -244 -142 -392t-374 -148zM635 92q89 0 160.5 33t116 88.5t70.5 122.5t32 141h-758q6 -74 32 -141t70.5 -122.5t116 -88.5t160.5 -33zM635 958q-86 0 -155.5 -31
t-114 -83.5t-71.5 -116t-36 -135.5h754q-9 72 -36 135.5t-71.5 116t-114 83.5t-155.5 31zM784 1311v164h142v-164h-142zM336 1311v164h141v-164h-141z" />
    <glyph glyph-name="uni04EE" unicode="&#x4ee;" horiz-adv-x="1269" 
d="M276 137q86 -28 130 -28q53 0 88.5 41.5t85.5 152.5l-519 1131h150l434 -961h8l410 961h145l-516 -1207q-46 -109 -73 -147q-70 -96 -203 -96q-75 0 -140 24v129zM362 1606v110h547v-110h-547z" />
    <glyph glyph-name="uni04EF" unicode="&#x4ef;" horiz-adv-x="1126" 
d="M295 -451q-16 0 -33.5 2t-32 4.5t-26 5.5t-18.5 5l-7 2v117q48 -19 101 -19q49 0 81 27.5t64 107.5l70 170l-435 1080h140l362 -906h8l361 906h137l-518 -1274q-21 -52 -40.5 -87.5t-49.5 -70.5t-71 -52.5t-93 -17.5zM295 1352v110h516v-110h-516z" />
    <glyph glyph-name="uni04F0" unicode="&#x4f0;" horiz-adv-x="1269" 
d="M276 137q86 -28 130 -28q53 0 88.5 41.5t85.5 152.5l-519 1131h150l434 -961h8l410 961h145l-516 -1207q-46 -109 -73 -147q-70 -96 -203 -96q-75 0 -140 24v129zM799 1565v164h141v-164h-141zM330 1565h141v164h-141v-164z" />
    <glyph glyph-name="uni04F1" unicode="&#x4f1;" horiz-adv-x="1126" 
d="M295 -451q-16 0 -33.5 2t-32 4.5t-26 5.5t-18.5 5l-7 2v117q48 -19 101 -19q49 0 81 27.5t64 107.5l70 170l-435 1080h140l362 -906h8l361 906h137l-518 -1274q-21 -52 -40.5 -87.5t-49.5 -70.5t-71 -52.5t-93 -17.5zM274 1300v164h142v-164h-142zM686 1300v164h141v-164
h-141z" />
    <glyph glyph-name="uni04F2" unicode="&#x4f2;" horiz-adv-x="1269" 
d="M276 137q86 -28 130 -28q53 0 88.5 41.5t85.5 152.5l-519 1131h150l434 -961h8l410 961h145l-516 -1207q-46 -109 -73 -147q-70 -96 -203 -96q-75 0 -140 24v129zM694 1550l185 252h184l-266 -252h-103zM387 1550l184 252h185l-267 -252h-102z" />
    <glyph glyph-name="uni04F3" unicode="&#x4f3;" horiz-adv-x="1126" 
d="M295 -451q-16 0 -33.5 2t-32 4.5t-26 5.5t-18.5 5l-7 2v117q48 -19 101 -19q49 0 81 27.5t64 107.5l70 170l-435 1080h140l362 -906h8l361 906h137l-518 -1274q-21 -52 -40.5 -87.5t-49.5 -70.5t-71 -52.5t-93 -17.5zM637 1249l192 267h185l-275 -267h-102zM330 1249
l192 267h185l-275 -267h-102z" />
    <glyph glyph-name="uni04F4" unicode="&#x4f4;" horiz-adv-x="1331" 
d="M987 0v623q-234 -58 -414 -58q-97 0 -171 18t-134.5 59t-92.5 116t-32 182v494h136v-504q0 -254 319 -254q203 0 389 57v701h135v-1434h-135zM846 1565v164h141v-164h-141zM377 1565h141v164h-141v-164z" />
    <glyph glyph-name="uni04F5" unicode="&#x4f5;" horiz-adv-x="1157" 
d="M840 0v449q-158 -58 -330 -58q-90 0 -156.5 16t-107.5 43.5t-66 68.5t-34 84.5t-9 98.5v349h129v-328q0 -41 4 -69t19 -59.5t42.5 -50.5t77.5 -31.5t121 -12.5q164 0 310 57v494h129v-1051h-129zM301 1300v164h141v-164h-141zM713 1300v164h141v-164h-141z" />
    <glyph glyph-name="uni04F8" unicode="&#x4f8;" horiz-adv-x="1792" 
d="M209 0v1434h135v-574h291q209 0 338 -121.5t129 -308.5t-129 -308.5t-338 -121.5h-426zM344 117h291q148 0 234.5 84.5t86.5 226.5q0 145 -86 230t-235 85h-291v-626zM1448 0v1434h135v-1434h-135zM1061 1565v164h141v-164h-141zM592 1565h141v164h-141v-164z" />
    <glyph glyph-name="uni04F9" unicode="&#x4f9;" horiz-adv-x="1587" 
d="M188 0v1051h129v-375h269q409 0 409 -338t-409 -338h-398zM317 109h269q274 0 274 229t-274 229h-269v-458zM1270 0v1051h129v-1051h-129zM516 1300v164h141v-164h-141zM928 1300v164h141v-164h-141z" />
    <glyph glyph-name="uni058D" unicode="&#x58d;" horiz-adv-x="1638" 
d="M819 -16q-109 0 -186 55q137 33 230 145.5t93 255.5q0 97 -53 197q111 -20 180.5 -111t69.5 -204q0 -85 -43.5 -162.5t-121.5 -126.5t-169 -49zM530 109q-133 0 -213.5 74t-103.5 182q92 -64 223 -64q78 0 151 28.5t139 98.5t97 172q47 -73 47 -176q0 -60 -24.5 -116.5
t-67.5 -101t-108 -71t-140 -26.5zM428 387q-84 0 -162.5 45.5t-128 122t-49.5 160.5q0 112 49 182q34 -128 140 -221.5t255 -93.5q117 0 207 51q-25 -107 -112 -176.5t-199 -69.5zM530 668q-127 0 -222 94.5t-95 245.5q0 130 75.5 211t180.5 104q-26 -42 -43.5 -102
t-17.5 -121q0 -56 16.5 -112.5t49.5 -110.5t92 -98t136 -68q-88 -43 -172 -43zM1174 104q59 105 59 228q0 57 -16.5 113.5t-50.5 111t-93.5 98t-138.5 66.5q84 43 176 43q126 0 220.5 -94.5t94.5 -245.5q0 -137 -72 -218t-179 -102zM735 797q-108 25 -178 112t-70 201
q0 85 42 163t120.5 127.5t173.5 49.5q106 0 183 -55q-143 -29 -232.5 -141t-89.5 -261q0 -107 51 -196zM1499 530q-14 65 -45 121.5t-79.5 103t-120 73t-158.5 26.5q-109 0 -197 -53q25 107 112.5 176.5t200.5 69.5q142 0 240 -99.5t98 -232.5q0 -112 -51 -185zM813 829
q-43 84 -43 179q0 60 24.5 116.5t67.5 101t108 71t140 26.5q132 0 212 -75t103 -181q-97 63 -219 63q-58 0 -114.5 -17t-111 -51t-99 -94t-68.5 -139z" />
    <glyph glyph-name="uni058E" unicode="&#x58e;" horiz-adv-x="2048" 
d="M1464 -16l-1222 415l706 803q23 23 23 47q0 21 -23 47l-67 68l104 86l117 -129q28 -31 28 -68q0 -59 -38 -100l-600 -676l972 -348v-145zM1223 686v92h483v-92h-483zM1411 877q-154 0 -154 174v260h91v-279q0 -34 17 -64t54 -30q45 0 73 37t28 90v281q0 63 25.5 83.5
t72.5 20.5q40 0 88 -14v-72q-48 20 -72 20t-24 -34v-467h-76v61q-38 -67 -123 -67z" />
    <glyph glyph-name="uni058F" unicode="&#x58f;" horiz-adv-x="1187" 
d="M442 608v115h398v219q0 391 -310 391q-309 0 -309 -389v-104h-135v104q0 245 119.5 375.5t324.5 130.5q204 0 324.5 -131.5t120.5 -376.5v-219h143v-115h-143v-164h143v-114h-143v-330h-135v330h-398v114h398v164h-398z" />
    <glyph glyph-name="uni1E9E" unicode="&#x1e9e;" horiz-adv-x="1372" 
d="M754 -16q-120 0 -246 28v121q106 -33 254 -33q168 0 268 81.5t100 236.5t-112.5 235t-325.5 80h-45v60l377 464q-122 76 -322 76q-82 0 -144.5 -15.5t-113.5 -51.5t-77.5 -101t-26.5 -157v-1008h-135v1008q0 442 500 442q294 0 487 -158l-365 -461q102 -7 181.5 -36.5
t129 -70.5t81.5 -95t44.5 -106t12.5 -107q0 -203 -139 -317.5t-383 -114.5z" />
    <glyph glyph-name="uni2010" unicode="&#x2010;" 
d="M164 543v143h491v-143h-491z" />
    <glyph glyph-name="uni2011" unicode="&#x2011;" 
d="M164 543v143h491v-143h-491z" />
    <glyph glyph-name="figuredash" unicode="&#x2012;" horiz-adv-x="1126" 
d="M61 690v115h1004v-115h-1004z" />
    <glyph glyph-name="endash" unicode="&#x2013;" horiz-adv-x="1126" 
d="M61 557v115h1004v-115h-1004z" />
    <glyph glyph-name="emdash" unicode="&#x2014;" horiz-adv-x="1843" 
d="M102 557v115h1639v-115h-1639z" />
    <glyph glyph-name="uni2015" unicode="&#x2015;" horiz-adv-x="1843" 
d="M102 557v115h1639v-115h-1639z" />
    <glyph glyph-name="quoteleft" unicode="&#x2018;" horiz-adv-x="552" 
d="M131 987l156 447h137l-113 -447h-180z" />
    <glyph glyph-name="quoteright" unicode="&#x2019;" horiz-adv-x="552" 
d="M129 987l113 447h180l-152 -447h-141z" />
    <glyph glyph-name="quotesinglbase" unicode="&#x201a;" horiz-adv-x="573" 
d="M129 -264l113 446h180l-152 -446h-141z" />
    <glyph glyph-name="quotedblleft" unicode="&#x201c;" horiz-adv-x="1024" 
d="M537 987l168 447h124l-112 -447h-180zM182 987l168 447h125l-113 -447h-180z" />
    <glyph glyph-name="quotedblright" unicode="&#x201d;" horiz-adv-x="1024" 
d="M549 987l113 447h180l-152 -447h-141zM195 987l112 447h180l-151 -447h-141z" />
    <glyph glyph-name="quotedblbase" unicode="&#x201e;" horiz-adv-x="1024" 
d="M526 -264l113 446h180l-151 -446h-142zM172 -264l113 446h180l-152 -446h-141z" />
    <glyph glyph-name="dagger" unicode="&#x2020;" horiz-adv-x="1331" 
d="M598 -287v1229h-434v109h434v383h135v-383h434v-109h-434v-1229h-135z" />
    <glyph glyph-name="daggerdbl" unicode="&#x2021;" horiz-adv-x="1331" 
d="M598 -287v383h-434v109h434v737h-434v109h434v383h135v-383h434v-109h-434v-737h434v-109h-434v-383h-135z" />
    <glyph glyph-name="bullet" unicode="&#x2022;" horiz-adv-x="1024" 
d="M512 485q-101 0 -173.5 72.5t-72.5 173.5t72.5 173.5t173.5 72.5t173.5 -72.5t72.5 -173.5t-72.5 -173.5t-173.5 -72.5z" />
    <glyph glyph-name="ellipsis" unicode="&#x2026;" horiz-adv-x="1863" 
d="M1493 0v176h168v-176h-168zM203 0v176h168v-176h-168zM848 0v176h168v-176h-168z" />
    <glyph glyph-name="perthousand" unicode="&#x2030;" horiz-adv-x="2682" 
d="M358 0l1000 1434h127l-1000 -1434h-127zM451 754q-140 0 -229 94.5t-89 253.5t89 253.5t229 94.5t228.5 -94.5t88.5 -253.5t-88.5 -253.5t-228.5 -94.5zM451 858q95 0 149.5 62.5t54.5 181.5q0 120 -54.5 183t-149.5 63t-150 -63t-55 -183q0 -119 55 -181.5t150 -62.5z
M1393 -16q-140 0 -229 94.5t-89 253.5t89 253.5t229 94.5t228.5 -94.5t88.5 -253.5t-88.5 -253.5t-228.5 -94.5zM1393 88q95 0 149.5 62.5t54.5 181.5q0 120 -54.5 183t-149.5 63t-150 -63t-55 -183q0 -119 55 -181.5t150 -62.5zM2232 -16q-140 0 -228.5 94.5t-88.5 253.5
t88.5 253.5t228.5 94.5t229 -94.5t89 -253.5t-89 -253.5t-229 -94.5zM2232 88q95 0 150 62.5t55 181.5q0 120 -55 183t-150 63t-149.5 -63t-54.5 -183q0 -119 54.5 -181.5t149.5 -62.5z" />
    <glyph glyph-name="guilsinglleft" unicode="&#x2039;" horiz-adv-x="716" 
d="M438 203l-311 424l311 424h123l-293 -424l293 -424h-123z" />
    <glyph glyph-name="guilsinglright" unicode="&#x203a;" horiz-adv-x="716" 
d="M590 627l-311 -424h-123l293 424l-293 424h123z" />
    <glyph glyph-name="fraction" unicode="&#x2044;" horiz-adv-x="696" 
d="M-215 0l999 1434h127l-999 -1434h-127z" />
    <glyph glyph-name="foursuperior" unicode="&#x2074;" 
d="M502 573v205h-465v72l436 584h141v-560h131v-96h-131v-205h-112zM162 874h340v449z" />
    <glyph glyph-name="franc" unicode="&#x20a3;" horiz-adv-x="1187" 
d="M276 0v272h-190v117h190v1045h793v-117h-657v-506h612v-117h-612v-305h329v-117h-329v-272h-136z" />
    <glyph glyph-name="Euro" unicode="&#x20ac;" horiz-adv-x="1187" 
d="M4 543l31 114h115q-3 37 -3 74q0 39 3 80h-146l31 115h129q43 240 196 382t402 142q105 0 200.5 -20.5t149.5 -45.5l-29 -110q-156 59 -319 59q-183 0 -298 -109.5t-155 -297.5h684l-30 -115h-668q-4 -54 -4 -82q0 -49 2 -72h633l-31 -114h-590q17 -98 52 -177
t91.5 -139.5t140 -93.5t189.5 -33q187 0 350 62v-127q-166 -51 -352 -51q-262 0 -418.5 149t-197.5 410h-158z" />
    <glyph glyph-name="uni20B4" unicode="&#x20b4;" horiz-adv-x="1187" 
d="M82 823v115h725q78 78 78 182q0 26 -4.5 49.5t-23.5 55t-51 54t-94 38.5t-145 16q-218 0 -372 -63v129q199 51 368 51q109 0 193.5 -18.5t135 -48.5t83 -72t44 -83t11.5 -87q0 -110 -78 -203h154v-115h-281q-61 -43 -185 -110.5t-148 -81.5h614v-115h-754
q-59 -78 -59 -170q0 -68 35 -118t92.5 -76.5t119 -39t126.5 -12.5q94 0 198 19.5t176 60.5v-133q-155 -63 -374 -63q-139 0 -242 27t-162 75.5t-87 108.5t-28 133q0 104 62 188h-127v115h235q32 28 75.5 57.5t73 46t88.5 47.5t77 41h-549z" />
    <glyph glyph-name="uni20B8" unicode="&#x20b8;" horiz-adv-x="1187" 
d="M526 0v1030h-440v117h1016v-117h-440v-1030h-136zM86 1317v117h1016v-117h-1016z" />
    <glyph glyph-name="uni20BC" unicode="&#x20bc;" horiz-adv-x="1187" 
d="M72 0q0 1073 454 1139v295h136v-295q454 -67 454 -1139h-139q0 274 -23.5 469.5t-68 307.5t-98.5 166.5t-125 70.5v-1014h-136v1014q-72 -16 -126 -70.5t-98.5 -166.5t-67.5 -307.5t-23 -469.5h-139z" />
    <glyph glyph-name="uni20BD" unicode="&#x20bd;" horiz-adv-x="1187" 
d="M276 0v272h-190v117h190v225h-190v117h190v703h342q233 0 353.5 -108.5t120.5 -301.5q0 -194 -120 -302t-354 -108h-206v-225h305v-117h-305v-272h-136zM412 731h206q170 0 249 72.5t79 220.5t-79 220.5t-249 72.5h-206v-586z" />
    <glyph glyph-name="uni20BE" unicode="&#x20be;" horiz-adv-x="1187" 
d="M453 717v573q-199 -115 -199 -573q0 -280 121.5 -440t320.5 -160h316v-117h-881v117h231q-116 79 -181.5 241t-65.5 359q0 275 84.5 464t253.5 246v211h90v-190q16 2 51 2t51 -2v190h90v-211q170 -58 255 -248t85 -462h-139q0 211 -48.5 362t-152.5 211v-573h-90v606
q-32 4 -51 4t-51 -4v-606h-90z" />
    <glyph glyph-name="uni2116" unicode="&#x2116;" horiz-adv-x="2048" 
d="M209 0v1434h174l698 -1160l64 -131h4l-4 166v1125h135v-1434h-174l-688 1137l-76 153h-6l8 -166v-1124h-135zM1397 573v97h522v-97h-522zM1655 807q-131 0 -206 85.5t-75 235.5t75 236t206 86t205.5 -85.5t74.5 -236.5q0 -150 -74.5 -235.5t-205.5 -85.5zM1655 903
q83 0 126.5 58t43.5 167t-43.5 166.5t-126.5 57.5t-126.5 -57.5t-43.5 -166.5t43.5 -167t126.5 -58z" />
    <glyph glyph-name="uni2117" unicode="&#x2117;" horiz-adv-x="1802" 
d="M682 266v891h260q146 0 220.5 -69.5t74.5 -198.5q0 -128 -74.5 -197t-220.5 -69h-145v-357h-115zM797 725h145q83 0 127.5 44t44.5 120q0 79 -44 122.5t-128 43.5h-145v-330zM901 -39q-157 0 -297.5 58.5t-241 159t-159 241t-58.5 297.5t58.5 297.5t159 241t241 159
t297.5 58.5t297.5 -58.5t241 -159t159 -241t58.5 -297.5t-58.5 -297.5t-159 -241t-241 -159t-297.5 -58.5zM901 63q106 0 205.5 33.5t179.5 94t141 141t94 180t33 205.5q0 176 -88 326.5t-238.5 238.5t-326.5 88t-326.5 -88t-238.5 -238.5t-88 -326.5q0 -106 33 -205.5
t94 -180t141 -141t179.5 -94t205.5 -33.5z" />
    <glyph glyph-name="trademark" unicode="&#x2122;" horiz-adv-x="1966" 
d="M936 573v861h176l236 -510l237 510h176v-861h-114v746h-2l-234 -500h-127l-231 500h-2v-746h-115zM377 573v758h-283v103h680v-103h-282v-758h-115z" />
    <glyph glyph-name="uni2126" unicode="&#x2126;" horiz-adv-x="1556" 
d="M123 0l-39 244l113 12l22 -139h354v59q-100 28 -180 80.5t-131 115t-85 136t-48 142t-14 134.5q0 124 46.5 242.5t129 213t210 152.5t277.5 58t277.5 -58t210.5 -152.5t129.5 -213t46.5 -242.5q0 -66 -14 -134.5t-48.5 -142t-85 -136t-131 -115t-180.5 -80.5v-59h354
l23 139l113 -12l-39 -244h-568v250q198 47 314 191t116 345q0 110 -34.5 203.5t-89.5 155t-124.5 105.5t-138 63.5t-131.5 19.5t-131.5 -19.5t-138 -63.5t-124.5 -105.5t-89.5 -155t-34.5 -203.5q0 -201 116 -345t314 -191v-250h-567z" />
    <glyph glyph-name="arrowleft" unicode="&#x2190;" horiz-adv-x="1433" 
d="M481 276l-440 441l440 440h156l-379 -379h1135v-123h-1135l379 -379h-156z" />
    <glyph glyph-name="arrowup" unicode="&#x2191;" horiz-adv-x="1433" 
d="M655 0v1217l-379 -379v155l441 441l440 -441v-155l-379 379v-1217h-123z" />
    <glyph glyph-name="arrowright" unicode="&#x2192;" horiz-adv-x="1433" 
d="M797 276l379 379h-1135v123h1135l-379 379h155l441 -440l-441 -441h-155z" />
    <glyph glyph-name="arrowdown" unicode="&#x2193;" horiz-adv-x="1433" 
d="M717 0l-441 440v156l379 -379v1217h123v-1217l379 379v-156z" />
    <glyph glyph-name="partialdiff" unicode="&#x2202;" horiz-adv-x="1269" 
d="M618 -16q-73 0 -141.5 17.5t-134.5 58t-115 100t-78.5 151.5t-29.5 205q0 137 40 244.5t108.5 173t155 99.5t185.5 34q125 0 232.5 -54.5t179.5 -158.5h10q-11 125 -55 226.5t-111 172t-157.5 120t-192.5 74t-219 30.5l14 100q150 -8 275 -43t231.5 -105t180 -171.5
t114.5 -248.5t41 -331q0 -694 -533 -694zM625 92q78 0 147.5 28.5t123.5 81.5t86 136.5t32 187.5t-32 187.5t-87 136t-126 80.5t-151 28q-154 0 -259 -115t-105 -327q0 -104 30 -186t82 -133.5t118 -78t141 -26.5z" />
    <glyph glyph-name="uni2206" unicode="&#x2206;" horiz-adv-x="1433" 
d="M88 0l551 1434h156l551 -1434h-1258zM305 143h823l-411 1080z" />
    <glyph glyph-name="product" unicode="&#x220f;" horiz-adv-x="1495" 
d="M88 -430v117h135v1630h-135v117h1321v-117h-135v-1630h135v-117h-405v117h135v1630h-781v-1630h136v-117h-406z" />
    <glyph glyph-name="summation" unicode="&#x2211;" horiz-adv-x="1331" 
d="M104 -430v94l521 879l-506 796v95h1061v-404h-136v287h-755l489 -776l-508 -854h791v297h135v-414h-1092z" />
    <glyph glyph-name="minus" unicode="&#x2212;" horiz-adv-x="1187" 
d="M102 659v115h983v-115h-983z" />
    <glyph glyph-name="uni2215" unicode="&#x2215;" horiz-adv-x="1187" 
d="M-14 0l1073 1434h143l-1073 -1434h-143z" />
    <glyph glyph-name="uni2219" unicode="&#x2219;" horiz-adv-x="614" 
d="M201 610v213h213v-213h-213z" />
    <glyph glyph-name="radical" unicode="&#x221a;" horiz-adv-x="1320" 
d="M606 -205l-319 1141h-185v115h287l287 -1028l291 1617h295v-114h-197l-313 -1731h-146z" />
    <glyph glyph-name="infinity" unicode="&#x221e;" horiz-adv-x="1536" 
d="M442 401q-124 0 -211.5 89t-87.5 225q0 139 85.5 228t215.5 89q103 0 178.5 -58.5t147.5 -164.5q149 223 322 223q129 0 215 -88t86 -225q0 -138 -87.5 -228t-211.5 -90q-95 0 -181.5 58t-148.5 147q-143 -205 -322 -205zM461 524q132 0 244 178q-61 100 -120 153.5
t-126 53.5q-85 0 -132.5 -55t-47.5 -135q0 -81 51 -138t131 -57zM1081 909q-67 0 -127.5 -53.5t-126.5 -148.5q48 -84 115 -133.5t137 -49.5q77 0 127.5 56.5t50.5 136.5q0 82 -46.5 137t-129.5 55z" />
    <glyph glyph-name="integral" unicode="&#x222b;" horiz-adv-x="839" 
d="M205 -307q-64 0 -121 16l22 109q49 -11 91 -11q41 0 70 14t45 35t24.5 56.5t11 68t2.5 80.5v1287q0 78 6.5 135.5t25 108.5t49 82t79 49t115.5 18q45 0 131 -19l-23 -106q-38 10 -90 10q-39 0 -67.5 -13t-45 -34t-26 -56t-12.5 -69.5t-3 -83.5v-1288q0 -77 -5 -129.5
t-21.5 -105.5t-47 -84t-83 -50.5t-127.5 -19.5z" />
    <glyph glyph-name="approxequal" unicode="&#x2248;" horiz-adv-x="1187" 
d="M819 778q-51 0 -103 17t-95 41t-84 48t-85 41t-83 17q-59 0 -120.5 -36t-101.5 -109l-88 67q133 201 310 201q62 0 127.5 -25.5t112 -56.5t103 -56.5t101.5 -25.5q60 0 126 37t105 106l84 -63q-53 -93 -135.5 -148t-173.5 -55zM819 369q-62 0 -128 25.5t-112.5 56
t-104.5 56t-105 25.5q-59 0 -120.5 -36t-101.5 -109l-88 68q62 94 141.5 147t168.5 53q62 0 127.5 -25.5t112 -56t103 -56t101.5 -25.5q60 0 126 37t105 106l84 -64q-53 -93 -135.5 -147.5t-173.5 -54.5z" />
    <glyph glyph-name="notequal" unicode="&#x2260;" horiz-adv-x="1187" 
d="M102 864v115h592l166 262h135l-166 -262h256v-115h-327l-187 -295h514v-114h-585l-170 -271h-135l170 271h-263v114h334l187 295h-521z" />
    <glyph glyph-name="lessequal" unicode="&#x2264;" horiz-adv-x="1187" 
d="M1110 389v-125l-967 461v123l967 461v-129l-829 -396zM1110 240v-115h-967v115h967z" />
    <glyph glyph-name="greaterequal" unicode="&#x2265;" horiz-adv-x="1187" 
d="M78 264v125l829 395l-829 396v129l966 -461v-123zM78 125v115h966v-115h-966z" />
    <glyph glyph-name="dotmath" unicode="&#x22c5;" horiz-adv-x="1187" 
d="M487 610v213h213v-213h-213z" />
    <glyph glyph-name="lozenge" unicode="&#x25ca;" horiz-adv-x="1351" 
d="M676 -20l-533 737l533 737l532 -737zM676 219l360 498l-360 497l-361 -497z" />
    <glyph glyph-name="uniF400" unicode="&#xf400;" horiz-adv-x="4" 
d="M-625 1249l185 267h192l-274 -267h-103z" />
    <glyph glyph-name="uniF401" unicode="&#xf401;" horiz-adv-x="4" 
d="M-823 1536l164 246h204l-245 -246h-123z" />
    <glyph glyph-name="uniF406" unicode="&#xf406;" 
d="M410 1544q-111 0 -200.5 62.5t-129.5 175.5h137q14 -43 49 -71t71 -38t73 -10t72.5 10t70.5 38t49 71h137q-40 -113 -129 -175.5t-200 -62.5z" />
    <glyph glyph-name="uniF407" unicode="&#xf407;" 
d="M383 -455q-93 0 -164 54l51 82q46 -33 95 -33q45 0 75.5 29t30.5 81q0 46 -28.5 69t-92.5 23q-21 0 -41 -4l15 174h96l-6 -81q84 2 136 -48.5t52 -134.5q0 -86 -57.5 -148.5t-161.5 -62.5z" />
    <glyph glyph-name="uniF408" unicode="&#xf408;" 
d="M102 1536l209 246h197l209 -246h-150l-157 176l-158 -176h-150z" />
    <glyph glyph-name="uniF409" unicode="&#xf409;" 
d="M266 -451l82 349h144l-123 -349h-103z" />
    <glyph glyph-name="uniF40A" unicode="&#xf40a;" 
d="M291 1065l82 369h155l-127 -369h-110z" />
    <glyph glyph-name="uniF40B" unicode="&#xf40b;" 
d="M326 1556v177h168v-177h-168z" />
    <glyph glyph-name="uniF40C" unicode="&#xf40c;" 
d="M410 1460q-82 0 -139.5 57.5t-57.5 139.5t57.5 139t139.5 57t139 -57t57 -139t-57 -139.5t-139 -57.5zM410 1534q51 0 86.5 36t35.5 87t-35.5 87t-86.5 36t-87 -36t-36 -87t36 -87t87 -36z" />
    <glyph glyph-name="uniF40D" unicode="&#xf40d;" 
d="M104 1563q-5 75 39.5 127.5t118.5 52.5q56 0 160 -40t135 -40q26 0 51.5 18t30.5 56h82q5 -68 -37 -121t-125 -53q-52 0 -93.5 12.5t-63.5 27t-55 27t-71 12.5q-14 0 -29.5 -5t-35 -24t-25.5 -50h-82z" />
    <glyph glyph-name="uniF40E" unicode="&#xf40e;" 
d="M399 -436q-59 0 -101.5 17.5t-63 46t-29 55t-8.5 53.5q0 153 235 319l57 -55q-167 -141 -167 -240q0 -43 23.5 -62.5t53.5 -19.5q22 0 50 8t43 19l26 -98q-22 -17 -50.5 -27.5t-44 -13t-24.5 -2.5z" />
    <glyph glyph-name="uniF410" unicode="&#xf410;" horiz-adv-x="4" 
d="M-715 1550l-248 252h193l158 -252h-103z" />
    <glyph glyph-name="uniF47E" unicode="&#xf47e;" horiz-adv-x="1474" 
d="M737 -16q-242 0 -387 133.5t-145 359.5v957h135v-953q0 -86 26 -154t66.5 -109.5t94.5 -69t105.5 -38t104.5 -10.5t104.5 10.5t106 38t95 69t66.5 109.5t26 154v953h135v-957q0 -226 -145 -359.5t-388 -133.5zM653 1556v177h168v-177h-168z" />
    <glyph glyph-name="uniF47F" unicode="&#xf47f;" horiz-adv-x="1249" 
d="M1061 1051v-1051h-125v152h-6q-61 -75 -155 -121.5t-216 -46.5q-90 0 -160 26.5t-111 67.5t-67.5 97.5t-35.5 108.5t-9 107v660h129v-652q0 -307 266 -307q155 0 258 98t103 248v613h129zM545 1311v164h141v-164h-141z" />
    <glyph glyph-name="uniF4C6" unicode="&#xf4c6;" horiz-adv-x="1331" 
d="M573 565q-97 0 -171 18t-134.5 59t-92.5 116t-32 182v494h136v-504q0 -254 319 -254q205 0 389 57v701h135v-1469q0 -375 -325 -375q-59 0 -158 21l12 119q85 -23 131 -23q110 0 157.5 66t47.5 192v660q-217 -60 -414 -60z" />
    <glyph glyph-name="uniF4C7" unicode="&#xf4c7;" horiz-adv-x="1157" 
d="M733 -459q-59 0 -117 17v104q40 -12 95 -12q28 0 47.5 5.5t40 22t31 53.5t10.5 93v625q-158 -58 -330 -58q-90 0 -156.5 16t-107.5 43.5t-66 68.5t-34 84.5t-9 98.5v349h129v-328q0 -41 4 -69t19 -59.5t42.5 -50.5t77.5 -31.5t121 -12.5q164 0 310 57v494h129v-1215
q0 -33 -2.5 -60t-9.5 -64t-23.5 -65t-41 -53.5t-65.5 -39t-94 -13.5z" />
    <glyph glyph-name="uniF4C8" unicode="&#xf4c8;" horiz-adv-x="1290" 
d="M741 -455q-92 0 -163 54l51 82q46 -33 94 -33q45 0 75.5 29t30.5 81q0 46 -28 69t-92 23q-21 0 -41 -4l12 150q-265 40 -413 233t-148 508q0 320 192.5 516.5t511.5 196.5q194 0 332 -55v-125q-185 63 -326 63q-251 0 -408 -167.5t-157 -434.5q0 -298 151.5 -463.5
t411.5 -165.5q193 0 340 62v-125q-163 -55 -346 -55q-31 0 -47 2l-2 -47q84 2 136.5 -48.5t52.5 -134.5q0 -86 -58 -148.5t-162 -62.5z" />
    <glyph glyph-name="uniF4C9" unicode="&#xf4c9;" horiz-adv-x="993" 
d="M547 -393q-83 0 -144 47l46 72q39 -29 81 -29q41 0 70 24.5t29 67.5q0 84 -111 84q-19 0 -37 -4l11 131q-182 41 -277.5 182t-95.5 357q0 241 137.5 384.5t382.5 143.5q110 0 219 -31v-114q-5 1 -35 8.5t-53.5 12.5t-63 10t-77.5 5q-178 0 -276.5 -113t-98.5 -310
q0 -209 102 -326t285 -117q105 0 225 47v-114q-104 -41 -223 -41q-28 0 -68 4l-2 -39q73 2 118.5 -41.5t45.5 -116.5q0 -75 -50 -129.5t-140 -54.5z" />
    <glyph glyph-name="uniF4CC" unicode="&#xf4cc;" horiz-adv-x="1269" 
d="M276 137q86 -28 130 -28q53 0 88.5 41.5t85.5 152.5l-519 1131h150l434 -961h8l410 961h145l-516 -1207q-46 -109 -73 -147q-70 -96 -203 -96q-75 0 -140 24v129zM582 1550l123 252h192l-213 -252h-102z" />
    <glyph glyph-name="uniF4CD" unicode="&#xf4cd;" horiz-adv-x="1126" 
d="M295 -451q-16 0 -33.5 2t-32 4.5t-26 5.5t-18.5 5l-7 2v117q48 -19 101 -19q49 0 81 27.5t64 107.5l70 170l-435 1080h140l362 -906h8l361 906h137l-518 -1274q-21 -52 -40.5 -87.5t-49.5 -70.5t-71 -52.5t-93 -17.5zM502 1249l184 267h193l-275 -267h-102z" />
    <glyph glyph-name="zero.tab" unicode="&#xf4e0;" horiz-adv-x="1187" 
d="M594 -16q-106 0 -191 41t-150.5 126.5t-101.5 229t-36 336.5t36 336.5t101.5 229t150.5 126.5t191 41t191 -41t150.5 -126.5t101.5 -229t36 -336.5t-36 -336.5t-101.5 -229t-150.5 -126.5t-191 -41zM594 106q340 0 340 611q0 169 -25 290.5t-72.5 190t-106.5 99
t-136 30.5t-136 -30.5t-106.5 -99t-72.5 -190t-25 -290.5q0 -611 340 -611z" />
    <glyph glyph-name="one.tab" unicode="&#xf4e1;" horiz-adv-x="1187" 
d="M82 123h516v1153l-358 -315l-74 94l442 379h129v-1311h369v-123h-1024v123z" />
    <glyph glyph-name="two.tab" unicode="&#xf4e2;" horiz-adv-x="1187" 
d="M84 0v129q118 107 231 199q148 121 250.5 217t160 162t88.5 125.5t39.5 98t8.5 87.5q0 309 -370 309q-193 0 -347 -96v135q186 84 353 84q246 0 377 -107.5t131 -298.5q0 -115 -48.5 -222t-178 -245t-353.5 -307q-30 -23 -87 -74t-81 -71v-2h799v-123h-973z" />
    <glyph glyph-name="three.tab" unicode="&#xf4e3;" horiz-adv-x="1187" 
d="M506 -16q-113 0 -197 14t-180 49v135q85 -39 170.5 -57.5t206.5 -18.5q192 0 294.5 83t102.5 219q0 126 -109 202t-329 76h-180v123h180q214 0 316 73.5t102 202.5q0 111 -87 176.5t-270 65.5q-95 0 -199.5 -24.5t-176.5 -57.5v135q173 70 376 70q251 0 375.5 -99
t124.5 -266q0 -124 -76 -209.5t-223 -125.5v-5q154 -29 237 -118.5t83 -220.5q0 -189 -141 -305.5t-400 -116.5z" />
    <glyph glyph-name="four.tab" unicode="&#xf4e4;" horiz-adv-x="1187" 
d="M778 0v348h-725v123l680 963h180v-969h209v-117h-209v-348h-135zM193 465h585v817h-6z" />
    <glyph glyph-name="five.tab" unicode="&#xf4e5;" horiz-adv-x="1187" 
d="M496 -16q-194 0 -355 53v135q169 -66 351 -66q213 0 325.5 89.5t112.5 244.5q0 156 -95.5 237t-299.5 81q-178 0 -342 -53l40 729h771v-123h-642l-26 -451q88 21 215 21q268 0 395 -113.5t127 -321.5q0 -210 -151 -336t-426 -126z" />
    <glyph glyph-name="six.tab" unicode="&#xf4e6;" horiz-adv-x="1187" 
d="M614 -16q-108 0 -195.5 38.5t-154.5 117t-104 208.5t-37 303q0 396 156.5 597.5t441.5 201.5q139 0 240 -35v-135q-128 51 -244 51q-218 0 -341 -164t-130 -510q120 244 393 244q197 0 315.5 -120t118.5 -330q0 -204 -127.5 -335.5t-331.5 -131.5zM614 106q146 0 231 87
t85 251q0 167 -84 250.5t-232 83.5q-156 0 -241.5 -90t-85.5 -231q0 -168 87.5 -259.5t239.5 -91.5z" />
    <glyph glyph-name="seven.tab" unicode="&#xf4e7;" horiz-adv-x="1187" 
d="M313 0l611 1311h-852v123h999v-123l-604 -1311h-154z" />
    <glyph glyph-name="eight.tab" unicode="&#xf4e8;" horiz-adv-x="1187" 
d="M594 -16q-234 0 -361 106.5t-127 278.5q0 266 349 368v2q-152 71 -224.5 154.5t-72.5 206.5q0 150 119 250t317 100q195 0 315.5 -101.5t120.5 -242.5q0 -234 -303 -369v-2q85 -27 147.5 -59t110.5 -75.5t72 -101.5t24 -130q0 -172 -126.5 -278.5t-360.5 -106.5zM594 100
q164 0 253 74t89 188q0 51 -23 96t-58.5 77t-87 61t-98.5 47t-104 35q-63 -17 -115.5 -42t-99 -61.5t-72.5 -89t-26 -116.5q0 -121 88.5 -195t253.5 -74zM604 788q55 22 101.5 51t89 68t66.5 90.5t24 108.5q0 97 -78 162t-213 65q-137 0 -214 -66t-77 -175q0 -57 17.5 -100
t60 -78.5t91 -62t132.5 -63.5z" />
    <glyph glyph-name="nine.tab" unicode="&#xf4e9;" horiz-adv-x="1187" 
d="M573 1450q108 0 196 -38t155 -115t104 -206t37 -300q0 -396 -160.5 -601.5t-451.5 -205.5q-146 0 -244 34v136q121 -48 248 -48q224 0 351 163.5t134 506.5q-58 -115 -158.5 -179.5t-234.5 -64.5q-197 0 -315.5 120.5t-118.5 330.5q0 212 126 339.5t332 127.5zM573 1327
q-146 0 -230.5 -87t-84.5 -251q0 -167 84 -250.5t231 -83.5q156 0 242 90.5t86 231.5q0 168 -88 259t-240 91z" />
    <glyph glyph-name="uni20B8.fitted" unicode="&#xf5fd;" horiz-adv-x="1187" 
d="M526 0v1030h-440v117h1016v-117h-440v-1030h-136zM86 1317v117h1016v-117h-1016z" />
    <glyph glyph-name="uniF643" unicode="&#xf643;" horiz-adv-x="1187" 
d="M594 -16q-226 0 -353.5 138.5t-127.5 401.5q0 264 127 403.5t354 139.5t354 -139.5t127 -403.5q0 -263 -127.5 -401.5t-353.5 -138.5zM594 106q157 0 249.5 107t92.5 309q0 206 -92.5 314t-249.5 108t-249.5 -108t-92.5 -314q0 -202 92.5 -309t249.5 -107z" />
    <glyph glyph-name="uniF644" unicode="&#xf644;" horiz-adv-x="1187" 
d="M180 117h428v784l-360 -248l-70 92l440 306h130v-934h329v-117h-897v117z" />
    <glyph glyph-name="uniF645" unicode="&#xf645;" horiz-adv-x="1187" 
d="M121 0v125q466 286 598 392t133 228q2 101 -67 153t-238 52q-207 0 -385 -88v125q77 37 180 58.5t205 21.5q229 0 335.5 -82.5t104.5 -228.5q-1 -70 -27 -129.5t-95.5 -135t-202 -166.5t-336.5 -206v-2h700v-117h-905z" />
    <glyph glyph-name="uniF646" unicode="&#xf646;" horiz-adv-x="1187" 
d="M514 -399q-207 0 -393 63v135q177 -75 393 -75q179 0 274 80.5t95 215.5q0 126 -102.5 204.5t-307.5 78.5h-158v123h158q199 0 294 73.5t95 202.5q0 111 -79 176.5t-248 65.5q-98 0 -207.5 -24.5t-186.5 -57.5v135q184 70 394 70q236 0 353.5 -99t117.5 -266
q0 -123 -74.5 -209t-212.5 -126v-5q145 -29 226 -121.5t81 -222.5q0 -189 -132.5 -303t-379.5 -114z" />
    <glyph glyph-name="uniF647" unicode="&#xf647;" horiz-adv-x="1187" 
d="M774 -389v389h-721v123l676 928h180v-934h234v-117h-234v-389h-135zM184 117h590v790h-6z" />
    <glyph glyph-name="uniF648" unicode="&#xf648;" horiz-adv-x="1187" 
d="M504 -399q-206 0 -338 53v135q137 -65 338 -65q203 0 305 85.5t102 247.5q0 146 -100 232t-285 86q-186 0 -340 -53l41 729h764v-123h-635l-26 -451q83 21 223 21q238 0 370 -119t132 -318q0 -214 -143.5 -337t-407.5 -123z" />
    <glyph glyph-name="uniF649" unicode="&#xf649;" horiz-adv-x="1187" 
d="M614 -16q-108 0 -195.5 38.5t-154.5 117t-104 208.5t-37 303q0 396 156.5 597.5t441.5 201.5q139 0 240 -35v-135q-128 51 -244 51q-218 0 -341 -164t-130 -510q120 244 393 244q197 0 315.5 -120t118.5 -330q0 -204 -127.5 -335.5t-331.5 -131.5zM614 106q146 0 231 87
t85 251q0 167 -84 250.5t-232 83.5q-156 0 -241.5 -90t-85.5 -231q0 -168 87.5 -259.5t239.5 -91.5z" />
    <glyph glyph-name="uniF64A" unicode="&#xf64a;" horiz-adv-x="1187" 
d="M313 -389l582 1323h-807v117h952v-123l-573 -1317h-154z" />
    <glyph glyph-name="uniF64B" unicode="&#xf64b;" horiz-adv-x="1187" 
d="M594 -16q-234 0 -361 106.5t-127 278.5q0 266 349 368v2q-152 71 -224.5 154.5t-72.5 206.5q0 150 119 250t317 100q195 0 315.5 -101.5t120.5 -242.5q0 -234 -303 -369v-2q85 -27 147.5 -59t110.5 -75.5t72 -101.5t24 -130q0 -172 -126.5 -278.5t-360.5 -106.5zM594 100
q164 0 253 74t89 188q0 51 -23 96t-58.5 77t-87 61t-98.5 47t-104 35q-63 -17 -115.5 -42t-99 -61.5t-72.5 -89t-26 -116.5q0 -121 88.5 -195t253.5 -74zM604 788q55 22 101.5 51t89 68t66.5 90.5t24 108.5q0 97 -78 162t-213 65q-137 0 -214 -66t-77 -175q0 -57 17.5 -100
t60 -78.5t91 -62t132.5 -63.5z" />
    <glyph glyph-name="uniF64C" unicode="&#xf64c;" horiz-adv-x="1187" 
d="M575 1067q108 0 196 -38.5t155 -117.5t104 -209t37 -303q0 -396 -156.5 -597t-441.5 -201q-142 0 -240 34v136q131 -52 244 -52q218 0 341 164t130 510q-120 -243 -393 -243q-197 0 -315.5 120t-118.5 330q0 204 127 335.5t331 131.5zM575 944q-146 0 -230.5 -87
t-84.5 -251q0 -167 84 -250.5t231 -83.5q156 0 242 90.5t86 231.5q0 168 -88 259t-240 91z" />
    <glyph glyph-name="uniF6BA" unicode="&#xf6ba;" 
d="M164 684v119h491v-119h-491z" />
    <glyph glyph-name="uniF6BB" unicode="&#xf6bb;" horiz-adv-x="1351" 
d="M164 684v117h1024v-117h-1024z" />
    <glyph glyph-name="uniF6BC" unicode="&#xf6bc;" horiz-adv-x="1843" 
d="M164 684v117h1515v-117h-1515z" />
    <glyph glyph-name="uniF6C3" unicode="&#xf6c3;" horiz-adv-x="0" 
d="M172 -451l82 349h143l-123 -349h-102z" />
    <glyph glyph-name="uniF6C9" unicode="&#xf6c9;" 
d="M356 1550l123 252h193l-213 -252h-103z" />
    <glyph glyph-name="uniF6CA" unicode="&#xf6ca;" 
d="M311 1536l-209 246h164l144 -176l143 176h164l-209 -246h-197z" />
    <glyph glyph-name="uniF6CB" unicode="&#xf6cb;" 
d="M104 1565v164h142v-164h-142zM573 1565v164h142v-164h-142z" />
    <glyph glyph-name="uniF6CC" unicode="&#xf6cc;" 
d="M338 1729l143 245h185l-217 -245h-111zM104 1565v164h142v-164h-142zM573 1565v164h142v-164h-142z" />
    <glyph glyph-name="uniF6CE" unicode="&#xf6ce;" 
d="M367 1550l-248 252h192l158 -252h-102z" />
    <glyph glyph-name="uniF6CF" unicode="&#xf6cf;" 
d="M469 1550l184 252h185l-267 -252h-102zM162 1550l184 252h184l-266 -252h-102z" />
    <glyph glyph-name="uniF6D0" unicode="&#xf6d0;" 
d="M137 1606v110h547v-110h-547z" />
    <glyph glyph-name="uniF6D1" unicode="&#xf6d1;" 
d="M410 1499q-139 0 -230 70t-98 211h119q20 -174 209 -174q193 0 213 174h114q-4 -72 -31 -127.5t-72 -88t-101.5 -49t-122.5 -16.5z" />
    <glyph glyph-name="uniF6D4" unicode="&#xf6d4;" 
d="M410 1257q-63 0 -117 16.5t-98.5 49t-71.5 88t-31 127.5h115q20 -178 203 -178q186 0 206 178h111q-4 -72 -31 -127.5t-71 -88t-98 -49t-117 -16.5z" />
    <glyph glyph-name="uniF6D7" unicode="&#xf6d7;" 
d="M115 1311v164h141v-164h-141zM563 1311v164h142v-164h-142zM342 1434l166 274h172l-236 -274h-102z" />
    <glyph glyph-name="uniF6DE" unicode="&#xf6de;" horiz-adv-x="1413" 
d="M92 551v115h1229v-115h-1229z" />
    <glyph glyph-name="commainferior" unicode="&#xf6e1;" 
d="M266 -451l82 349h144l-123 -349h-103z" />
    <glyph glyph-name="commasuperior" unicode="&#xf6e2;" 
d="M283 1110l92 324h164l-133 -324h-123z" />
    <glyph glyph-name="zerooldstyle" unicode="&#xf730;" horiz-adv-x="1269" 
d="M635 -16q-230 0 -359 138.5t-129 401.5q0 264 129 403.5t359 139.5q229 0 358 -139.5t129 -403.5q0 -263 -129 -401.5t-358 -138.5zM635 106q160 0 254 107t94 309q0 207 -94 314.5t-254 107.5t-254 -107.5t-94 -314.5q0 -202 94 -309t254 -107z" />
    <glyph glyph-name="oneoldstyle" unicode="&#xf731;" horiz-adv-x="808" 
d="M422 0v893l-283 -227l-73 94l366 291h125v-1051h-135z" />
    <glyph glyph-name="twooldstyle" unicode="&#xf732;" horiz-adv-x="1085" 
d="M92 0v125q153 98 240 155t176 120t131 101t78 82.5t47.5 81t11.5 80.5q0 100 -70 152.5t-229 52.5q-176 0 -344 -88v125q157 80 344 80q221 0 327.5 -83t106.5 -228q0 -69 -25 -129.5t-92.5 -136.5t-194 -166.5t-320.5 -204.5v-2h673v-117h-860z" />
    <glyph glyph-name="threeoldstyle" unicode="&#xf733;" horiz-adv-x="1054" 
d="M426 -399q-183 0 -348 63v135q156 -75 348 -75q180 0 274.5 82t94.5 221q0 122 -102.5 199t-307.5 77h-143v123h143q199 0 294 73.5t95 202.5q0 111 -79.5 176.5t-248.5 65.5q-87 0 -183 -24t-165 -58v135q163 70 348 70q236 0 354 -99.5t118 -265.5q0 -123 -74.5 -209
t-212.5 -126v-5q144 -29 225.5 -119.5t81.5 -215.5q0 -194 -132.5 -310t-379.5 -116z" />
    <glyph glyph-name="fouroldstyle" unicode="&#xf734;" horiz-adv-x="1167" 
d="M768 -389v389h-723v123l678 928h180v-934h205v-117h-205v-389h-135zM176 117h592v790h-6z" />
    <glyph glyph-name="fiveoldstyle" unicode="&#xf735;" horiz-adv-x="1126" 
d="M477 -399q-192 0 -327 53v135q140 -65 323 -65q208 0 311 85.5t103 241.5t-97.5 240t-297.5 84q-171 0 -322 -53l41 729h743v-123h-614l-27 -451q79 21 195 21q256 0 389 -118t133 -323q0 -211 -141.5 -333.5t-411.5 -122.5z" />
    <glyph glyph-name="sixoldstyle" unicode="&#xf736;" horiz-adv-x="1228" 
d="M643 -16q-111 0 -199 35.5t-157 112.5t-106.5 210.5t-37.5 316.5q0 387 161 589t448 202q132 0 233 -35v-135q-118 47 -237 47q-468 0 -482 -663q59 113 163.5 175t238.5 62q201 0 321.5 -120t120.5 -330q0 -212 -128.5 -339.5t-338.5 -127.5zM643 106q150 0 237 87
t87 251q0 167 -86.5 250.5t-237.5 83.5q-161 0 -248.5 -90t-87.5 -233q0 -165 91 -257t245 -92z" />
    <glyph glyph-name="sevenoldstyle" unicode="&#xf737;" horiz-adv-x="1064" 
d="M238 -389l600 1317h-789v123h936v-123l-594 -1317h-153z" />
    <glyph glyph-name="eightoldstyle" unicode="&#xf738;" horiz-adv-x="1228" 
d="M614 -16q-239 0 -368 106.5t-129 278.5q0 268 358 368v2q-158 70 -232.5 156t-74.5 213q0 146 122 244t324 98q201 0 324 -100t123 -242q0 -125 -85 -218t-228 -153v-2q181 -54 272.5 -139.5t91.5 -226.5q0 -172 -129.5 -278.5t-368.5 -106.5zM614 100q169 0 261 72.5
t92 185.5q0 207 -381 320q-65 -18 -119 -42.5t-102 -61t-75.5 -89t-27.5 -116.5q0 -121 91 -195t261 -74zM625 788q56 22 104.5 51t92 68t68.5 90.5t25 108.5q0 98 -80.5 162.5t-220.5 64.5q-143 0 -222 -63t-79 -172q0 -57 18.5 -101t62 -80.5t95 -64t136.5 -64.5z" />
    <glyph glyph-name="nineoldstyle" unicode="&#xf739;" horiz-adv-x="1228" 
d="M588 1067q110 0 199 -38t157 -115t105.5 -206t37.5 -300q0 -396 -163 -601.5t-457 -205.5q-146 0 -244 34v136q118 -47 248 -47q228 0 357.5 160.5t136.5 502.5q-59 -113 -163.5 -175t-238.5 -62q-201 0 -321.5 120t-120.5 330q0 212 128.5 339.5t338.5 127.5zM588 944
q-150 0 -237 -87t-87 -251q0 -167 86.5 -250.5t237.5 -83.5q160 0 248 90.5t88 233.5q0 165 -90.5 256.5t-245.5 91.5z" />
    <glyph glyph-name="uniFEFF" unicode="&#xfeff;" horiz-adv-x="0" 
 />
    <glyph glyph-name="uni058F.fitted" horiz-adv-x="1187" 
d="M442 608v115h398v219q0 391 -310 391q-309 0 -309 -389v-104h-135v104q0 245 119.5 375.5t324.5 130.5q204 0 324.5 -131.5t120.5 -376.5v-219h143v-115h-143v-164h143v-114h-143v-330h-135v330h-398v114h398v164h-398z" />
    <glyph glyph-name="franc.fitted" horiz-adv-x="1187" 
d="M276 0v272h-190v117h190v1045h793v-117h-657v-506h612v-117h-612v-305h329v-117h-329v-272h-136z" />
    <glyph glyph-name="uni20BE.fitted" horiz-adv-x="1187" 
d="M453 717v573q-199 -115 -199 -573q0 -280 121.5 -440t320.5 -160h316v-117h-881v117h231q-116 79 -181.5 241t-65.5 359q0 275 84.5 464t253.5 246v211h90v-190q16 2 51 2t51 -2v190h90v-211q170 -58 255 -248t85 -462h-139q0 211 -48.5 362t-152.5 211v-573h-90v606
q-32 4 -51 4t-51 -4v-606h-90z" />
    <glyph glyph-name="uni20BC.fitted" horiz-adv-x="1187" 
d="M72 0q0 1073 454 1139v295h136v-295q454 -67 454 -1139h-139q0 274 -23.5 469.5t-68 307.5t-98.5 166.5t-125 70.5v-1014h-136v1014q-72 -16 -126 -70.5t-98.5 -166.5t-67.5 -307.5t-23 -469.5h-139z" />
    <glyph glyph-name="caron.Slovak" 
d="M158 1217l82 344h143l-123 -344h-102z" />
    <glyph glyph-name="uni0326.cap" 
d="M266 -451l82 349h144l-123 -349h-103z" />
    <glyph glyph-name="dotaccent.cap" 
d="M326 1556v177h168v-177h-168z" />
    <glyph glyph-name="dieresis.cap" 
d="M104 1565v164h142v-164h-142zM573 1565v164h142v-164h-142z" />
    <glyph glyph-name="grave.cap" 
d="M367 1550l-248 252h192l158 -252h-102z" />
    <glyph glyph-name="acute.cap" 
d="M356 1550l123 252h193l-213 -252h-103z" />
    <glyph glyph-name="hungarumlaut.cap" 
d="M469 1550l184 252h185l-267 -252h-102zM162 1550l184 252h184l-266 -252h-102z" />
    <glyph glyph-name="circumflex.cap" 
d="M102 1536l209 246h197l209 -246h-150l-157 176l-158 -176h-150z" />
    <glyph glyph-name="caron.cap" 
d="M311 1536l-209 246h164l144 -176l143 176h164l-209 -246h-197z" />
    <glyph glyph-name="breve.cap" 
d="M410 1544q-111 0 -200.5 62.5t-129.5 175.5h137q14 -43 49 -71t71 -38t73 -10t72.5 10t70.5 38t49 71h137q-40 -113 -129 -175.5t-200 -62.5z" />
    <glyph glyph-name="ring.cap" 
d="M410 1460q-82 0 -139.5 57.5t-57.5 139.5t57.5 139t139.5 57t139 -57t57 -139t-57 -139.5t-139 -57.5zM410 1534q51 0 86.5 36t35.5 87t-35.5 87t-86.5 36t-87 -36t-36 -87t36 -87t87 -36z" />
    <glyph glyph-name="tilde.cap" 
d="M104 1563q-5 75 39.5 127.5t118.5 52.5q56 0 160 -40t135 -40q26 0 51.5 18t30.5 56h82q5 -68 -37 -121t-125 -53q-52 0 -93.5 12.5t-63.5 27t-55 27t-71 12.5q-14 0 -29.5 -5t-35 -24t-25.5 -50h-82z" />
    <glyph glyph-name="macron.cap" 
d="M137 1606v110h547v-110h-547z" />
    <glyph glyph-name="dieresis.narrow" 
d="M471 1311v164h141v-164h-141zM207 1311v164h141v-164h-141z" />
    <glyph glyph-name="circumflex.narrow" 
d="M147 1249l185 267h155l185 -267h-123l-139 197l-140 -197h-123z" />
    <glyph glyph-name="caron.narrow" 
d="M336 1241l-189 272h123l140 -202l139 202h123l-189 -272h-147z" />
    <glyph glyph-name="macron.narrow" 
d="M193 1352v110h434v-110h-434z" />
    <glyph glyph-name="dieresis.cap.narrow" 
d="M197 1565v164h141v-164h-141zM481 1565v164h142v-164h-142z" />
    <glyph glyph-name="circumflex.cap.narrow" 
d="M143 1536l168 246h197l168 -246h-144l-122 176l-123 -176h-144z" />
    <glyph glyph-name="caron.cap.narrow" 
d="M311 1536l-168 246h144l123 -176l122 176h144l-168 -246h-197z" />
    <glyph glyph-name="macron.cap.narrow" 
d="M199 1606v110h403v-110h-403z" />
    <glyph glyph-name="commaturn" 
d="M336 1212l123 349h102l-82 -349h-143z" />
    <glyph glyph-name="cyrdieresis.cap" 
d="M573 1565v164h142v-164h-142zM104 1565h142v164h-142v-164z" />
    <glyph glyph-name="cyrdieresis" 
d="M131 1300v164h141v-164h-141zM543 1300v164h141v-164h-141z" />
    <glyph glyph-name="cyrdieresis.narrow" 
d="M207 1311v164h141v-164h-141zM471 1311v164h141v-164h-141z" />
    <glyph glyph-name="cyrdieresis.cap.narrow" 
d="M186 1565v164h142v-164h-142zM492 1565v164h141v-164h-141z" />
    </font>
</defs>
</svg>
