<?xml version="1.0" standalone="no"?>
<!DOCTYPE svg PUBLIC "-//W3C//DTD SVG 1.1//EN" "http://www.w3.org/Graphics/SVG/1.1/DTD/svg11.dtd" >
<svg xmlns="http://www.w3.org/2000/svg" xmlns:xlink="http://www.w3.org/1999/xlink" version="1.1">
<metadata>
Created by FontForge 20170731 at Mon Apr 24 14:02:21 2023
 By Aleksey,,,
Copyright (c) 1992 ParaType Inc., ParaType Ltd. All rights reserved.
</metadata>
<defs>
<font id="VTBGroupUI-Medium" horiz-adv-x="819" >
  <font-face 
    font-family="VTB Group UI Medium"
    font-weight="500"
    font-stretch="normal"
    units-per-em="2048"
    panose-1="2 11 6 3 5 5 4 2 2 4"
    ascent="1583"
    descent="-465"
    x-height="1055"
    cap-height="1434"
    bbox="-987 -512 2583 2052"
    underline-thickness="102"
    underline-position="-307"
    unicode-range="U+0020-FEFF"
  />
<missing-glyph horiz-adv-x="471" 
 />
    <glyph glyph-name="IJ" unicode="IJ" horiz-adv-x="1331" 
d="M186 0v1434h263v-1434h-263zM743 -20q-101 0 -157 20v219q63 -18 114 -18q113 0 157 73t44 215v945h262v-1026q0 -214 -107.5 -321t-312.5 -107z" />
    <glyph glyph-name="ij" unicode="ij" horiz-adv-x="1187" 
d="M172 0v1055h252v-1055h-252zM164 1251v236h266v-236h-266zM670 -463q-61 0 -115 12v201q2 0 12.5 -2t26.5 -4t31 -2q71 0 106 47t35 148v1118h252v-1121q0 -218 -84.5 -307.5t-263.5 -89.5zM758 1251v236h266v-236h-266z" />
    <glyph glyph-name="uni0410.var.accented" unicode="&#x410;`" horiz-adv-x="1413" 
d="M25 0l536 1434h291l537 -1434h-287l-113 328h-577l-113 -328h-274zM700 1155l-215 -614h430l-210 614h-5zM606 1530l139 262h287l-233 -262h-193z" />
    <glyph glyph-name="uni0415.var.accented" unicode="&#x415;`" horiz-adv-x="1105" 
d="M172 0v1434h827v-222h-565v-362h531v-221h-531v-408h570v-221h-832zM492 1530l139 262h287l-234 -262h-192z" />
    <glyph glyph-name="uni0418.var.accented" unicode="&#x418;`" horiz-adv-x="1515" 
d="M172 0v1434h262v-918l-4 -166h6l72 135l520 949h315v-1434h-262v905l4 185h-6l-69 -138l-523 -952h-315zM657 1530l140 262h286l-233 -262h-193z" />
    <glyph glyph-name="uni041E.var.accented" unicode="&#x41e;`" horiz-adv-x="1536" 
d="M768 -20q-210 0 -363.5 93t-232 259t-78.5 385q0 335 180 536t494 201q211 0 364.5 -93.5t231.5 -259t78 -384.5q0 -222 -79.5 -388t-232.5 -257.5t-362 -91.5zM768 205q96 0 173 40.5t126 111t74.5 162.5t25.5 198q0 146 -44.5 260t-136.5 183t-218 69q-96 0 -173 -40.5
t-126 -111t-74.5 -162.5t-25.5 -198q0 -145 44 -259t136 -183.5t219 -69.5zM668 1530l139 262h287l-234 -262h-192z" />
    <glyph glyph-name="uni0423.var.accented" unicode="&#x423;`" horiz-adv-x="1269" 
d="M221 229q82 -30 133 -30q114 0 170 129l-504 1106h281l342 -805h10l322 805h274l-491 -1131q-77 -176 -159.5 -249.5t-217.5 -73.5q-83 0 -160 30v219zM535 1530l139 262h287l-234 -262h-192z" />
    <glyph glyph-name="uni042B.var.accented" unicode="&#x42b;`" horiz-adv-x="1792" 
d="M172 0v1434h262v-512h174q522 0 522 -463q0 -220 -130 -339.5t-392 -119.5h-436zM434 221h115q165 0 236 59t71 179q0 241 -248 241h-174v-479zM1358 0v1434h262v-1434h-262zM797 1530l139 262h287l-234 -262h-192z" />
    <glyph glyph-name="uni042D.var.accented" unicode="&#x42d;`" horiz-adv-x="1310" 
d="M418 205q220 0 354 109t162 311h-580v221h578q-33 183 -164.5 283t-327.5 100q-34 0 -67.5 -2.5t-60.5 -6.5t-55 -10.5t-47 -12t-41 -13t-32.5 -12t-25.5 -10.5t-17 -7v238q147 61 357 61q355 0 560.5 -199t205.5 -538q0 -341 -209 -539t-578 -198q-162 0 -336 51v235
q1 0 23 -7.5t38 -13t49 -13.5t63 -13.5t70.5 -9.5t80.5 -4zM406 1530l139 262h286l-233 -262h-192z" />
    <glyph glyph-name="uni042E.var.accented" unicode="&#x42e;`" horiz-adv-x="2037" 
d="M1276 -20q-285 0 -458 179t-195 472h-189v-631h-262v1434h262v-582h195q37 283 209.5 442.5t437.5 159.5q156 0 282.5 -54t211 -151t129.5 -233t45 -299q0 -219 -78 -385t-230 -259t-360 -93zM1276 205q95 0 171 41t123.5 112.5t72 163t24.5 195.5q0 145 -43.5 259.5
t-133.5 183.5t-214 69q-126 0 -216 -70.5t-132.5 -184.5t-42.5 -257q0 -145 42.5 -258.5t132.5 -183.5t216 -70zM877 1530l139 262h287l-234 -262h-192z" />
    <glyph glyph-name="uni042F.var.accented" unicode="&#x42f;`" horiz-adv-x="1290" 
d="M27 0l319 569q-244 120 -244 400q0 221 138.5 343t402.5 122h475v-1434h-262v506h-246q-14 0 -20 2l-258 -508h-305zM647 719h209v493h-209q-132 0 -202 -62.5t-70 -182.5t70 -184t202 -64zM551 1530l139 262h287l-234 -262h-192z" />
    <glyph glyph-name="uni0401.var.accented" unicode="&#x401;`" horiz-adv-x="1105" 
d="M172 0v1434h827v-222h-565v-362h531v-221h-531v-408h570v-221h-832zM506 1757l149 295h258l-249 -295h-158zM233 1530v229h234v-229h-234zM719 1530v229h231v-229h-231z" />
    <glyph glyph-name="uni0430.var.accented" unicode="&#x430;`" horiz-adv-x="1142" 
d="M418 -18q-156 0 -252 84.5t-96 234.5q0 180 137 267t393 87h168v29q0 98 -70 143t-188 45q-173 0 -342 -73v211q176 63 379 63q224 0 347.5 -101.5t123.5 -316.5v-655h-246l2 162h-4q-57 -90 -151.5 -135t-200.5 -45zM496 170q116 0 194 80t78 188v58h-152
q-146 0 -215 -48.5t-69 -132.5q0 -70 45 -107.5t119 -37.5zM477 1237l150 285h284l-252 -285h-182z" />
    <glyph glyph-name="uni0435.var.accented" unicode="&#x435;`" horiz-adv-x="1177" 
d="M1081 463h-735q41 -281 332 -281q162 0 334 64v-215q-185 -49 -355 -49q-272 0 -419.5 148t-147.5 411q0 241 142.5 386.5t365.5 145.5q232 0 357.5 -142.5t125.5 -410.5v-57zM598 872q-103 0 -167.5 -66.5t-82.5 -178.5h481q3 114 -61 179.5t-170 65.5zM496 1237
l149 285h285l-252 -285h-182z" />
    <glyph glyph-name="uni0438.var.accented" unicode="&#x438;`" horiz-adv-x="1259" 
d="M154 0v1055h252v-723h4l424 723h272v-1055h-252v725h-4l-426 -725h-270zM535 1237l149 285h285l-252 -285h-182z" />
    <glyph glyph-name="uni043E.var.accented" unicode="&#x43e;`" horiz-adv-x="1269" 
d="M635 -18q-243 0 -394 149.5t-151 394.5t152 396t393 151q242 0 393.5 -151t151.5 -396q0 -246 -151 -395t-394 -149zM635 186q123 0 203 94t80 246t-80.5 247t-202.5 95q-123 0 -203 -95.5t-80 -246.5q0 -153 80.5 -246.5t202.5 -93.5zM539 1237l149 285h285l-252 -285
h-182z" />
    <glyph glyph-name="uni0443.var.accented" unicode="&#x443;`" horiz-adv-x="1126" 
d="M266 -459q-28 0 -53 2.5t-44.5 6t-27.5 4.5v202q64 -8 84 -8q77 0 122 39t75 125l10 33l-405 1110h276l258 -807h8l271 807h260l-412 -1102q-44 -117 -82.5 -190.5t-88 -126t-109.5 -74t-142 -21.5zM463 1237l149 285h285l-252 -285h-182z" />
    <glyph glyph-name="uni044B.var.accented" unicode="&#x44b;`" horiz-adv-x="1587" 
d="M154 0v1055h252v-348h174q220 0 328 -94t108 -257q0 -167 -106 -261.5t-324 -94.5h-432zM403 197h158q98 0 146.5 41.5t48.5 115.5q0 73 -48.5 114.5t-146.5 41.5h-158v-313zM1182 0v1055h252v-1055h-252zM698 1237l150 285h285l-252 -285h-183z" />
    <glyph glyph-name="uni044D.var.accented" unicode="&#x44d;`" horiz-adv-x="1024" 
d="M352 178q280 0 318 264h-420v189h420q-44 246 -320 246q-33 0 -66.5 -4t-61.5 -11t-48 -12.5t-40 -12.5t-23 -8v201q1 0 16 5t37.5 11t52.5 12.5t69 10.5t79 4q259 0 414 -143t155 -402q0 -256 -151.5 -401t-420.5 -145q-43 0 -84.5 4t-71.5 10.5t-52.5 12.5t-37 11
t-16.5 5v204q2 -1 27.5 -9.5t54.5 -17.5t76.5 -16.5t93.5 -7.5zM414 1237l149 285h285l-252 -285h-182z" />
    <glyph glyph-name="uni044E.var.accented" unicode="&#x44e;`" horiz-adv-x="1716" 
d="M154 0v1055h252v-414h194q32 200 169 316t339 116q230 0 374 -152t144 -395q0 -245 -144 -394.5t-374 -149.5q-213 0 -350 122t-162 336h-190v-440h-252zM1108 186q120 0 189 95.5t69 246.5q0 154 -70.5 247t-187.5 93q-121 0 -190.5 -93.5t-69.5 -246.5
q0 -155 69.5 -248.5t190.5 -93.5zM760 1237l149 285h285l-252 -285h-182z" />
    <glyph glyph-name="uni044F.var.accented" unicode="&#x44f;`" horiz-adv-x="1146" 
d="M47 0l234 408q-179 100 -179 305q0 159 107.5 250.5t320.5 91.5h463v-1055h-252v352h-227l-182 -352h-285zM541 537h202v325h-202q-89 0 -135 -41t-46 -114q0 -77 47 -123.5t134 -46.5zM483 1237l150 285h285l-252 -285h-183z" />
    <glyph glyph-name="uni0451.var.accented" unicode="&#x451;`" horiz-adv-x="1177" 
d="M1081 463h-735q41 -281 332 -281q162 0 334 64v-215q-185 -49 -355 -49q-272 0 -419.5 148t-147.5 411q0 241 142.5 386.5t365.5 145.5q232 0 357.5 -142.5t125.5 -410.5v-57zM598 872q-103 0 -167.5 -66.5t-82.5 -178.5h481q3 114 -61 179.5t-170 65.5zM203 1262v225
h223v-225h-223zM758 1262v225h223v-225h-223zM471 1444l152 289h278l-244 -289h-186z" />
    <glyph glyph-name="fi" unicode="fi" horiz-adv-x="1320" 
d="M45 854v201h182v102q0 216 89 314t278 98q57 0 151 -13v-188q-62 4 -81 4q-105 0 -145 -48t-40 -173v-96h258v-201h-258v-854h-252v854h-182zM899 0v1055h252v-1055h-252zM891 1251v236h266v-236h-266z" />
    <glyph glyph-name="fl" unicode="fl" horiz-adv-x="1320" 
d="M45 854v201h182v102q0 216 89 314t278 98q57 0 151 -13v-188q-62 4 -81 4q-105 0 -145 -48t-40 -173v-96h258v-201h-258v-854h-252v854h-182zM899 0v1550h252v-1550h-252z" />
    <glyph glyph-name=".notdef" horiz-adv-x="471" 
 />
    <glyph glyph-name=".null" horiz-adv-x="0" 
 />
    <glyph glyph-name="nonmarkingreturn" horiz-adv-x="682" 
 />
    <glyph glyph-name="space" unicode=" " horiz-adv-x="471" 
 />
    <glyph glyph-name="exclam" unicode="!" horiz-adv-x="737" 
d="M270 426l-39 1008h275l-39 -1008h-197zM236 0v260h266v-260h-266z" />
    <glyph glyph-name="quotedbl" unicode="&#x22;" horiz-adv-x="962" 
d="M211 915v519h205v-519h-205zM547 915v519h205v-519h-205z" />
    <glyph glyph-name="numbersign" unicode="#" horiz-adv-x="1187" 
d="M178 0l55 391h-165v180h190l41 291h-174v180h201l53 392h190l-55 -392h252l55 392h189l-56 -392h166v-180h-190l-43 -291h176v-180h-201l-53 -391h-180l55 391h-262l-55 -391h-189zM446 571h252l41 291h-252z" />
    <glyph glyph-name="dollar" unicode="$" horiz-adv-x="1187" 
d="M500 -205v187q-218 8 -387 59v231q76 -34 185.5 -57.5t203.5 -28.5v482q-52 19 -84 31.5t-80 35t-78 43t-64.5 52t-54 65t-32.5 79t-13 97.5q0 168 106.5 264t313.5 113v190h148v-188q189 -5 327 -49v-223q-134 55 -329 63v-399q70 -23 120 -44t108.5 -58t95 -80.5
t61 -108.5t24.5 -145q0 -172 -106.5 -283.5t-315.5 -134.5v-193h-149zM823 387q0 73 -47.5 131.5t-126.5 95.5v-417q84 20 129 70.5t45 119.5zM336 1087q0 -72 46.5 -118t133.5 -80v346q-95 -10 -137.5 -46.5t-42.5 -101.5z" />
    <glyph glyph-name="percent" unicode="%" horiz-adv-x="1843" 
d="M332 0l997 1434h182l-997 -1434h-182zM453 737q-169 0 -261 96t-92 265q0 163 94 259.5t259 96.5q169 0 260.5 -94.5t91.5 -261.5q0 -165 -93.5 -263t-258.5 -98zM453 891q82 0 121.5 48.5t39.5 158.5q0 108 -39 156.5t-122 48.5q-162 0 -162 -205q0 -207 162 -207z
M1389 -20q-167 0 -259 94.5t-92 261.5q0 166 92.5 263t258.5 97q170 0 262 -95.5t92 -264.5q0 -161 -95 -258.5t-259 -97.5zM1389 131q83 0 123 48.5t40 156.5q0 109 -39.5 158t-123.5 49q-160 0 -160 -207q0 -205 160 -205z" />
    <glyph glyph-name="ampersand" unicode="&#x26;" horiz-adv-x="1515" 
d="M664 -20q-247 0 -399 117t-152 292q0 121 73 219.5t207 167.5q-89 88 -131.5 169t-42.5 175q0 159 116.5 246.5t311.5 87.5q198 0 321.5 -92t123.5 -242q0 -129 -95.5 -223.5t-269.5 -165.5q38 -35 167.5 -152.5t217.5 -199.5q94 140 94 395h219q-6 -327 -176 -528
q110 -107 246 -246h-309l-94 104q-186 -124 -428 -124zM961 240q-71 72 -141.5 138.5t-166 153.5t-129.5 119q-151 -91 -151 -245q2 -108 82.5 -173t220.5 -65q165 0 285 72zM455 1108q0 -131 135 -258q266 100 266 260q0 76 -57.5 118t-149.5 42q-90 0 -142 -39.5
t-52 -122.5z" />
    <glyph glyph-name="quotesingle" unicode="'" horiz-adv-x="573" 
d="M184 915v519h205v-519h-205z" />
    <glyph glyph-name="parenleft" unicode="(" horiz-adv-x="716" 
d="M469 -287q-329 448 -334 918q9 462 334 917h219q-131 -206 -219.5 -445t-89.5 -472q1 -160 47.5 -334.5t110.5 -313t147 -270.5h-215z" />
    <glyph glyph-name="parenright" unicode=")" horiz-adv-x="716" 
d="M29 -287q83 131 148 270t112.5 314t48.5 334q-1 235 -89 474t-220 443h219q329 -448 334 -917q-4 -454 -334 -918h-219z" />
    <glyph glyph-name="asterisk" unicode="*" horiz-adv-x="1126" 
d="M401 633l-165 115l221 239l-316 66l64 192l297 -129l-37 318h207l-35 -316l289 127l61 -192l-313 -66l215 -239l-168 -115l-158 276z" />
    <glyph glyph-name="plus" unicode="+" horiz-adv-x="1187" 
d="M485 197v411h-409v217h409v414h217v-414h410v-217h-410v-411h-217z" />
    <glyph glyph-name="comma" unicode="," horiz-adv-x="573" 
d="M25 -258l129 518h264l-182 -518h-211z" />
    <glyph glyph-name="hyphen" unicode="-" 
d="M111 502v225h600v-225h-600z" />
    <glyph glyph-name="period" unicode="." horiz-adv-x="573" 
d="M154 0v260h266v-260h-266z" />
    <glyph glyph-name="slash" unicode="/" horiz-adv-x="655" 
d="M-35 0l510 1434h215l-510 -1434h-215z" />
    <glyph glyph-name="zero" unicode="0" horiz-adv-x="1269" 
d="M635 -20q-516 0 -516 737q0 379 134 558t378 179q522 0 522 -737q0 -195 -36.5 -338.5t-106 -230t-162.5 -127.5t-213 -41zM635 184q61 0 106.5 27t80 87.5t52 165.5t17.5 253q0 152 -18 257.5t-53.5 164.5t-81 84.5t-107.5 25.5q-46 0 -82.5 -15t-68.5 -52.5
t-53.5 -97.5t-33.5 -152.5t-12 -214.5q0 -150 18.5 -256.5t54 -165.5t79.5 -85t102 -26z" />
    <glyph glyph-name="one" unicode="1" 
d="M383 0v1133l-252 -193l-121 168l414 326h211v-1434h-252z" />
    <glyph glyph-name="two" unicode="2" horiz-adv-x="1146" 
d="M76 0v197q19 16 190 170q91 80 157.5 142t133 134.5t107.5 133.5t66.5 127t25.5 126q0 107 -71 163t-202 56q-180 0 -358 -94v221q201 78 405 78q227 0 356.5 -105t129.5 -315q0 -155 -90.5 -288t-331.5 -343l-234 -202h674v-201h-958z" />
    <glyph glyph-name="three" unicode="3" horiz-adv-x="1146" 
d="M492 -20q-211 0 -383 61v219q162 -76 350 -76q153 0 238 61t85 169q0 109 -90 169t-250 60h-141v197h129q160 0 242 55.5t82 155.5q0 93 -71 145.5t-210 52.5q-179 0 -332 -73v217q162 61 361 61q247 0 377.5 -98.5t130.5 -272.5q0 -253 -301 -331v-4
q162 -24 245.5 -121.5t83.5 -235.5q0 -104 -43.5 -184t-120 -129t-173 -73.5t-209.5 -24.5z" />
    <glyph glyph-name="four" unicode="4" horiz-adv-x="1187" 
d="M700 0v309h-657v211l590 914h319v-924h181v-201h-181v-309h-252zM276 510h424v653h-4z" />
    <glyph glyph-name="five" unicode="5" horiz-adv-x="1146" 
d="M449 -20q-187 0 -324 49v217q161 -62 301 -62q165 0 255.5 72t90.5 203q0 134 -88.5 198t-249.5 64q-149 0 -295 -45q23 320 47 758h785v-201h-588l-21 -340q110 22 181 22q227 0 357 -114.5t130 -329.5q0 -234 -153 -362.5t-428 -128.5z" />
    <glyph glyph-name="six" unicode="6" horiz-adv-x="1228" 
d="M621 -20q-132 0 -231.5 52.5t-159.5 147.5t-89.5 218.5t-29.5 273.5q0 236 73.5 411t221 273t354.5 98q115 0 225 -37v-215q-104 47 -227 47q-193 0 -299.5 -131.5t-108.5 -345.5h2q129 150 326 150q192 0 312 -124t120 -337q0 -208 -132 -344.5t-357 -136.5zM621 184
q113 0 174 74t61 197q0 119 -59.5 191.5t-173.5 72.5q-115 0 -179.5 -72.5t-64.5 -193.5q0 -120 63 -194.5t179 -74.5z" />
    <glyph glyph-name="seven" unicode="7" horiz-adv-x="1126" 
d="M215 0l563 1233h-706v201h970v-203l-550 -1231h-277z" />
    <glyph glyph-name="eight" unicode="8" horiz-adv-x="1228" 
d="M618 -20q-231 0 -377.5 110t-146.5 289q0 130 81 225.5t224 143.5v4q-132 63 -200 146t-68 200q0 166 134 261t345 95q213 0 345 -93.5t132 -248.5q0 -214 -258 -346v-2q144 -56 225 -152.5t81 -228.5q0 -189 -141 -296t-376 -107zM625 184q111 0 178 56t67 151
q0 49 -19.5 88.5t-61 72.5t-87.5 57.5t-118 54.5q-124 -60 -175 -124t-51 -141q0 -106 77.5 -160.5t189.5 -54.5zM651 834q94 62 137 121t43 126q0 86 -62 127t-159 41q-98 0 -164.5 -45.5t-66.5 -122.5q0 -73 68 -131.5t204 -115.5z" />
    <glyph glyph-name="nine" unicode="9" horiz-adv-x="1228" 
d="M598 1454q133 0 233.5 -51t162.5 -143.5t93 -215t31 -272.5q0 -144 -21.5 -264t-68 -219t-116.5 -167t-170 -105t-226 -37q-159 0 -280 38v213q44 -18 122.5 -32.5t149.5 -14.5q78 0 139.5 23t104.5 64.5t71.5 101t41.5 131.5t14 158h-2q-116 -148 -320 -148
q-197 0 -317.5 123t-120.5 336q0 214 127.5 347.5t351.5 133.5zM606 1249q-113 0 -173 -74t-60 -196q0 -120 59 -192t174 -72t179.5 72.5t64.5 191.5q0 121 -63.5 195.5t-180.5 74.5z" />
    <glyph glyph-name="colon" unicode=":" horiz-adv-x="573" 
d="M154 791v260h266v-260h-266zM154 0v260h266v-260h-266z" />
    <glyph glyph-name="semicolon" unicode=";" horiz-adv-x="573" 
d="M25 -258l129 518h266l-182 -518h-213zM154 791v260h266v-260h-266z" />
    <glyph glyph-name="less" unicode="&#x3c;" horiz-adv-x="1187" 
d="M1040 385v-256l-907 467v242l907 467v-261l-669 -329z" />
    <glyph glyph-name="equal" unicode="=" horiz-adv-x="1187" 
d="M76 827v217h1036v-217h-1036zM76 393v217h1036v-217h-1036z" />
    <glyph glyph-name="greater" unicode="&#x3e;" horiz-adv-x="1187" 
d="M147 129v256l670 330l-670 329v261l908 -467v-242z" />
    <glyph glyph-name="question" unicode="?" horiz-adv-x="1024" 
d="M399 426v29q0 69 19.5 131t48.5 106t63.5 91t63.5 86t48.5 90t19.5 104q0 88 -56 135t-162 47q-163 0 -290 -74v220q149 63 333 63q212 0 332.5 -93.5t120.5 -260.5q0 -61 -17 -115.5t-44 -97.5t-60.5 -83.5t-67 -80t-61.5 -79.5t-46.5 -90t-20.5 -105v-23h-224zM379 0
v260h264v-260h-264z" />
    <glyph glyph-name="at" unicode="@" horiz-adv-x="1740" 
d="M940 -276q-196 0 -356 62t-266.5 172t-164 260t-57.5 327q0 176 59.5 329.5t164.5 262.5t254.5 172t322.5 63q140 0 260.5 -36t209 -100.5t152 -150.5t95 -187.5t31.5 -211.5q0 -141 -36.5 -251t-97.5 -175t-134 -98t-152 -33q-89 0 -139 38t-58 112q-97 -150 -280 -150
q-125 0 -209 100.5t-84 264.5q0 126 51 233t146.5 172.5t215.5 65.5q158 0 213 -121h4l23 100h184l-80 -459q-22 -92 -15.5 -142t60.5 -50q88 0 158 98.5t70 290.5q0 110 -37.5 206t-109 170t-184.5 116.5t-255 42.5q-286 0 -461.5 -188.5t-175.5 -485.5q0 -195 76 -343.5
t228.5 -234.5t363.5 -86q101 0 196.5 19.5t151.5 48.5v-160q-51 -25 -146 -44t-192 -19zM823 299q73 0 123 50t70 120.5t20 155.5q0 79 -39 122.5t-110 43.5q-103 0 -161 -89.5t-58 -205.5q0 -86 42 -141.5t113 -55.5z" />
    <glyph glyph-name="A" unicode="A" horiz-adv-x="1413" 
d="M25 0l536 1434h291l537 -1434h-287l-113 328h-577l-113 -328h-274zM700 1155l-215 -614h430l-210 614h-5z" />
    <glyph glyph-name="B" unicode="B" horiz-adv-x="1249" 
d="M172 0v1434h467q248 0 372 -94t124 -273q0 -124 -67.5 -207.5t-199.5 -118.5v-4q308 -62 308 -344q0 -393 -525 -393h-479zM434 221h209q260 0 260 203q0 211 -264 211h-205v-414zM434 840h174q260 0 260 194q0 91 -70 134.5t-241 43.5h-123v-372z" />
    <glyph glyph-name="C" unicode="C" horiz-adv-x="1290" 
d="M858 -20q-182 0 -326.5 53.5t-240.5 150.5t-146.5 232.5t-50.5 300.5q0 341 206.5 539t549.5 198q86 0 171 -14t127 -28l42 -15v-234q-182 66 -330 66q-225 0 -358 -135.5t-133 -378.5t134.5 -376.5t362.5 -133.5q160 0 324 53v-233q-167 -45 -332 -45z" />
    <glyph glyph-name="D" unicode="D" horiz-adv-x="1474" 
d="M172 0v1434h490q331 0 524.5 -187.5t193.5 -529.5q0 -351 -191.5 -534t-526.5 -183h-490zM434 221h228q217 0 330.5 124t113.5 357q0 237 -114.5 373.5t-311.5 136.5h-246v-991z" />
    <glyph glyph-name="E" unicode="E" horiz-adv-x="1105" 
d="M172 0v1434h827v-222h-565v-362h531v-221h-531v-408h570v-221h-832z" />
    <glyph glyph-name="F" unicode="F" horiz-adv-x="1064" 
d="M172 0v1434h827v-222h-565v-374h539v-222h-539v-616h-262z" />
    <glyph glyph-name="G" unicode="G" horiz-adv-x="1464" 
d="M856 -20q-361 0 -561.5 196.5t-200.5 544.5q0 345 207 539t563 194q253 0 420 -72v-233q-68 32 -175 56t-228 24q-242 0 -377 -135.5t-135 -378.5q0 -242 131 -376t370 -134q100 0 191 16l2 350h-291v217h545v-749q-206 -59 -461 -59z" />
    <glyph glyph-name="H" unicode="H" horiz-adv-x="1474" 
d="M172 0v1434h262v-582h606v582h263v-1434h-263v631h-606v-631h-262z" />
    <glyph glyph-name="I" unicode="I" horiz-adv-x="634" 
d="M186 0v1434h263v-1434h-263z" />
    <glyph glyph-name="J" unicode="J" horiz-adv-x="778" 
d="M190 -20q-101 0 -157 20v219q63 -18 114 -18q113 0 157 73t44 215v945h262v-1026q0 -214 -107.5 -321t-312.5 -107z" />
    <glyph glyph-name="K" unicode="K" horiz-adv-x="1320" 
d="M172 0v1434h262v-576h158l381 576h305l-463 -676l500 -758h-314l-403 637h-164v-637h-262z" />
    <glyph glyph-name="L" unicode="L" horiz-adv-x="1064" 
d="M172 0v1434h262v-1213h598v-221h-860z" />
    <glyph glyph-name="M" unicode="M" horiz-adv-x="1761" 
d="M172 0v1434h375l336 -768l348 768h358v-1434h-262v1083h-8l-334 -704h-213l-328 704h-10v-1083h-262z" />
    <glyph glyph-name="N" unicode="N" horiz-adv-x="1495" 
d="M172 0v1434h334l557 -1069h4l-6 157v912h262v-1434h-326l-563 1079h-4l4 -143v-936h-262z" />
    <glyph glyph-name="O" unicode="O" horiz-adv-x="1536" 
d="M768 -20q-210 0 -363.5 93t-232 259t-78.5 385q0 335 180 536t494 201q211 0 364.5 -93.5t231.5 -259t78 -384.5q0 -222 -79.5 -388t-232.5 -257.5t-362 -91.5zM768 205q96 0 173 40.5t126 111t74.5 162.5t25.5 198q0 146 -44.5 260t-136.5 183t-218 69q-96 0 -173 -40.5
t-126 -111t-74.5 -162.5t-25.5 -198q0 -145 44 -259t136 -183.5t219 -69.5z" />
    <glyph glyph-name="P" unicode="P" horiz-adv-x="1228" 
d="M172 0v1434h471q265 0 398 -119t133 -340q0 -228 -131.5 -351.5t-399.5 -123.5h-209v-500h-262zM434 721h203q264 0 264 252q0 239 -264 239h-203v-491z" />
    <glyph glyph-name="Q" unicode="Q" horiz-adv-x="1536" 
d="M768 -20q-210 0 -363.5 93t-232 259t-78.5 385q0 335 180 536t494 201q211 0 364.5 -93.5t231.5 -259t78 -384.5q0 -227 -84.5 -396.5t-241.5 -257.5l322 -325h-305l-238 252q-68 -10 -127 -10zM768 205q96 0 173 40.5t126 111t74.5 162.5t25.5 198q0 146 -44.5 260
t-136.5 183t-218 69q-96 0 -173 -40.5t-126 -111t-74.5 -162.5t-25.5 -198q0 -145 44 -259t136 -183.5t219 -69.5z" />
    <glyph glyph-name="R" unicode="R" horiz-adv-x="1280" 
d="M946 0l-237 526q-46 -4 -68 -4h-207v-522h-262v1434h459q266 0 398 -118t132 -337q0 -280 -213 -389l301 -590h-303zM434 735h203q126 0 188 62.5t62 181.5q0 233 -250 233h-203v-477z" />
    <glyph glyph-name="S" unicode="S" horiz-adv-x="1085" 
d="M457 -20q-179 0 -348 57v237q76 -31 173.5 -50t172.5 -19q125 0 194.5 51.5t69.5 136.5q0 42 -18.5 76t-56 61.5t-75 48t-94.5 47.5q-4 1 -5.5 2t-4.5 2.5t-5.5 2.5t-4.5 2q-45 21 -74.5 36t-71.5 39.5t-69 46.5t-57.5 54.5t-48 66.5t-29 78.5t-11.5 94.5
q0 190 135 296.5t373 106.5q180 0 320 -51v-223q-131 49 -310 49q-243 0 -243 -148q0 -28 8 -52.5t27 -46.5t36.5 -37.5t52 -35t56 -30t65.5 -31.5q40 -18 60 -27.5t58 -29t59 -33.5t52.5 -37.5t50 -44.5t40 -51t32.5 -61t19 -70t8 -82q0 -203 -141.5 -317.5t-394.5 -114.5z
" />
    <glyph glyph-name="T" unicode="T" horiz-adv-x="1146" 
d="M442 0v1212h-409v222h1081v-222h-409v-1212h-263z" />
    <glyph glyph-name="U" unicode="U" horiz-adv-x="1474" 
d="M737 -20q-271 0 -420 151.5t-149 446.5v856h262v-824q0 -209 74.5 -307t232.5 -98q159 0 233 98.5t74 306.5v824h263v-856q0 -295 -150 -446.5t-420 -151.5z" />
    <glyph glyph-name="V" unicode="V" horiz-adv-x="1351" 
d="M512 0l-500 1434h297l369 -1158h6l371 1158h284l-503 -1434h-324z" />
    <glyph glyph-name="W" unicode="W" horiz-adv-x="2048" 
d="M406 0l-394 1434h285l287 -1158h8l262 1158h348l264 -1162h9l288 1162h273l-398 -1434h-335l-273 1196h-8l-274 -1196h-342z" />
    <glyph glyph-name="X" unicode="X" horiz-adv-x="1413" 
d="M1057 0l-363 557l-348 -557h-311l502 748l-455 686h315l320 -502l319 502h297l-456 -684l501 -750h-321z" />
    <glyph glyph-name="Y" unicode="Y" horiz-adv-x="1331" 
d="M16 1434h301l347 -635h8l346 635h299l-520 -899v-535h-262v541z" />
    <glyph glyph-name="Z" unicode="Z" horiz-adv-x="1187" 
d="M109 0v217l663 995h-641v222h938v-211l-674 -1002h684v-221h-970z" />
    <glyph glyph-name="bracketleft" unicode="[" horiz-adv-x="716" 
d="M211 -287v1835h424v-168h-205v-1497h205v-170h-424z" />
    <glyph glyph-name="backslash" unicode="\" horiz-adv-x="655" 
d="M471 0l-506 1434h219l506 -1434h-219z" />
    <glyph glyph-name="bracketright" unicode="]" horiz-adv-x="716" 
d="M506 1548v-1835h-424v170h205v1497h-205v168h424z" />
    <glyph glyph-name="asciicircum" unicode="^" horiz-adv-x="1187" 
d="M45 717l434 717h230l434 -717h-242l-307 528l-307 -528h-242z" />
    <glyph glyph-name="underscore" unicode="_" horiz-adv-x="1024" 
d="M0 -256v102h1024v-102h-1024z" />
    <glyph glyph-name="grave" unicode="`" 
d="M319 1237l-231 285h287l137 -285h-193z" />
    <glyph glyph-name="a" unicode="a" horiz-adv-x="1142" 
d="M418 -18q-156 0 -252 84.5t-96 234.5q0 180 137 267t393 87h168v29q0 98 -70 143t-188 45q-173 0 -342 -73v211q176 63 379 63q224 0 347.5 -101.5t123.5 -316.5v-655h-246l2 162h-4q-57 -90 -151.5 -135t-200.5 -45zM496 170q116 0 194 80t78 188v58h-152
q-146 0 -215 -48.5t-69 -132.5q0 -70 45 -107.5t119 -37.5z" />
    <glyph glyph-name="b" unicode="b" horiz-adv-x="1290" 
d="M723 -18q-112 0 -191.5 39t-138.5 122h-4l-16 -143h-219v1550h252v-620h4q131 143 319 143q141 0 250 -74t165 -195t56 -267q0 -156 -56.5 -281.5t-166 -199.5t-254.5 -74zM670 176q116 0 192 99t76 253q0 153 -75 249.5t-191 96.5q-119 0 -196 -98t-77 -252
q0 -155 76 -251.5t195 -96.5z" />
    <glyph glyph-name="c" unicode="c" horiz-adv-x="993" 
d="M631 -18q-251 0 -396 147.5t-145 396.5q0 246 145 396.5t394 150.5q140 0 262 -39v-198q-1 0 -22 6.5t-37.5 10.5t-43.5 9.5t-57.5 8.5t-62.5 3q-154 0 -235 -88t-81 -258q0 -173 85 -260.5t237 -87.5q101 0 219 41v-203q-1 0 -11.5 -3t-22 -6t-30 -7t-39.5 -7
l-45.5 -6.5t-54 -5t-59.5 -1.5z" />
    <glyph glyph-name="d" unicode="d" horiz-adv-x="1290" 
d="M567 -18q-145 0 -254.5 73.5t-166 199t-56.5 282.5q0 146 56 267t165 195t250 74q195 0 324 -147v624h252v-1550h-238v160q-119 -178 -332 -178zM623 176q118 0 193 97t75 251t-77 252t-196 98q-116 0 -191 -96.5t-75 -249.5q0 -154 76.5 -253t194.5 -99z" />
    <glyph glyph-name="e" unicode="e" horiz-adv-x="1177" 
d="M1081 463h-735q41 -281 332 -281q162 0 334 64v-215q-185 -49 -355 -49q-272 0 -419.5 148t-147.5 411q0 241 142.5 386.5t365.5 145.5q232 0 357.5 -142.5t125.5 -410.5v-57zM598 872q-103 0 -167.5 -66.5t-82.5 -178.5h481q3 114 -61 179.5t-170 65.5z" />
    <glyph glyph-name="f" unicode="f" horiz-adv-x="757" 
d="M45 854v201h182v102q0 216 88.5 314t276.5 98q80 0 153 -10v-191q-62 4 -81 4q-105 0 -145 -48t-40 -173v-96h258v-201h-258v-854h-252v854h-182z" />
    <glyph glyph-name="g" unicode="g" horiz-adv-x="1290" 
d="M571 -463q-179 0 -393 66v217q1 0 23 -8.5t38.5 -14l46.5 -15.5t59.5 -16.5t64.5 -13.5t73.5 -10.5t75.5 -3.5q169 0 251.5 83t82.5 255v78h-8q-54 -72 -141 -113t-187 -41q-209 0 -338 149.5t-129 385.5q0 243 133 390.5t344 147.5q195 0 328 -166h6v148h236v-979
q0 -276 -138.5 -407.5t-427.5 -131.5zM621 195q117 0 191.5 92t74.5 248q0 161 -76.5 250t-196.5 89q-116 0 -189 -86t-73 -243q0 -158 77 -254t192 -96z" />
    <glyph glyph-name="h" unicode="h" horiz-adv-x="1249" 
d="M154 0v1550h252v-495l-3 -160h7q121 178 340 178q180 0 277 -114.5t97 -331.5v-627h-252v553q0 165 -51 237t-153 72q-124 0 -193 -95t-69 -278v-489h-252z" />
    <glyph glyph-name="i" unicode="i" horiz-adv-x="593" 
d="M172 0v1055h252v-1055h-252zM164 1251v236h266v-236h-266z" />
    <glyph glyph-name="j" unicode="j" horiz-adv-x="593" 
d="M76 -463q-61 0 -115 12v201q2 0 12.5 -2t27 -4t30.5 -2q71 0 106 47t35 148v1118h252v-1121q0 -218 -84.5 -307.5t-263.5 -89.5zM164 1251v236h266v-236h-266z" />
    <glyph glyph-name="k" unicode="k" horiz-adv-x="1136" 
d="M154 0v1550h252v-960l423 465h291l-415 -447l423 -608h-297l-309 461l-116 -123v-338h-252z" />
    <glyph glyph-name="l" unicode="l" horiz-adv-x="593" 
d="M170 0v1550h254v-1550h-254z" />
    <glyph glyph-name="m" unicode="m" horiz-adv-x="1812" 
d="M154 0v1055h233v-162h6q53 83 137 131.5t181 48.5q106 0 183 -55.5t116 -153.5q121 209 340 209q163 0 250.5 -112.5t87.5 -292.5v-668h-252v602q0 260 -164 260q-76 0 -128 -49.5t-74.5 -126t-22.5 -172.5v-514h-252v602q0 260 -162 260q-107 0 -167 -97.5t-60 -250.5
v-514h-252z" />
    <glyph glyph-name="n" unicode="n" horiz-adv-x="1249" 
d="M154 0v1055h241v-160h4q59 84 147 131t199 47q181 0 280 -114.5t99 -331.5v-627h-252v553q0 165 -52 237t-154 72q-122 0 -191 -95t-69 -278v-489h-252z" />
    <glyph glyph-name="o" unicode="o" horiz-adv-x="1269" 
d="M635 -18q-243 0 -394 149.5t-151 394.5t152 396t393 151q242 0 393.5 -151t151.5 -396q0 -246 -151 -395t-394 -149zM635 186q123 0 203 94t80 246t-80.5 247t-202.5 95q-123 0 -203 -95.5t-80 -246.5q0 -153 80.5 -246.5t202.5 -93.5z" />
    <glyph glyph-name="p" unicode="p" horiz-adv-x="1290" 
d="M406 137v-588h-252v1506h237v-150h4q67 88 158 128t184 40q144 0 250 -72t159.5 -193t53.5 -273q0 -156 -55.5 -281t-162 -198.5t-245.5 -73.5q-110 0 -196.5 45t-134.5 110zM668 176q122 0 196 98t74 263q0 153 -73 245t-193 92q-124 0 -198.5 -95t-74.5 -255
q0 -159 74 -253.5t195 -94.5zM436 125l-30 35v-13z" />
    <glyph glyph-name="q" unicode="q" horiz-adv-x="1290" 
d="M885 -451v588q-48 -65 -135 -110t-197 -45q-139 0 -245.5 73.5t-162 198.5t-55.5 281q0 152 53.5 273t159.5 193t250 72q93 0 184 -40t158 -128h4v150h238v-1506h-252zM623 176q121 0 194.5 94.5t73.5 253.5q0 160 -74.5 255t-198.5 95q-120 0 -193 -92t-73 -245
q0 -165 74.5 -263t196.5 -98zM885 160l-31 -35l31 22v13z" />
    <glyph glyph-name="r" unicode="r" horiz-adv-x="829" 
d="M154 0v1055h235v-174h2q47 92 112 142t165 50q52 0 110 -10v-215q-52 8 -102 8q-147 0 -208.5 -96.5t-61.5 -296.5v-463h-252z" />
    <glyph glyph-name="s" unicode="s" horiz-adv-x="962" 
d="M434 -18q-185 0 -325 55v201q168 -66 309 -66q91 0 135.5 31t44.5 78q0 16 -5 30t-17 26.5t-23.5 21.5t-34 21t-37.5 19t-45 20t-47 21q-50 22 -84 39.5t-76 47.5t-67 62.5t-42.5 79.5t-17.5 103q0 144 111.5 222.5t302.5 78.5q146 0 297 -49v-195q-122 52 -266 52
q-93 0 -140 -27t-47 -74q0 -15 4 -28.5t16.5 -26t21 -20.5t31 -20.5t32.5 -17.5t41 -19t41 -19q11 -5 48.5 -21.5t51.5 -23.5l47 -23.5t47.5 -28.5t39.5 -32t37 -39.5t25.5 -44.5t19 -55t5.5 -64q0 -153 -116.5 -234t-317.5 -81z" />
    <glyph glyph-name="t" unicode="t" horiz-adv-x="778" 
d="M696 1055v-201h-225v-492q0 -172 143 -172q33 0 91 15v-207q-85 -16 -146 -16q-162 0 -251 87.5t-89 252.5v532h-170v201h170v245l252 80v-325h225z" />
    <glyph glyph-name="u" unicode="u" horiz-adv-x="1249" 
d="M1096 1055v-1055h-242v158h-6q-130 -176 -338 -176q-182 0 -283.5 115t-101.5 331v627h252v-551q0 -165 52 -237t153 -72q124 0 193 93.5t69 276.5v490h252z" />
    <glyph glyph-name="v" unicode="v" horiz-adv-x="1105" 
d="M403 0l-383 1055h273l264 -807h6l266 807h256l-383 -1055h-299z" />
    <glyph glyph-name="w" unicode="w" horiz-adv-x="1648" 
d="M328 0l-297 1055h272l186 -807h5l233 807h211l229 -807h2l201 807h248l-297 -1055h-281l-217 758l-215 -758h-280z" />
    <glyph glyph-name="x" unicode="x" horiz-adv-x="1105" 
d="M25 0l381 541l-351 514h301l215 -344l213 344h275l-344 -502l366 -553h-301l-227 371l-242 -371h-286z" />
    <glyph glyph-name="y" unicode="y" horiz-adv-x="1126" 
d="M266 -459q-28 0 -53 2.5t-44.5 6t-27.5 4.5v202q64 -8 84 -8q77 0 122 39t75 125l10 33l-405 1110h276l258 -807h8l271 807h260l-412 -1102q-44 -117 -82.5 -190.5t-88 -126t-109.5 -74t-142 -21.5z" />
    <glyph glyph-name="z" unicode="z" horiz-adv-x="1024" 
d="M92 0v197l526 657h-503v201h800v-197l-528 -657h545v-201h-840z" />
    <glyph glyph-name="braceleft" unicode="{" horiz-adv-x="716" 
d="M539 -287q-127 0 -202 75.5t-75 209.5v373q0 175 -164 188v152q164 9 164 184v377q0 134 75 209t202 75h94v-161h-43q-62 0 -90.5 -36t-28.5 -112v-373q0 -102 -55.5 -166t-147.5 -73q96 -9 149.5 -75.5t53.5 -170.5v-366q0 -81 29 -114.5t90 -35.5h43v-160h-94z" />
    <glyph glyph-name="bar" unicode="|" horiz-adv-x="532" 
d="M152 -283v1827h229v-1827h-229z" />
    <glyph glyph-name="braceright" unicode="}" horiz-adv-x="716" 
d="M178 -287h-94v160h43q61 2 90 35.5t29 114.5v366q0 104 53.5 170.5t149.5 75.5q-92 9 -147.5 73t-55.5 166v373q0 76 -28.5 112t-90.5 36h-43v161h94q127 0 202 -75t75 -209v-377q0 -175 163 -184v-152q-163 -13 -163 -188v-373q0 -134 -75.5 -209.5t-201.5 -75.5z" />
    <glyph glyph-name="asciitilde" unicode="~" horiz-adv-x="1187" 
d="M807 528q-63 0 -127 25.5t-108.5 55.5t-99 55.5t-99.5 25.5q-59 0 -115.5 -37.5t-97.5 -105.5l-115 158q67 92 155.5 145t182.5 53q68 0 134.5 -25.5t110.5 -56.5t95.5 -56.5t93.5 -25.5q55 0 110.5 34.5t96.5 96.5l119 -145q-61 -90 -150.5 -143.5t-185.5 -53.5z" />
    <glyph glyph-name="uni00A0" unicode="&#xa0;" horiz-adv-x="471" 
 />
    <glyph glyph-name="exclamdown" unicode="&#xa1;" horiz-adv-x="737" 
d="M231 -383l39 1008h197l39 -1008h-275zM236 791v260h266v-260h-266z" />
    <glyph glyph-name="cent" unicode="&#xa2;" horiz-adv-x="1187" 
d="M575 -213v209q-206 32 -326 174t-120 356q0 212 119.5 354.5t326.5 174.5v213h195v-201q33 -1 63.5 -5t51.5 -8.5t41.5 -10.5t30.5 -9.5t21.5 -8.5t12.5 -5v-199q-109 60 -254 60q-163 0 -256.5 -94.5t-93.5 -260.5q0 -171 96.5 -263.5t257.5 -92.5q130 0 252 59v-200
q-100 -40 -223 -45v-197h-195z" />
    <glyph glyph-name="sterling" unicode="&#xa3;" horiz-adv-x="1187" 
d="M113 0v221h170v457h-170v156h170v108q0 245 141 377.5t403 132.5q125 0 258 -37v-217q-106 47 -233 47q-161 0 -239 -74.5t-78 -228.5v-108h387v-156h-387v-457h540v-221h-962z" />
    <glyph glyph-name="currency" unicode="&#xa4;" horiz-adv-x="1187" 
d="M184 205l-106 106l115 115q-99 127 -99 295t99 295l-115 110l106 109l113 -111q133 97 297 97q160 0 299 -97l111 111l106 -109l-111 -110q95 -129 95 -295q0 -165 -95 -295l111 -115l-106 -106l-111 114q-130 -98 -299 -98q-167 0 -297 98zM594 418q125 0 209 88.5
t84 214.5q0 123 -84.5 212t-208.5 89q-121 0 -207 -88t-86 -213q0 -127 86 -215t207 -88z" />
    <glyph glyph-name="yen" unicode="&#xa5;" horiz-adv-x="1187" 
d="M184 565v156h199l-391 713h284l320 -627l315 627h285l-391 -713h203v-156h-283v-116h283v-156h-283v-293h-258v293h-283v156h283v116h-283z" />
    <glyph glyph-name="brokenbar" unicode="&#xa6;" horiz-adv-x="532" 
d="M152 821v723h229v-723h-229zM152 -283v744h229v-744h-229z" />
    <glyph glyph-name="section" unicode="&#xa7;" horiz-adv-x="1126" 
d="M502 -256q-145 0 -350 53l18 203q203 -66 328 -66q117 0 179 40t62 104q0 33 -21 61.5t-56 50t-81 42t-96.5 41t-101 43t-96.5 52t-81 64.5t-56 84t-21 107q0 169 158 256q-148 95 -148 247q0 107 65.5 183.5t168 111.5t229.5 35q128 0 305 -43l-18 -201q-134 52 -275 52
q-97 0 -163 -32.5t-66 -98.5q0 -43 34 -77.5t88 -58.5t119.5 -48t131 -54t119.5 -67.5t88 -97.5t34 -136q0 -154 -153 -260q137 -91 137 -242q0 -90 -40 -159t-109.5 -109t-153 -60t-178.5 -20zM346 670q0 -31 10 -57t32 -47.5t44.5 -38t60 -34t65 -29t74 -29.5t73.5 -29
q36 31 56.5 74.5t20.5 82.5q0 32 -16 59.5t-39 46.5t-64 40t-73.5 33.5t-87 33.5t-86.5 35q-70 -54 -70 -141z" />
    <glyph glyph-name="dieresis" unicode="&#xa8;" 
d="M502 1262v225h223v-225h-223zM94 1262v225h223v-225h-223z" />
    <glyph glyph-name="copyright" unicode="&#xa9;" horiz-adv-x="1802" 
d="M936 305q-81 0 -149 23t-115.5 62.5t-80 92.5t-48 113.5t-15.5 126.5q0 182 110 294.5t288 112.5q107 0 207 -34v-150q-78 41 -187 41q-112 0 -175.5 -74t-63.5 -192q0 -128 68 -200t173 -72q110 0 189 43v-146q-94 -41 -201 -41zM901 -20q-153 0 -289.5 57.5
t-234.5 155.5t-155.5 234.5t-57.5 289.5t57.5 289.5t155.5 234.5t234.5 155.5t289.5 57.5t289.5 -57.5t234.5 -155.5t155.5 -234.5t57.5 -289.5t-57.5 -289.5t-155.5 -234.5t-234.5 -155.5t-289.5 -57.5zM899 131q160 0 294.5 78t213 213t78.5 295t-78 295.5t-212.5 214
t-293.5 78.5q-158 0 -292 -78.5t-212 -214t-78 -295.5t77.5 -295t211 -213t291.5 -78z" />
    <glyph glyph-name="ordfeminine" unicode="&#xaa;" 
d="M301 549q-108 0 -181 69.5t-73 198.5q-1 162 106 228.5t308 66.5h53v45q0 117 -149 117q-91 0 -252 -43v178q127 45 284 45q154 0 239 -81t85 -265v-539h-205v88h-4q-82 -108 -211 -108zM375 721q69 0 104 48.5t35 125.5v82h-55q-195 0 -195 -139q0 -60 31 -88.5
t80 -28.5z" />
    <glyph glyph-name="guillemotleft" unicode="&#xab;" horiz-adv-x="1136" 
d="M803 199l-277 413l277 416h217l-254 -416l254 -413h-217zM369 199l-279 413l279 416h217l-254 -416l254 -413h-217z" />
    <glyph glyph-name="logicalnot" unicode="&#xac;" horiz-adv-x="1187" 
d="M872 344v414h-796v219h1016v-633h-220z" />
    <glyph glyph-name="uni00AD" unicode="&#xad;" 
d="M111 502v225h600v-225h-600z" />
    <glyph glyph-name="registered" unicode="&#xae;" horiz-adv-x="1802" 
d="M901 -20q-153 0 -289.5 57.5t-234.5 155.5t-155.5 234.5t-57.5 289.5t57.5 289.5t155.5 234.5t234.5 155.5t289.5 57.5t289.5 -57.5t234.5 -155.5t155.5 -234.5t57.5 -289.5t-57.5 -289.5t-155.5 -234.5t-234.5 -155.5t-289.5 -57.5zM899 129q159 0 293.5 78.5t213.5 214
t79 295.5t-78 295.5t-212.5 214t-293.5 78.5q-158 0 -292 -78.5t-212 -214t-78 -295.5q0 -161 77 -296t210.5 -213.5t292.5 -78.5zM629 309v813h262q309 0 309 -258q0 -164 -127 -225l150 -330h-170l-121 299h-31h-113v-299h-159zM788 735h103q151 0 151 129q0 125 -151 125
h-103v-254z" />
    <glyph glyph-name="macron" unicode="&#xaf;" 
d="M88 1323v150h645v-150h-645z" />
    <glyph glyph-name="degree" unicode="&#xb0;" horiz-adv-x="778" 
d="M389 864q-129 2 -211 84t-84 211q2 129 84 211t211 84q129 -2 211 -84t84 -211q-2 -129 -84 -211t-211 -84zM389 1010q63 0 104.5 42.5t41.5 106.5q0 66 -41.5 109t-104.5 43q-62 0 -103.5 -43t-41.5 -109q0 -64 41.5 -106.5t103.5 -42.5z" />
    <glyph glyph-name="plusminus" unicode="&#xb1;" horiz-adv-x="1187" 
d="M485 492v311h-409v217h409v311h217v-311h410v-217h-410v-311h-217zM76 168v217h1036v-217h-1036z" />
    <glyph glyph-name="twosuperior" unicode="&#xb2;" 
d="M92 578v161q74 56 114.5 87.5t95.5 77t84 76t58.5 68t41.5 70.5t12 66q0 50 -35 81t-109 31q-118 0 -225 -57v166q128 49 266 49q158 0 239 -69.5t81 -180.5q0 -112 -89 -221t-274 -242h371v-163h-631z" />
    <glyph glyph-name="threesuperior" unicode="&#xb3;" 
d="M324 559q-122 0 -252 33v174q37 -18 107.5 -30.5t133.5 -12.5q49 0 90.5 7t76.5 31.5t34 63.5q0 58 -63.5 87.5t-137.5 29.5h-102v154h98q73 0 134 29t61 79q0 25 -18 42.5t-48.5 26t-59.5 12t-61 3.5q-106 0 -215 -37v164q106 39 269 39q68 0 127.5 -12t109.5 -38
t78.5 -71t28.5 -106q0 -83 -55 -133.5t-140 -65.5v-4q207 -31 207 -207q0 -72 -34 -124.5t-93.5 -80.5t-127.5 -40.5t-148 -12.5z" />
    <glyph glyph-name="acute" unicode="&#xb4;" 
d="M313 1237l150 285h285l-252 -285h-183z" />
    <glyph glyph-name="uni00B5" unicode="&#xb5;" horiz-adv-x="1228" 
d="M154 -451v1506h252v-551q0 -166 46 -237.5t136 -71.5q111 0 173 94t62 276v490h252v-1055h-241v168h-5q-100 -182 -288 -182q-65 0 -133 30l-2 -2v-465h-252z" />
    <glyph glyph-name="paragraph" unicode="&#xb6;" horiz-adv-x="1372" 
d="M434 -287v1004h-35q-144 0 -241 104.5t-97 253.5q0 150 97 254.5t241 104.5h801v-1721h-252v1522h-262v-1522h-252z" />
    <glyph glyph-name="periodcentered" unicode="&#xb7;" horiz-adv-x="573" 
d="M154 600v260h266v-260h-266z" />
    <glyph glyph-name="cedilla" unicode="&#xb8;" 
d="M385 -397q-83 0 -149 51l43 88q50 -31 88 -31q36 0 60 18.5t24 53.5q0 33 -25 50t-66 17q-28 0 -55 -6l31 174h115l-15 -81q152 -3 152 -150q0 -82 -57 -133t-146 -51z" />
    <glyph glyph-name="onesuperior" unicode="&#xb9;" 
d="M137 741h211v473l-155 -102l-93 133l260 189h181v-693h184v-163h-588v163z" />
    <glyph glyph-name="ordmasculine" unicode="&#xba;" 
d="M395 559q-172 0 -264 116t-94 333q1 217 93.5 331.5t264.5 114.5t265 -115t94 -331q-1 -217 -94 -333t-265 -116zM395 731q69 0 106.5 71.5t37.5 205.5q0 131 -37.5 201.5t-106.5 72.5q-69 -2 -106 -72t-37 -202q0 -135 37 -206t106 -71z" />
    <glyph glyph-name="guillemotright" unicode="&#xbb;" horiz-adv-x="1136" 
d="M610 612l-276 -413h-217l254 413l-254 416h217zM1047 612l-279 -413h-217l254 413l-254 416h217z" />
    <glyph glyph-name="onequarter" unicode="&#xbc;" horiz-adv-x="1843" 
d="M348 578v636l-155 -102l-93 133l260 189h181v-856h-193zM1475 -4v160h-422v153l360 551h256v-541h103v-163h-103v-160h-194zM1235 319h240v363h-5zM350 0l998 1434h182l-998 -1434h-182z" />
    <glyph glyph-name="onehalf" unicode="&#xbd;" horiz-adv-x="1843" 
d="M1161 0v162q75 57 114.5 87.5t95 76.5t84 76t58.5 67.5t42 70.5t12 66q0 50 -35 81.5t-109 31.5q-118 0 -225 -57v165q130 50 266 50q158 0 239 -69.5t81 -180.5q0 -112 -89 -221t-274 -242h371v-164h-631zM309 0l998 1434h182l-997 -1434h-183zM348 578v636l-155 -102
l-93 133l260 189h181v-856h-193z" />
    <glyph glyph-name="threequarters" unicode="&#xbe;" horiz-adv-x="1843" 
d="M324 559q-122 0 -252 33v174q37 -18 107.5 -30.5t133.5 -12.5q49 0 90.5 7t76.5 31.5t34 63.5q0 58 -63.5 87.5t-137.5 29.5h-102v154h98q73 0 134 29t61 79q0 25 -18 42.5t-48.5 26t-59.5 12t-61 3.5q-106 0 -215 -37v164q106 39 269 39q68 0 127.5 -12t109.5 -38
t78.5 -71t28.5 -106q0 -83 -55 -133.5t-140 -65.5v-4q207 -31 207 -207q0 -72 -34 -124.5t-93.5 -80.5t-127.5 -40.5t-148 -12.5zM1475 -10v160h-422v153l360 551h256v-541h103v-163h-103v-160h-194zM1235 313h240v363h-5zM403 0l998 1434h182l-997 -1434h-183z" />
    <glyph glyph-name="questiondown" unicode="&#xbf;" horiz-adv-x="1024" 
d="M625 627v-29q0 -69 -19.5 -131t-48.5 -106t-63.5 -91t-63.5 -86t-48.5 -90t-19.5 -104q0 -88 56.5 -135.5t161.5 -47.5q163 0 290 74v-219q-149 -63 -333 -63q-212 0 -332.5 93.5t-120.5 260.5q0 61 17 115.5t44 97.5t60.5 83.5t67 80t61.5 79.5t46.5 90t20.5 105v23h224
zM645 1053v-260h-264v260h264z" />
    <glyph glyph-name="Agrave" unicode="&#xc0;" horiz-adv-x="1413" 
d="M25 0l536 1434h291l537 -1434h-287l-113 328h-577l-113 -328h-274zM700 1155l-215 -614h430l-210 614h-5zM627 1530l-236 262h283l133 -262h-180z" />
    <glyph glyph-name="Aacute" unicode="&#xc1;" horiz-adv-x="1413" 
d="M25 0l536 1434h291l537 -1434h-287l-113 328h-577l-113 -328h-274zM700 1155l-215 -614h430l-210 614h-5zM606 1530l139 262h287l-233 -262h-193z" />
    <glyph glyph-name="Acircumflex" unicode="&#xc2;" horiz-adv-x="1413" 
d="M25 0l536 1434h291l537 -1434h-287l-113 328h-577l-113 -328h-274zM700 1155l-215 -614h430l-210 614h-5zM354 1530l221 258h263l221 -258h-223l-129 156l-129 -156h-224z" />
    <glyph glyph-name="Atilde" unicode="&#xc3;" horiz-adv-x="1413" 
d="M25 0l536 1434h291l537 -1434h-287l-113 328h-577l-113 -328h-274zM700 1155l-215 -614h430l-210 614h-5zM338 1528q6 101 64 171t153 70q53 0 159 -44t148 -44q67 0 84 88h129q-10 -109 -63 -175t-148 -66q-50 0 -159 43t-152 43q-42 0 -59.5 -21.5t-26.5 -64.5h-129z
" />
    <glyph glyph-name="Adieresis" unicode="&#xc4;" horiz-adv-x="1413" 
d="M25 0l536 1434h291l537 -1434h-287l-113 328h-577l-113 -328h-274zM700 1155l-215 -614h430l-210 614h-5zM358 1530v229h244v-229h-244zM811 1530v229h246v-229h-246z" />
    <glyph glyph-name="Aring" unicode="&#xc5;" horiz-adv-x="1413" 
d="M25 0l536 1434h291l537 -1434h-287l-113 328h-577l-113 -328h-274zM700 1155l-215 -614h430l-210 614h-5zM707 1462q-91 0 -153 62t-62 151t62 151t153 62t153 -62t62 -151t-62 -151t-153 -62zM707 1554q51 0 84.5 35t33.5 86t-33.5 86t-84.5 35t-85 -35t-34 -86t34 -86
t85 -35z" />
    <glyph glyph-name="AE" unicode="&#xc6;" horiz-adv-x="1832" 
d="M-27 0l826 1434h930v-222h-537l18 -368h476v-221h-463l20 -402h488v-221h-736l-16 326h-533l-184 -326h-289zM932 1186l-367 -647h404l-33 647h-4z" />
    <glyph glyph-name="Ccedilla" unicode="&#xc7;" horiz-adv-x="1290" 
d="M739 -455q-88 0 -168 58l50 100q57 -33 98 -33q40 0 67 21t27 59q0 78 -100 78q-35 0 -62 -6l31 172q-282 45 -435 237.5t-153 485.5q0 341 206.5 539t549.5 198q86 0 171 -14t127 -28l42 -15v-234q-182 66 -330 66q-225 0 -358 -135.5t-133 -378.5t134.5 -376.5
t362.5 -133.5q160 0 324 53v-233q-167 -45 -332 -45q-35 0 -51 2l-8 -56q84 -3 128 -46t44 -124q0 -92 -65.5 -151.5t-166.5 -59.5z" />
    <glyph glyph-name="Egrave" unicode="&#xc8;" horiz-adv-x="1105" 
d="M172 0v1434h827v-222h-565v-362h531v-221h-531v-408h570v-221h-832zM512 1530l-236 262h283l133 -262h-180z" />
    <glyph glyph-name="Eacute" unicode="&#xc9;" horiz-adv-x="1105" 
d="M172 0v1434h827v-222h-565v-362h531v-221h-531v-408h570v-221h-832zM492 1530l139 262h287l-234 -262h-192z" />
    <glyph glyph-name="Ecircumflex" unicode="&#xca;" horiz-adv-x="1105" 
d="M172 0v1434h827v-222h-565v-362h531v-221h-531v-408h570v-221h-832zM240 1530l221 258h262l221 -258h-223l-129 156l-129 -156h-223z" />
    <glyph glyph-name="Edieresis" unicode="&#xcb;" horiz-adv-x="1105" 
d="M172 0v1434h827v-222h-565v-362h531v-221h-531v-408h570v-221h-832zM244 1530v229h243v-229h-243zM696 1530v229h246v-229h-246z" />
    <glyph glyph-name="Igrave" unicode="&#xcc;" horiz-adv-x="634" 
d="M186 0v1434h263v-1434h-263zM238 1530l-236 262h283l133 -262h-180z" />
    <glyph glyph-name="Iacute" unicode="&#xcd;" horiz-adv-x="634" 
d="M186 0v1434h263v-1434h-263zM217 1530l139 262h287l-233 -262h-193z" />
    <glyph glyph-name="Icircumflex" unicode="&#xce;" horiz-adv-x="634" 
d="M186 0v1434h263v-1434h-263zM12 1530l174 262h263l174 -262h-211l-95 149l-94 -149h-211z" />
    <glyph glyph-name="Idieresis" unicode="&#xcf;" horiz-adv-x="634" 
d="M186 0v1434h263v-1434h-263zM18 1530v229h236v-229h-236zM381 1530v229h235v-229h-235z" />
    <glyph glyph-name="Eth" unicode="&#xd0;" horiz-adv-x="1474" 
d="M172 0v664h-129v153h129v617h490q331 0 524.5 -187.5t193.5 -529.5q0 -351 -191.5 -534t-526.5 -183h-490zM434 221h228q217 0 330.5 124t113.5 357q0 237 -114.5 373.5t-311.5 136.5h-246v-395h361v-153h-361v-443z" />
    <glyph glyph-name="Ntilde" unicode="&#xd1;" horiz-adv-x="1495" 
d="M172 0v1434h334l557 -1069h4l-6 157v912h262v-1434h-326l-563 1079h-4l4 -143v-936h-262zM403 1528q6 101 64.5 171t153.5 70q53 0 159 -44t148 -44q67 0 84 88h129q-10 -109 -63 -175t-148 -66q-50 0 -159.5 43t-152.5 43q-42 0 -59.5 -21.5t-26.5 -64.5h-129z" />
    <glyph glyph-name="Ograve" unicode="&#xd2;" horiz-adv-x="1536" 
d="M768 -20q-210 0 -363.5 93t-232 259t-78.5 385q0 335 180 536t494 201q211 0 364.5 -93.5t231.5 -259t78 -384.5q0 -222 -79.5 -388t-232.5 -257.5t-362 -91.5zM768 205q96 0 173 40.5t126 111t74.5 162.5t25.5 198q0 146 -44.5 260t-136.5 183t-218 69q-96 0 -173 -40.5
t-126 -111t-74.5 -162.5t-25.5 -198q0 -145 44 -259t136 -183.5t219 -69.5zM688 1530l-235 262h282l133 -262h-180z" />
    <glyph glyph-name="Oacute" unicode="&#xd3;" horiz-adv-x="1536" 
d="M768 -20q-210 0 -363.5 93t-232 259t-78.5 385q0 335 180 536t494 201q211 0 364.5 -93.5t231.5 -259t78 -384.5q0 -222 -79.5 -388t-232.5 -257.5t-362 -91.5zM768 205q96 0 173 40.5t126 111t74.5 162.5t25.5 198q0 146 -44.5 260t-136.5 183t-218 69q-96 0 -173 -40.5
t-126 -111t-74.5 -162.5t-25.5 -198q0 -145 44 -259t136 -183.5t219 -69.5zM668 1530l139 262h287l-234 -262h-192z" />
    <glyph glyph-name="Ocircumflex" unicode="&#xd4;" horiz-adv-x="1536" 
d="M768 -20q-210 0 -363.5 93t-232 259t-78.5 385q0 335 180 536t494 201q211 0 364.5 -93.5t231.5 -259t78 -384.5q0 -222 -79.5 -388t-232.5 -257.5t-362 -91.5zM768 205q96 0 173 40.5t126 111t74.5 162.5t25.5 198q0 146 -44.5 260t-136.5 183t-218 69q-96 0 -173 -40.5
t-126 -111t-74.5 -162.5t-25.5 -198q0 -145 44 -259t136 -183.5t219 -69.5zM416 1530l221 258h262l221 -258h-223l-129 156l-129 -156h-223z" />
    <glyph glyph-name="Otilde" unicode="&#xd5;" horiz-adv-x="1536" 
d="M768 -20q-210 0 -363.5 93t-232 259t-78.5 385q0 335 180 536t494 201q211 0 364.5 -93.5t231.5 -259t78 -384.5q0 -222 -79.5 -388t-232.5 -257.5t-362 -91.5zM768 205q96 0 173 40.5t126 111t74.5 162.5t25.5 198q0 146 -44.5 260t-136.5 183t-218 69q-96 0 -173 -40.5
t-126 -111t-74.5 -162.5t-25.5 -198q0 -145 44 -259t136 -183.5t219 -69.5zM399 1528q6 101 64 171t153 70q53 0 159.5 -44t148.5 -44q67 0 84 88h129q-10 -109 -63 -175t-148 -66q-50 0 -159.5 43t-152.5 43q-42 0 -59.5 -21.5t-26.5 -64.5h-129z" />
    <glyph glyph-name="Odieresis" unicode="&#xd6;" horiz-adv-x="1536" 
d="M768 -20q-210 0 -363.5 93t-232 259t-78.5 385q0 335 180 536t494 201q211 0 364.5 -93.5t231.5 -259t78 -384.5q0 -222 -79.5 -388t-232.5 -257.5t-362 -91.5zM768 205q96 0 173 40.5t126 111t74.5 162.5t25.5 198q0 146 -44.5 260t-136.5 183t-218 69q-96 0 -173 -40.5
t-126 -111t-74.5 -162.5t-25.5 -198q0 -145 44 -259t136 -183.5t219 -69.5zM420 1530v229h244v-229h-244zM872 1530v229h246v-229h-246z" />
    <glyph glyph-name="multiply" unicode="&#xd7;" horiz-adv-x="1187" 
d="M248 221l-150 150l344 346l-344 342l154 153l342 -346l346 346l150 -149l-347 -346l347 -342l-154 -154l-342 346z" />
    <glyph glyph-name="Oslash" unicode="&#xd8;" horiz-adv-x="1536" 
d="M768 -20q-258 0 -428 137l-170 -195l-104 90l176 205q-148 196 -148 500q0 335 180 536t494 201q256 0 426 -137l170 194l106 -92l-178 -205q150 -194 150 -497q0 -222 -79.5 -388t-232.5 -257.5t-362 -91.5zM768 205q96 0 173 40.5t126 111t74.5 162.5t25.5 198
q0 161 -57 287l-604 -695q104 -104 262 -104zM369 717q0 -169 57 -289l602 696q-105 105 -260 105q-96 0 -173 -40.5t-126 -111t-74.5 -162.5t-25.5 -198z" />
    <glyph glyph-name="Ugrave" unicode="&#xd9;" horiz-adv-x="1474" 
d="M737 -20q-271 0 -420 151.5t-149 446.5v856h262v-824q0 -209 74.5 -307t232.5 -98q159 0 233 98.5t74 306.5v824h263v-856q0 -295 -150 -446.5t-420 -151.5zM657 1530l-235 262h283l133 -262h-181z" />
    <glyph glyph-name="Uacute" unicode="&#xda;" horiz-adv-x="1474" 
d="M737 -20q-271 0 -420 151.5t-149 446.5v856h262v-824q0 -209 74.5 -307t232.5 -98q159 0 233 98.5t74 306.5v824h263v-856q0 -295 -150 -446.5t-420 -151.5zM637 1530l139 262h287l-234 -262h-192z" />
    <glyph glyph-name="Ucircumflex" unicode="&#xdb;" horiz-adv-x="1474" 
d="M737 -20q-271 0 -420 151.5t-149 446.5v856h262v-824q0 -209 74.5 -307t232.5 -98q159 0 233 98.5t74 306.5v824h263v-856q0 -295 -150 -446.5t-420 -151.5zM385 1530l221 258h262l222 -258h-224l-129 156l-129 -156h-223z" />
    <glyph glyph-name="Udieresis" unicode="&#xdc;" horiz-adv-x="1474" 
d="M737 -20q-271 0 -420 151.5t-149 446.5v856h262v-824q0 -209 74.5 -307t232.5 -98q159 0 233 98.5t74 306.5v824h263v-856q0 -295 -150 -446.5t-420 -151.5zM389 1530v229h244v-229h-244zM842 1530v229h245v-229h-245z" />
    <glyph glyph-name="Yacute" unicode="&#xdd;" horiz-adv-x="1331" 
d="M16 1434h301l347 -635h8l346 635h299l-520 -899v-535h-262v541zM565 1530l140 262h286l-233 -262h-193z" />
    <glyph glyph-name="Thorn" unicode="&#xde;" horiz-adv-x="1228" 
d="M172 0v1434h262v-220h197q279 0 411 -120.5t132 -360.5q0 -481 -535 -481h-205v-252h-262zM434 473h199q139 0 204.5 65t65.5 201q0 130 -65 192t-205 62h-199v-520z" />
    <glyph glyph-name="germandbls" unicode="&#xdf;" horiz-adv-x="1280" 
d="M731 -18q-104 0 -184 16v199q67 -19 145 -19q120 0 189 69t69 206q0 260 -288 260h-48v184h27q120 0 184 61.5t64 178.5q0 108 -62.5 165.5t-169.5 57.5q-62 0 -108 -20.5t-72.5 -52.5t-43 -79t-22 -92.5t-5.5 -101.5v-1014h-252v983q0 578 510 578q99 0 184.5 -25
t152.5 -74t105.5 -128t38.5 -179q0 -126 -64.5 -211t-187.5 -125v-4q148 -24 229.5 -127t81.5 -256q0 -198 -123.5 -324t-349.5 -126z" />
    <glyph glyph-name="agrave" unicode="&#xe0;" horiz-adv-x="1142" 
d="M418 -18q-156 0 -252 84.5t-96 234.5q0 180 137 267t393 87h168v29q0 98 -70 143t-188 45q-173 0 -342 -73v211q176 63 379 63q224 0 347.5 -101.5t123.5 -316.5v-655h-246l2 162h-4q-57 -90 -151.5 -135t-200.5 -45zM496 170q116 0 194 80t78 188v58h-152
q-146 0 -215 -48.5t-69 -132.5q0 -70 45 -107.5t119 -37.5zM483 1237l-231 285h287l137 -285h-193z" />
    <glyph glyph-name="aacute" unicode="&#xe1;" horiz-adv-x="1142" 
d="M418 -18q-156 0 -252 84.5t-96 234.5q0 180 137 267t393 87h168v29q0 98 -70 143t-188 45q-173 0 -342 -73v211q176 63 379 63q224 0 347.5 -101.5t123.5 -316.5v-655h-246l2 162h-4q-57 -90 -151.5 -135t-200.5 -45zM496 170q116 0 194 80t78 188v58h-152
q-146 0 -215 -48.5t-69 -132.5q0 -70 45 -107.5t119 -37.5zM477 1237l150 285h284l-252 -285h-182z" />
    <glyph glyph-name="acircumflex" unicode="&#xe2;" horiz-adv-x="1142" 
d="M418 -18q-156 0 -252 84.5t-96 234.5q0 180 137 267t393 87h168v29q0 98 -70 143t-188 45q-173 0 -342 -73v211q176 63 379 63q224 0 347.5 -101.5t123.5 -316.5v-655h-246l2 162h-4q-57 -90 -151.5 -135t-200.5 -45zM496 170q116 0 194 80t78 188v58h-152
q-146 0 -215 -48.5t-69 -132.5q0 -70 45 -107.5t119 -37.5zM248 1237l213 285h229l209 -285h-184l-142 184l-141 -184h-184z" />
    <glyph glyph-name="atilde" unicode="&#xe3;" horiz-adv-x="1142" 
d="M418 -18q-156 0 -252 84.5t-96 234.5q0 180 137 267t393 87h168v29q0 98 -70 143t-188 45q-173 0 -342 -73v211q176 63 379 63q224 0 347.5 -101.5t123.5 -316.5v-655h-246l2 162h-4q-57 -90 -151.5 -135t-200.5 -45zM496 170q116 0 194 80t78 188v58h-152
q-146 0 -215 -48.5t-69 -132.5q0 -70 45 -107.5t119 -37.5zM223 1255q8 106 59.5 177t143.5 71q33 0 66 -9.5t98 -37.5q6 -3 27.5 -12t34.5 -14t33.5 -10t39.5 -5q71 0 84 88h117q-12 -109 -62.5 -178.5t-142.5 -69.5q-44 0 -160 48q-6 2 -26 10.5t-29 12t-25 8.5t-30 7
t-29 2q-72 0 -84 -88h-115z" />
    <glyph glyph-name="adieresis" unicode="&#xe4;" horiz-adv-x="1142" 
d="M418 -18q-156 0 -252 84.5t-96 234.5q0 180 137 267t393 87h168v29q0 98 -70 143t-188 45q-173 0 -342 -73v211q176 63 379 63q224 0 347.5 -101.5t123.5 -316.5v-655h-246l2 162h-4q-57 -90 -151.5 -135t-200.5 -45zM496 170q116 0 194 80t78 188v58h-152
q-146 0 -215 -48.5t-69 -132.5q0 -70 45 -107.5t119 -37.5zM666 1262v225h223v-225h-223zM258 1262v225h223v-225h-223z" />
    <glyph glyph-name="aring" unicode="&#xe5;" horiz-adv-x="1142" 
d="M418 -18q-156 0 -252 84.5t-96 234.5q0 180 137 267t393 87h168v29q0 98 -70 143t-188 45q-173 0 -342 -73v211q176 63 379 63q224 0 347.5 -101.5t123.5 -316.5v-655h-246l2 162h-4q-57 -90 -151.5 -135t-200.5 -45zM496 170q116 0 194 80t78 188v58h-152
q-146 0 -215 -48.5t-69 -132.5q0 -70 45 -107.5t119 -37.5zM573 1174q-91 0 -153 62t-62 153t62 153t153 62t153 -62t62 -153t-62 -153t-153 -62zM573 1270q49 0 84 35t35 84t-34.5 83.5t-84.5 34.5q-49 0 -83.5 -34.5t-34.5 -83.5q0 -50 34.5 -84.5t83.5 -34.5z" />
    <glyph glyph-name="ae" unicode="&#xe6;" horiz-adv-x="1812" 
d="M547 1073q262 0 381 -147h4q126 147 334 147q215 0 332.5 -141t117.5 -402v-55h-698q17 -145 99.5 -221t221.5 -76q140 0 308 64v-209q-168 -51 -320 -51q-321 0 -455 231h-4q-78 -117 -192 -174t-242 -57q-164 0 -264 84t-100 235q0 336 546 336h166v47
q0 97 -74.5 143.5t-193.5 46.5q-169 0 -338 -73v207q165 65 371 65zM508 168q115 0 194.5 76t79.5 192v39h-147q-311 0 -311 -164q0 -67 51 -105t133 -38zM1255 879q-96 0 -156.5 -64.5t-78.5 -177.5h444q3 111 -55.5 176.5t-153.5 65.5z" />
    <glyph glyph-name="ccedilla" unicode="&#xe7;" horiz-adv-x="993" 
d="M532 -397q-83 0 -149 51l43 88q50 -31 88 -31q36 0 60 18.5t24 53.5q0 33 -24.5 50t-65.5 17q-28 0 -55 -6l26 154q-184 41 -286.5 180.5t-102.5 347.5q0 246 145 396.5t394 150.5q140 0 262 -39v-198q-1 0 -22 6.5t-37.5 10.5t-43.5 9.5t-57.5 8.5t-62.5 3
q-154 0 -235 -88t-81 -258q0 -173 85 -260.5t237 -87.5q101 0 219 41v-203q-1 0 -11.5 -3t-22 -6t-30 -7t-39.5 -7l-45.5 -6.5t-54 -5t-59.5 -1.5q-27 0 -39 2l-8 -47q151 -3 151 -150q0 -82 -57 -133t-146 -51z" />
    <glyph glyph-name="egrave" unicode="&#xe8;" horiz-adv-x="1177" 
d="M1081 463h-735q41 -281 332 -281q162 0 334 64v-215q-185 -49 -355 -49q-272 0 -419.5 148t-147.5 411q0 241 142.5 386.5t365.5 145.5q232 0 357.5 -142.5t125.5 -410.5v-57zM598 872q-103 0 -167.5 -66.5t-82.5 -178.5h481q3 114 -61 179.5t-170 65.5zM502 1237
l-232 285h287l137 -285h-192z" />
    <glyph glyph-name="eacute" unicode="&#xe9;" horiz-adv-x="1177" 
d="M1081 463h-735q41 -281 332 -281q162 0 334 64v-215q-185 -49 -355 -49q-272 0 -419.5 148t-147.5 411q0 241 142.5 386.5t365.5 145.5q232 0 357.5 -142.5t125.5 -410.5v-57zM598 872q-103 0 -167.5 -66.5t-82.5 -178.5h481q3 114 -61 179.5t-170 65.5zM496 1237
l149 285h285l-252 -285h-182z" />
    <glyph glyph-name="ecircumflex" unicode="&#xea;" horiz-adv-x="1177" 
d="M1081 463h-735q41 -281 332 -281q162 0 334 64v-215q-185 -49 -355 -49q-272 0 -419.5 148t-147.5 411q0 241 142.5 386.5t365.5 145.5q232 0 357.5 -142.5t125.5 -410.5v-57zM598 872q-103 0 -167.5 -66.5t-82.5 -178.5h481q3 114 -61 179.5t-170 65.5zM266 1237
l213 285h230l209 -285h-185l-141 184l-141 -184h-185z" />
    <glyph glyph-name="edieresis" unicode="&#xeb;" horiz-adv-x="1177" 
d="M1081 463h-735q41 -281 332 -281q162 0 334 64v-215q-185 -49 -355 -49q-272 0 -419.5 148t-147.5 411q0 241 142.5 386.5t365.5 145.5q232 0 357.5 -142.5t125.5 -410.5v-57zM598 872q-103 0 -167.5 -66.5t-82.5 -178.5h481q3 114 -61 179.5t-170 65.5zM684 1262v225
h223v-225h-223zM276 1262v225h224v-225h-224z" />
    <glyph glyph-name="igrave" unicode="&#xec;" horiz-adv-x="593" 
d="M172 0v1055h252v-1055h-252zM207 1237l-232 285h287l137 -285h-192z" />
    <glyph glyph-name="iacute" unicode="&#xed;" horiz-adv-x="593" 
d="M172 0v1055h252v-1055h-252zM201 1237l149 285h285l-252 -285h-182z" />
    <glyph glyph-name="icircumflex" unicode="&#xee;" horiz-adv-x="593" 
d="M172 0v1055h252v-1055h-252zM16 1237l168 285h230l164 -285h-183l-98 176l-96 -176h-185z" />
    <glyph glyph-name="idieresis" unicode="&#xef;" horiz-adv-x="593" 
d="M172 0v1055h252v-1055h-252zM348 1262v225h209v-225h-209zM37 1262v225h209v-225h-209z" />
    <glyph glyph-name="eth" unicode="&#xf0;" horiz-adv-x="1269" 
d="M625 -18q-238 0 -386.5 149t-148.5 395q0 149 58.5 271t169 194t251.5 72q247 0 375 -180h6v35q0 111 -83 220t-240 183l-60 -195l-112 33l61 205q-94 31 -209 49l47 197q118 -21 221 -51l58 188l112 -35l-59 -192q256 -107 375 -303.5t119 -487.5q0 -137 -17.5 -248
t-58 -205.5t-103.5 -158.5t-158 -99.5t-218 -35.5zM627 176q120 0 194 96.5t74 247.5q0 149 -73.5 248.5t-194.5 99.5q-125 0 -200 -99.5t-75 -246.5q0 -149 76 -247.5t199 -98.5z" />
    <glyph glyph-name="ntilde" unicode="&#xf1;" horiz-adv-x="1249" 
d="M154 0v1055h241v-160h4q59 84 147 131t199 47q181 0 280 -114.5t99 -331.5v-627h-252v553q0 165 -52 237t-154 72q-122 0 -191 -95t-69 -278v-489h-252zM272 1255q8 106 59.5 177t143.5 71q33 0 66 -9.5t98 -37.5q6 -3 27.5 -12t34.5 -14t33.5 -10t39.5 -5q71 0 84 88
h117q-12 -109 -62.5 -178.5t-142.5 -69.5q-44 0 -160 48q-6 2 -26 10.5t-29 12t-25 8.5t-30 7t-29 2q-72 0 -84 -88h-115z" />
    <glyph glyph-name="ograve" unicode="&#xf2;" horiz-adv-x="1269" 
d="M635 -18q-243 0 -394 149.5t-151 394.5t152 396t393 151q242 0 393.5 -151t151.5 -396q0 -246 -151 -395t-394 -149zM635 186q123 0 203 94t80 246t-80.5 247t-202.5 95q-123 0 -203 -95.5t-80 -246.5q0 -153 80.5 -246.5t202.5 -93.5zM545 1237l-232 285h287l137 -285
h-192z" />
    <glyph glyph-name="oacute" unicode="&#xf3;" horiz-adv-x="1269" 
d="M635 -18q-243 0 -394 149.5t-151 394.5t152 396t393 151q242 0 393.5 -151t151.5 -396q0 -246 -151 -395t-394 -149zM635 186q123 0 203 94t80 246t-80.5 247t-202.5 95q-123 0 -203 -95.5t-80 -246.5q0 -153 80.5 -246.5t202.5 -93.5zM539 1237l149 285h285l-252 -285
h-182z" />
    <glyph glyph-name="ocircumflex" unicode="&#xf4;" horiz-adv-x="1269" 
d="M635 -18q-243 0 -394 149.5t-151 394.5t152 396t393 151q242 0 393.5 -151t151.5 -396q0 -246 -151 -395t-394 -149zM635 186q123 0 203 94t80 246t-80.5 247t-202.5 95q-123 0 -203 -95.5t-80 -246.5q0 -153 80.5 -246.5t202.5 -93.5zM309 1237l213 285h230l209 -285
h-185l-141 184l-141 -184h-185z" />
    <glyph glyph-name="otilde" unicode="&#xf5;" horiz-adv-x="1269" 
d="M635 -18q-243 0 -394 149.5t-151 394.5t152 396t393 151q242 0 393.5 -151t151.5 -396q0 -246 -151 -395t-394 -149zM635 186q123 0 203 94t80 246t-80.5 247t-202.5 95q-123 0 -203 -95.5t-80 -246.5q0 -153 80.5 -246.5t202.5 -93.5zM285 1255q8 106 59 177t143 71
q33 0 66 -9.5t98 -37.5q6 -3 27.5 -12t34.5 -14t33.5 -10t39.5 -5q71 0 84 88h117q-12 -109 -62.5 -178.5t-142.5 -69.5q-29 0 -60 10t-99 38q-5 2 -26 10.5t-29.5 11.5t-25 8.5t-30.5 7.5t-29 2q-72 0 -84 -88h-114z" />
    <glyph glyph-name="odieresis" unicode="&#xf6;" horiz-adv-x="1269" 
d="M635 -18q-243 0 -394 149.5t-151 394.5t152 396t393 151q242 0 393.5 -151t151.5 -396q0 -246 -151 -395t-394 -149zM635 186q123 0 203 94t80 246t-80.5 247t-202.5 95q-123 0 -203 -95.5t-80 -246.5q0 -153 80.5 -246.5t202.5 -93.5zM727 1262v225h223v-225h-223z
M319 1262v225h224v-225h-224z" />
    <glyph glyph-name="divide" unicode="&#xf7;" horiz-adv-x="1187" 
d="M76 608v217h1036v-217h-1036zM598 129q-69 0 -119.5 50t-50.5 118q0 67 50 116.5t118 49.5q65 0 115.5 -49.5t50.5 -116.5q0 -66 -50 -117t-114 -51zM598 971q-70 0 -120 50.5t-50 115.5q0 67 50 117.5t118 50.5q65 0 115.5 -50.5t50.5 -117.5q0 -65 -50 -115.5
t-114 -50.5z" />
    <glyph glyph-name="oslash" unicode="&#xf8;" horiz-adv-x="1269" 
d="M635 -18q-181 0 -320 90l-129 -150l-88 78l127 147q-135 148 -135 379q0 245 152 396t393 151q178 0 317 -90l129 150l90 -78l-129 -148q138 -151 138 -381q0 -246 -151 -395t-394 -149zM635 186q123 0 203 94t80 246q0 103 -44 189l-407 -469q72 -60 168 -60zM352 526
q0 -109 41 -186l408 469q-75 59 -166 59q-123 0 -203 -95.5t-80 -246.5z" />
    <glyph glyph-name="ugrave" unicode="&#xf9;" horiz-adv-x="1249" 
d="M1096 1055v-1055h-242v158h-6q-130 -176 -338 -176q-182 0 -283.5 115t-101.5 331v627h252v-551q0 -165 52 -237t153 -72q124 0 193 93.5t69 276.5v490h252zM524 1237l-231 285h287l137 -285h-193z" />
    <glyph glyph-name="uacute" unicode="&#xfa;" horiz-adv-x="1249" 
d="M1096 1055v-1055h-242v158h-6q-130 -176 -338 -176q-182 0 -283.5 115t-101.5 331v627h252v-551q0 -165 52 -237t153 -72q124 0 193 93.5t69 276.5v490h252zM518 1237l150 285h284l-252 -285h-182z" />
    <glyph glyph-name="ucircumflex" unicode="&#xfb;" horiz-adv-x="1249" 
d="M1096 1055v-1055h-242v158h-6q-130 -176 -338 -176q-182 0 -283.5 115t-101.5 331v627h252v-551q0 -165 52 -237t153 -72q124 0 193 93.5t69 276.5v490h252zM289 1237l213 285h229l209 -285h-184l-142 184l-141 -184h-184z" />
    <glyph glyph-name="udieresis" unicode="&#xfc;" horiz-adv-x="1249" 
d="M1096 1055v-1055h-242v158h-6q-130 -176 -338 -176q-182 0 -283.5 115t-101.5 331v627h252v-551q0 -165 52 -237t153 -72q124 0 193 93.5t69 276.5v490h252zM707 1262v225h223v-225h-223zM299 1262v225h223v-225h-223z" />
    <glyph glyph-name="yacute" unicode="&#xfd;" horiz-adv-x="1126" 
d="M266 -459q-28 0 -53 2.5t-44.5 6t-27.5 4.5v202q64 -8 84 -8q77 0 122 39t75 125l10 33l-405 1110h276l258 -807h8l271 807h260l-412 -1102q-44 -117 -82.5 -190.5t-88 -126t-109.5 -74t-142 -21.5zM463 1237l149 285h285l-252 -285h-182z" />
    <glyph glyph-name="thorn" unicode="&#xfe;" horiz-adv-x="1290" 
d="M406 -451h-252v2001h252v-645h6q63 87 150.5 127.5t176.5 40.5q142 0 248 -72t159.5 -193t53.5 -273q0 -156 -56 -281t-163 -198.5t-246 -73.5q-111 0 -196 44.5t-133 110.5v-588zM668 176q122 0 196 98t74 263q0 153 -73 245t-193 92q-123 0 -198 -95t-75 -255
q0 -159 74 -253.5t195 -94.5z" />
    <glyph glyph-name="ydieresis" unicode="&#xff;" horiz-adv-x="1126" 
d="M266 -459q-28 0 -53 2.5t-44.5 6t-27.5 4.5v202q64 -8 84 -8q77 0 122 39t75 125l10 33l-405 1110h276l258 -807h8l271 807h260l-412 -1102q-44 -117 -82.5 -190.5t-88 -126t-109.5 -74t-142 -21.5zM651 1262v225h223v-225h-223zM244 1262v225h223v-225h-223z" />
    <glyph glyph-name="Amacron" unicode="&#x100;" horiz-adv-x="1413" 
d="M25 0l536 1434h291l537 -1434h-287l-113 328h-577l-113 -328h-274zM700 1155l-215 -614h430l-210 614h-5zM385 1581v152h645v-152h-645z" />
    <glyph glyph-name="amacron" unicode="&#x101;" horiz-adv-x="1142" 
d="M418 -18q-156 0 -252 84.5t-96 234.5q0 180 137 267t393 87h168v29q0 98 -70 143t-188 45q-173 0 -342 -73v211q176 63 379 63q224 0 347.5 -101.5t123.5 -316.5v-655h-246l2 162h-4q-57 -90 -151.5 -135t-200.5 -45zM496 170q116 0 194 80t78 188v58h-152
q-146 0 -215 -48.5t-69 -132.5q0 -70 45 -107.5t119 -37.5zM252 1323v150h645v-150h-645z" />
    <glyph glyph-name="Abreve" unicode="&#x102;" horiz-adv-x="1413" 
d="M25 0l536 1434h291l537 -1434h-287l-113 328h-577l-113 -328h-274zM700 1155l-215 -614h430l-210 614h-5zM707 1518q-139 0 -240 68t-129 202h168q29 -123 201 -123q168 0 202 123h166q-26 -134 -127.5 -202t-240.5 -68z" />
    <glyph glyph-name="abreve" unicode="&#x103;" horiz-adv-x="1142" 
d="M418 -18q-156 0 -252 84.5t-96 234.5q0 180 137 267t393 87h168v29q0 98 -70 143t-188 45q-173 0 -342 -73v211q176 63 379 63q224 0 347.5 -101.5t123.5 -316.5v-655h-246l2 162h-4q-57 -90 -151.5 -135t-200.5 -45zM496 170q116 0 194 80t78 188v58h-152
q-146 0 -215 -48.5t-69 -132.5q0 -70 45 -107.5t119 -37.5zM573 1217q-144 0 -235 82.5t-102 222.5h151q12 -67 57.5 -110.5t128.5 -43.5q84 0 129.5 44.5t57.5 109.5h151q-10 -141 -101.5 -223t-236.5 -82z" />
    <glyph glyph-name="Aogonek" unicode="&#x104;" horiz-adv-x="1413" 
d="M1208 -455q-105 0 -157 48t-52 133q0 147 211 274h-108l-113 328h-577l-113 -328h-274l536 1434h291l537 -1434q-121 -84 -167 -139t-46 -105q0 -38 21 -61t58 -23q59 0 97 23l30 -113q-80 -37 -174 -37zM700 1155l-215 -614h430l-210 614h-5z" />
    <glyph glyph-name="aogonek" unicode="&#x105;" horiz-adv-x="1142" 
d="M838 -455q-105 0 -157 48t-52 133q0 147 211 274h-68l2 162h-4q-57 -90 -151.5 -135t-200.5 -45q-156 0 -252 84.5t-96 234.5q0 180 137 267t393 87h168v29q0 98 -70 143t-188 45q-173 0 -342 -73v211q176 63 379 63q224 0 347.5 -101.5t123.5 -316.5v-655
q-121 -84 -167 -139t-46 -105q0 -38 21.5 -61t58.5 -23q58 0 96 23l31 -113q-80 -37 -174 -37zM496 170q116 0 194 80t78 188v58h-152q-146 0 -215 -48.5t-69 -132.5q0 -70 45 -107.5t119 -37.5z" />
    <glyph glyph-name="Cacute" unicode="&#x106;" horiz-adv-x="1290" 
d="M858 -20q-182 0 -326.5 53.5t-240.5 150.5t-146.5 232.5t-50.5 300.5q0 341 206.5 539t549.5 198q86 0 171 -14t127 -28l42 -15v-234q-182 66 -330 66q-225 0 -358 -135.5t-133 -378.5t134.5 -376.5t362.5 -133.5q160 0 324 53v-233q-167 -45 -332 -45zM684 1530l139 262
h287l-233 -262h-193z" />
    <glyph glyph-name="cacute" unicode="&#x107;" horiz-adv-x="993" 
d="M631 -18q-251 0 -396 147.5t-145 396.5q0 246 145 396.5t394 150.5q140 0 262 -39v-198q-1 0 -22 6.5t-37.5 10.5t-43.5 9.5t-57.5 8.5t-62.5 3q-154 0 -235 -88t-81 -258q0 -173 85 -260.5t237 -87.5q101 0 219 41v-203q-1 0 -11.5 -3t-22 -6t-30 -7t-39.5 -7
l-45.5 -6.5t-54 -5t-59.5 -1.5zM469 1237l149 285h285l-252 -285h-182z" />
    <glyph glyph-name="Ccircumflex" unicode="&#x108;" horiz-adv-x="1290" 
d="M858 -20q-182 0 -326.5 53.5t-240.5 150.5t-146.5 232.5t-50.5 300.5q0 341 206.5 539t549.5 198q86 0 171 -14t127 -28l42 -15v-234q-182 66 -330 66q-225 0 -358 -135.5t-133 -378.5t134.5 -376.5t362.5 -133.5q160 0 324 53v-233q-167 -45 -332 -45zM432 1530l221 258
h262l222 -258h-224l-129 156l-129 -156h-223z" />
    <glyph glyph-name="ccircumflex" unicode="&#x109;" horiz-adv-x="993" 
d="M631 -18q-251 0 -396 147.5t-145 396.5q0 246 145 396.5t394 150.5q140 0 262 -39v-198q-1 0 -22 6.5t-37.5 10.5t-43.5 9.5t-57.5 8.5t-62.5 3q-154 0 -235 -88t-81 -258q0 -173 85 -260.5t237 -87.5q101 0 219 41v-203q-1 0 -11.5 -3t-22 -6t-30 -7t-39.5 -7
l-45.5 -6.5t-54 -5t-59.5 -1.5zM240 1237l213 285h229l209 -285h-184l-142 184l-141 -184h-184z" />
    <glyph glyph-name="Cdotaccent" unicode="&#x10a;" horiz-adv-x="1290" 
d="M858 -20q-182 0 -326.5 53.5t-240.5 150.5t-146.5 232.5t-50.5 300.5q0 341 206.5 539t549.5 198q86 0 171 -14t127 -28l42 -15v-234q-182 66 -330 66q-225 0 -358 -135.5t-133 -378.5t134.5 -376.5t362.5 -133.5q160 0 324 53v-233q-167 -45 -332 -45zM657 1530v237h254
v-237h-254z" />
    <glyph glyph-name="cdotaccent" unicode="&#x10b;" horiz-adv-x="993" 
d="M631 -18q-251 0 -396 147.5t-145 396.5q0 246 145 396.5t394 150.5q140 0 262 -39v-198q-1 0 -22 6.5t-37.5 10.5t-43.5 9.5t-57.5 8.5t-62.5 3q-154 0 -235 -88t-81 -258q0 -173 85 -260.5t237 -87.5q101 0 219 41v-203q-1 0 -11.5 -3t-22 -6t-30 -7t-39.5 -7
l-45.5 -6.5t-54 -5t-59.5 -1.5zM432 1251v236h266v-236h-266z" />
    <glyph glyph-name="Ccaron" unicode="&#x10c;" horiz-adv-x="1290" 
d="M858 -20q-182 0 -326.5 53.5t-240.5 150.5t-146.5 232.5t-50.5 300.5q0 341 206.5 539t549.5 198q86 0 171 -14t127 -28l42 -15v-234q-182 66 -330 66q-225 0 -358 -135.5t-133 -378.5t134.5 -376.5t362.5 -133.5q160 0 324 53v-233q-167 -45 -332 -45zM653 1530
l-221 258h232l120 -166l121 166h232l-222 -258h-262z" />
    <glyph glyph-name="ccaron" unicode="&#x10d;" horiz-adv-x="993" 
d="M631 -18q-251 0 -396 147.5t-145 396.5q0 246 145 396.5t394 150.5q140 0 262 -39v-198q-1 0 -22 6.5t-37.5 10.5t-43.5 9.5t-57.5 8.5t-62.5 3q-154 0 -235 -88t-81 -258q0 -173 85 -260.5t237 -87.5q101 0 219 41v-203q-1 0 -11.5 -3t-22 -6t-30 -7t-39.5 -7
l-45.5 -6.5t-54 -5t-59.5 -1.5zM449 1237l-209 285h186l139 -183l137 183h189l-213 -285h-229z" />
    <glyph glyph-name="Dcaron" unicode="&#x10e;" horiz-adv-x="1474" 
d="M172 0v1434h490q331 0 524.5 -187.5t193.5 -529.5q0 -351 -191.5 -534t-526.5 -183h-490zM434 221h228q217 0 330.5 124t113.5 357q0 237 -114.5 373.5t-311.5 136.5h-246v-991zM606 1530l-221 258h231l121 -166l121 166h232l-222 -258h-262z" />
    <glyph glyph-name="dcaron" unicode="&#x10f;" horiz-adv-x="1310" 
d="M567 -18q-145 0 -254.5 73.5t-166 199t-56.5 282.5q0 146 56 267t165 195t250 74q195 0 324 -147v624h252v-1550h-238v160q-119 -178 -332 -178zM623 176q118 0 193 97t75 251t-77 252t-196 98q-116 0 -191 -96.5t-75 -249.5q0 -154 76.5 -253t194.5 -99zM1210 1196
l86 358h242l-154 -358h-174z" />
    <glyph glyph-name="Dcroat" unicode="&#x110;" horiz-adv-x="1474" 
d="M172 0v664h-129v153h129v617h490q331 0 524.5 -187.5t193.5 -529.5q0 -351 -191.5 -534t-526.5 -183h-490zM434 221h228q217 0 330.5 124t113.5 357q0 237 -114.5 373.5t-311.5 136.5h-246v-395h361v-153h-361v-443z" />
    <glyph glyph-name="dcroat" unicode="&#x111;" horiz-adv-x="1290" 
d="M553 1239v154h332v157h252v-157h172v-154h-172v-1239h-238v160q-119 -178 -332 -178q-145 0 -254.5 73.5t-166 199t-56.5 282.5q0 146 56 267t165 195t250 74q195 0 324 -147v313h-332zM623 176q118 0 193 97t75 251t-77 252t-196 98q-116 0 -191 -96.5t-75 -249.5
q0 -154 76.5 -253t194.5 -99z" />
    <glyph glyph-name="Emacron" unicode="&#x112;" horiz-adv-x="1105" 
d="M172 0v1434h827v-222h-565v-362h531v-221h-531v-408h570v-221h-832zM270 1581v152h645v-152h-645z" />
    <glyph glyph-name="emacron" unicode="&#x113;" horiz-adv-x="1177" 
d="M1081 463h-735q41 -281 332 -281q162 0 334 64v-215q-185 -49 -355 -49q-272 0 -419.5 148t-147.5 411q0 241 142.5 386.5t365.5 145.5q232 0 357.5 -142.5t125.5 -410.5v-57zM598 872q-103 0 -167.5 -66.5t-82.5 -178.5h481q3 114 -61 179.5t-170 65.5zM270 1323v150
h645v-150h-645z" />
    <glyph glyph-name="Edotaccent" unicode="&#x116;" horiz-adv-x="1105" 
d="M172 0v1434h827v-222h-565v-362h531v-221h-531v-408h570v-221h-832zM465 1530v237h254v-237h-254z" />
    <glyph glyph-name="edotaccent" unicode="&#x117;" horiz-adv-x="1177" 
d="M1081 463h-735q41 -281 332 -281q162 0 334 64v-215q-185 -49 -355 -49q-272 0 -419.5 148t-147.5 411q0 241 142.5 386.5t365.5 145.5q232 0 357.5 -142.5t125.5 -410.5v-57zM598 872q-103 0 -167.5 -66.5t-82.5 -178.5h481q3 114 -61 179.5t-170 65.5zM459 1251v236
h266v-236h-266z" />
    <glyph glyph-name="Eogonek" unicode="&#x118;" horiz-adv-x="1105" 
d="M172 0v1434h827v-222h-565v-362h531v-221h-531v-408h570v-221q-121 -84 -167 -139t-46 -105q0 -38 21 -61t58 -23q59 0 97 23l30 -113q-80 -37 -174 -37q-105 0 -157 48t-52 133q0 147 211 274h-653z" />
    <glyph glyph-name="eogonek" unicode="&#x119;" horiz-adv-x="1177" 
d="M90 541q0 241 142.5 386.5t365.5 145.5q234 0 358.5 -142.5t124.5 -410.5v-57h-733q19 -138 103 -209.5t227 -71.5q165 0 336 60v-197q-121 -99 -167 -164t-46 -123q0 -86 84 -86q27 0 54 8.5t36 14.5l31 -113q-76 -37 -175 -37q-103 0 -154.5 49t-51.5 132
q0 141 168 264q-55 -8 -138 -8q-267 0 -416 148.5t-149 410.5zM348 627h481q3 114 -60.5 179.5t-170.5 65.5q-216 0 -250 -245z" />
    <glyph glyph-name="Ecaron" unicode="&#x11a;" horiz-adv-x="1105" 
d="M172 0v1434h827v-222h-565v-362h531v-221h-531v-408h570v-221h-832zM461 1530l-221 258h231l121 -166l121 166h231l-221 -258h-262z" />
    <glyph glyph-name="ecaron" unicode="&#x11b;" horiz-adv-x="1177" 
d="M1081 463h-735q41 -281 332 -281q162 0 334 64v-215q-185 -49 -355 -49q-272 0 -419.5 148t-147.5 411q0 241 142.5 386.5t365.5 145.5q232 0 357.5 -142.5t125.5 -410.5v-57zM598 872q-103 0 -167.5 -66.5t-82.5 -178.5h481q3 114 -61 179.5t-170 65.5zM475 1237
l-209 285h187l139 -183l137 183h189l-213 -285h-230z" />
    <glyph glyph-name="Gcircumflex" unicode="&#x11c;" horiz-adv-x="1464" 
d="M856 -20q-361 0 -561.5 196.5t-200.5 544.5q0 345 207 539t563 194q253 0 420 -72v-233q-68 32 -175 56t-228 24q-242 0 -377 -135.5t-135 -378.5q0 -242 131 -376t370 -134q100 0 191 16l2 350h-291v217h545v-749q-206 -59 -461 -59zM449 1530l221 258h262l221 -258
h-223l-129 156l-129 -156h-223z" />
    <glyph glyph-name="gcircumflex" unicode="&#x11d;" horiz-adv-x="1290" 
d="M571 -463q-179 0 -393 66v217q1 0 23 -8.5t38.5 -14l46.5 -15.5t59.5 -16.5t64.5 -13.5t73.5 -10.5t75.5 -3.5q169 0 251.5 83t82.5 255v78h-8q-54 -72 -141 -113t-187 -41q-209 0 -338 149.5t-129 385.5q0 243 133 390.5t344 147.5q195 0 328 -166h6v148h236v-979
q0 -276 -138.5 -407.5t-427.5 -131.5zM621 195q117 0 191.5 92t74.5 248q0 161 -76.5 250t-196.5 89q-116 0 -189 -86t-73 -243q0 -158 77 -254t192 -96zM285 1237l213 285h229l209 -285h-184l-142 184l-141 -184h-184z" />
    <glyph glyph-name="Gbreve" unicode="&#x11e;" horiz-adv-x="1464" 
d="M856 -20q-361 0 -561.5 196.5t-200.5 544.5q0 345 207 539t563 194q253 0 420 -72v-233q-68 32 -175 56t-228 24q-242 0 -377 -135.5t-135 -378.5q0 -242 131 -376t370 -134q100 0 191 16l2 350h-291v217h545v-749q-206 -59 -461 -59zM801 1518q-139 0 -240 68t-129 202
h168q29 -123 201 -123q169 0 203 123h165q-26 -134 -127.5 -202t-240.5 -68z" />
    <glyph glyph-name="gbreve" unicode="&#x11f;" horiz-adv-x="1290" 
d="M571 -463q-179 0 -393 66v217q1 0 23 -8.5t38.5 -14l46.5 -15.5t59.5 -16.5t64.5 -13.5t73.5 -10.5t75.5 -3.5q169 0 251.5 83t82.5 255v78h-8q-54 -72 -141 -113t-187 -41q-209 0 -338 149.5t-129 385.5q0 243 133 390.5t344 147.5q195 0 328 -166h6v148h236v-979
q0 -276 -138.5 -407.5t-427.5 -131.5zM621 195q117 0 191.5 92t74.5 248q0 161 -76.5 250t-196.5 89q-116 0 -189 -86t-73 -243q0 -158 77 -254t192 -96zM610 1217q-145 0 -236 82.5t-102 222.5h152q12 -67 57.5 -110.5t128.5 -43.5q84 0 129.5 44.5t57.5 109.5h151
q-10 -141 -101.5 -223t-236.5 -82z" />
    <glyph glyph-name="Gdotaccent" unicode="&#x120;" horiz-adv-x="1464" 
d="M856 -20q-361 0 -561.5 196.5t-200.5 544.5q0 345 207 539t563 194q253 0 420 -72v-233q-68 32 -175 56t-228 24q-242 0 -377 -135.5t-135 -378.5q0 -242 131 -376t370 -134q100 0 191 16l2 350h-291v217h545v-749q-206 -59 -461 -59zM674 1530v237h254v-237h-254z" />
    <glyph glyph-name="gdotaccent" unicode="&#x121;" horiz-adv-x="1290" 
d="M571 -463q-179 0 -393 66v217q1 0 23 -8.5t38.5 -14l46.5 -15.5t59.5 -16.5t64.5 -13.5t73.5 -10.5t75.5 -3.5q169 0 251.5 83t82.5 255v78h-8q-54 -72 -141 -113t-187 -41q-209 0 -338 149.5t-129 385.5q0 243 133 390.5t344 147.5q195 0 328 -166h6v148h236v-979
q0 -276 -138.5 -407.5t-427.5 -131.5zM621 195q117 0 191.5 92t74.5 248q0 161 -76.5 250t-196.5 89q-116 0 -189 -86t-73 -243q0 -158 77 -254t192 -96zM477 1251v236h266v-236h-266z" />
    <glyph glyph-name="uni0122" unicode="&#x122;" horiz-adv-x="1464" 
d="M856 -20q-361 0 -561.5 196.5t-200.5 544.5q0 345 207 539t563 194q253 0 420 -72v-233q-68 32 -175 56t-228 24q-242 0 -377 -135.5t-135 -378.5q0 -242 131 -376t370 -134q100 0 191 16l2 350h-291v217h545v-749q-206 -59 -461 -59zM535 -512l86 410h256l-146 -410
h-196z" />
    <glyph glyph-name="uni0123" unicode="&#x123;" horiz-adv-x="1290" 
d="M571 -463q-179 0 -393 66v217q1 0 23 -8.5t38.5 -14l46.5 -15.5t59.5 -16.5t64.5 -13.5t73.5 -10.5t75.5 -3.5q169 0 251.5 83t82.5 255v78h-8q-54 -72 -141 -113t-187 -41q-209 0 -338 149.5t-129 385.5q0 243 133 390.5t344 147.5q195 0 328 -166h6v148h236v-979
q0 -276 -138.5 -407.5t-427.5 -131.5zM621 195q117 0 191.5 92t74.5 248q0 161 -76.5 250t-196.5 89q-116 0 -189 -86t-73 -243q0 -158 77 -254t192 -96zM504 1214l153 388h183l-82 -388h-254z" />
    <glyph glyph-name="Hcircumflex" unicode="&#x124;" horiz-adv-x="1474" 
d="M172 0v1434h262v-582h606v582h263v-1434h-263v631h-606v-631h-262zM385 1530l221 258h262l222 -258h-224l-129 156l-129 -156h-223z" />
    <glyph glyph-name="hcircumflex" unicode="&#x125;" horiz-adv-x="1249" 
d="M154 0v1550h252v-495l-3 -160h7q121 178 340 178q180 0 277 -114.5t97 -331.5v-627h-252v553q0 165 -51 237t-153 72q-124 0 -193 -95t-69 -278v-489h-252zM-47 1638l213 285h229l209 -285h-184l-141 185l-142 -185h-184z" />
    <glyph glyph-name="Hbar" unicode="&#x126;" horiz-adv-x="1495" 
d="M182 0v1057h-131v153h131v224h262v-224h607v224h262v-224h131v-153h-131v-1057h-262v631h-607v-631h-262zM444 852h607v205h-607v-205z" />
    <glyph glyph-name="hbar" unicode="&#x127;" horiz-adv-x="1249" 
d="M-18 1239v154h172v157h252v-157h403v-154h-403v-184l-3 -160h7q121 178 340 178q180 0 277 -114.5t97 -331.5v-627h-252v553q0 165 -51 237t-153 72q-124 0 -193 -95t-69 -278v-489h-252v1239h-172z" />
    <glyph glyph-name="Imacron" unicode="&#x12a;" horiz-adv-x="634" 
d="M186 0v1434h263v-1434h-263zM57 1581v152h523v-152h-523z" />
    <glyph glyph-name="imacron" unicode="&#x12b;" horiz-adv-x="593" 
d="M172 0v1055h252v-1055h-252zM29 1323v150h538v-150h-538z" />
    <glyph glyph-name="Iogonek" unicode="&#x12e;" horiz-adv-x="634" 
d="M186 0v1434h263v-1434q-121 -84 -167 -139t-46 -105q0 -38 21 -61t58 -23q59 0 97 23l30 -113q-80 -37 -174 -37q-105 0 -157 48t-52 133q0 147 211 274h-84z" />
    <glyph glyph-name="iogonek" unicode="&#x12f;" horiz-adv-x="593" 
d="M172 0v1055h252v-1055q-121 -84 -167 -139t-46 -105q0 -38 21.5 -61t58.5 -23q58 0 96 23l31 -113q-80 -37 -174 -37q-105 0 -157 48t-52 133q0 147 211 274h-74zM164 1251v236h266v-236h-266z" />
    <glyph glyph-name="Idotaccent" unicode="&#x130;" horiz-adv-x="634" 
d="M186 0v1434h263v-1434h-263zM190 1530v237h254v-237h-254z" />
    <glyph glyph-name="dotlessi" unicode="&#x131;" horiz-adv-x="593" 
d="M172 0v1055h252v-1055h-252z" />
    <glyph glyph-name="Jcircumflex" unicode="&#x134;" horiz-adv-x="778" 
d="M190 -20q-101 0 -157 20v219q63 -18 114 -18q113 0 157 73t44 215v945h262v-1026q0 -214 -107.5 -321t-312.5 -107zM125 1530l221 258h262l221 -258h-223l-129 156l-129 -156h-223z" />
    <glyph glyph-name="jcircumflex" unicode="&#x135;" horiz-adv-x="593" 
d="M76 -463q-61 0 -115 12v201q2 0 12.5 -2t27 -4t30.5 -2q71 0 106 47t35 148v1118h252v-1121q0 -218 -84.5 -307.5t-263.5 -89.5zM16 1237l168 285h230l164 -285h-183l-98 176l-96 -176h-185z" />
    <glyph glyph-name="uni0136" unicode="&#x136;" horiz-adv-x="1320" 
d="M172 0v1434h262v-576h158l381 576h305l-463 -676l500 -758h-314l-403 637h-164v-637h-262zM463 -512l86 410h256l-146 -410h-196z" />
    <glyph glyph-name="uni0137" unicode="&#x137;" horiz-adv-x="1136" 
d="M154 0v1550h252v-960l423 465h291l-415 -447l423 -608h-297l-309 461l-116 -123v-338h-252zM401 -469l88 367h244l-147 -367h-185z" />
    <glyph glyph-name="Lacute" unicode="&#x139;" horiz-adv-x="1064" 
d="M172 0v1434h262v-1213h598v-221h-860zM201 1530l139 262h287l-234 -262h-192z" />
    <glyph glyph-name="lacute" unicode="&#x13a;" horiz-adv-x="593" 
d="M170 0v1550h254v-1550h-254zM201 1632l149 285h285l-252 -285h-182z" />
    <glyph glyph-name="uni013B" unicode="&#x13b;" horiz-adv-x="1064" 
d="M172 0v1434h262v-1213h598v-221h-860zM334 -512l86 410h256l-146 -410h-196z" />
    <glyph glyph-name="uni013C" unicode="&#x13c;" horiz-adv-x="593" 
d="M170 0v1550h254v-1550h-254zM102 -469l88 367h244l-147 -367h-185z" />
    <glyph glyph-name="Lcaron" unicode="&#x13d;" horiz-adv-x="1064" 
d="M684 993l90 441h254l-166 -441h-178zM172 0v1434h262v-1213h598v-221h-860z" />
    <glyph glyph-name="lcaron" unicode="&#x13e;" horiz-adv-x="593" 
d="M170 0v1550h254v-1550h-254zM473 1196l86 358h242l-154 -358h-174z" />
    <glyph glyph-name="Ldot" unicode="&#x13f;" horiz-adv-x="1064" 
d="M707 635v264h258v-264h-258zM172 0v1434h262v-1213h598v-221h-860z" />
    <glyph glyph-name="ldot" unicode="&#x140;" horiz-adv-x="921" 
d="M627 666v266h262v-266h-262zM170 0v1554h254v-1554h-254z" />
    <glyph glyph-name="Lslash" unicode="&#x141;" horiz-adv-x="1064" 
d="M172 0v541l-172 -95v177l172 94v717h262v-572l363 201v-176l-363 -201v-465h598v-221h-860z" />
    <glyph glyph-name="lslash" unicode="&#x142;" horiz-adv-x="614" 
d="M180 0v614l-172 -106v197l172 106v739h254v-583l172 106v-196l-172 -107v-770h-254z" />
    <glyph glyph-name="Nacute" unicode="&#x143;" horiz-adv-x="1495" 
d="M172 0v1434h334l557 -1069h4l-6 157v912h262v-1434h-326l-563 1079h-4l4 -143v-936h-262zM672 1530l139 262h287l-234 -262h-192z" />
    <glyph glyph-name="nacute" unicode="&#x144;" horiz-adv-x="1249" 
d="M154 0v1055h241v-160h4q59 84 147 131t199 47q181 0 280 -114.5t99 -331.5v-627h-252v553q0 165 -52 237t-154 72q-122 0 -191 -95t-69 -278v-489h-252zM526 1237l150 285h285l-252 -285h-183z" />
    <glyph glyph-name="uni0145" unicode="&#x145;" horiz-adv-x="1495" 
d="M172 0v1434h334l557 -1069h4l-6 157v912h262v-1434h-326l-563 1079h-4l4 -143v-936h-262zM559 -512l86 410h256l-145 -410h-197z" />
    <glyph glyph-name="uni0146" unicode="&#x146;" horiz-adv-x="1249" 
d="M154 0v1055h241v-160h4q59 84 147 131t199 47q181 0 280 -114.5t99 -331.5v-627h-252v553q0 165 -52 237t-154 72q-122 0 -191 -95t-69 -278v-489h-252zM430 -469l88 367h244l-148 -367h-184z" />
    <glyph glyph-name="Ncaron" unicode="&#x147;" horiz-adv-x="1495" 
d="M172 0v1434h334l557 -1069h4l-6 157v912h262v-1434h-326l-563 1079h-4l4 -143v-936h-262zM641 1530l-221 258h231l121 -166l121 166h231l-221 -258h-262z" />
    <glyph glyph-name="ncaron" unicode="&#x148;" horiz-adv-x="1249" 
d="M154 0v1055h241v-160h4q59 84 147 131t199 47q181 0 280 -114.5t99 -331.5v-627h-252v553q0 165 -52 237t-154 72q-122 0 -191 -95t-69 -278v-489h-252zM506 1237l-209 285h186l140 -183l137 183h188l-213 -285h-229z" />
    <glyph glyph-name="Omacron" unicode="&#x14c;" horiz-adv-x="1536" 
d="M768 -20q-210 0 -363.5 93t-232 259t-78.5 385q0 335 180 536t494 201q211 0 364.5 -93.5t231.5 -259t78 -384.5q0 -222 -79.5 -388t-232.5 -257.5t-362 -91.5zM768 205q96 0 173 40.5t126 111t74.5 162.5t25.5 198q0 146 -44.5 260t-136.5 183t-218 69q-96 0 -173 -40.5
t-126 -111t-74.5 -162.5t-25.5 -198q0 -145 44 -259t136 -183.5t219 -69.5zM446 1581v152h646v-152h-646z" />
    <glyph glyph-name="omacron" unicode="&#x14d;" horiz-adv-x="1269" 
d="M635 -18q-243 0 -394 149.5t-151 394.5t152 396t393 151q242 0 393.5 -151t151.5 -396q0 -246 -151 -395t-394 -149zM635 186q123 0 203 94t80 246t-80.5 247t-202.5 95q-123 0 -203 -95.5t-80 -246.5q0 -153 80.5 -246.5t202.5 -93.5zM313 1323v150h645v-150h-645z" />
    <glyph glyph-name="Obreve" unicode="&#x14e;" horiz-adv-x="1536" 
d="M768 -20q-210 0 -363.5 93t-232 259t-78.5 385q0 335 180 536t494 201q211 0 364.5 -93.5t231.5 -259t78 -384.5q0 -222 -79.5 -388t-232.5 -257.5t-362 -91.5zM768 205q96 0 173 40.5t126 111t74.5 162.5t25.5 198q0 146 -44.5 260t-136.5 183t-218 69q-96 0 -173 -40.5
t-126 -111t-74.5 -162.5t-25.5 -198q0 -145 44 -259t136 -183.5t219 -69.5zM768 1518q-139 0 -240 68t-129 202h168q29 -123 201 -123q169 0 203 123h166q-26 -134 -128 -202t-241 -68z" />
    <glyph glyph-name="obreve" unicode="&#x14f;" horiz-adv-x="1269" 
d="M635 -18q-243 0 -394 149.5t-151 394.5t152 396t393 151q242 0 393.5 -151t151.5 -396q0 -246 -151 -395t-394 -149zM635 186q123 0 203 94t80 246t-80.5 247t-202.5 95q-123 0 -203 -95.5t-80 -246.5q0 -153 80.5 -246.5t202.5 -93.5zM635 1217q-145 0 -236 82.5
t-102 222.5h152q12 -67 57.5 -110.5t128.5 -43.5q84 0 129 44t57 110h152q-10 -141 -101.5 -223t-236.5 -82z" />
    <glyph glyph-name="Ohungarumlaut" unicode="&#x150;" horiz-adv-x="1536" 
d="M768 -20q-210 0 -363.5 93t-232 259t-78.5 385q0 335 180 536t494 201q211 0 364.5 -93.5t231.5 -259t78 -384.5q0 -222 -79.5 -388t-232.5 -257.5t-362 -91.5zM768 205q96 0 173 40.5t126 111t74.5 162.5t25.5 198q0 146 -44.5 260t-136.5 183t-218 69q-96 0 -173 -40.5
t-126 -111t-74.5 -162.5t-25.5 -198q0 -145 44 -259t136 -183.5t219 -69.5zM860 1530l168 262h264l-264 -262h-168zM455 1530l166 262h266l-264 -262h-168z" />
    <glyph glyph-name="ohungarumlaut" unicode="&#x151;" horiz-adv-x="1269" 
d="M635 -18q-243 0 -394 149.5t-151 394.5t152 396t393 151q242 0 393.5 -151t151.5 -396q0 -246 -151 -395t-394 -149zM635 186q123 0 203 94t80 246t-80.5 247t-202.5 95q-123 0 -203 -95.5t-80 -246.5q0 -153 80.5 -246.5t202.5 -93.5zM731 1237l168 285h266l-266 -285
h-168zM328 1237l164 285h268l-264 -285h-168z" />
    <glyph glyph-name="OE" unicode="&#x152;" horiz-adv-x="1925" 
d="M786 -16q-324 0 -508 193.5t-184 539.5q0 348 186.5 540.5t524.5 192.5q52 0 220 -8t312 -8h482v-222h-570v-362h527v-221h-527v-408h574v-221h-627q-48 0 -205.5 -8t-204.5 -8zM840 207q79 0 151 10v1000q-112 10 -170 10q-216 0 -333 -136.5t-117 -373.5
q0 -240 122 -375t347 -135z" />
    <glyph glyph-name="oe" unicode="&#x153;" horiz-adv-x="1925" 
d="M1444 -18q-303 0 -445 217q-141 -217 -395 -217q-230 0 -372 149.5t-142 394.5q0 246 143.5 396.5t370.5 150.5q125 0 225.5 -56.5t169.5 -160.5q64 105 161 161t220 56q214 0 331.5 -143.5t117.5 -409.5v-59h-694q19 -135 101 -207t220 -72q144 0 303 64v-213
q-168 -51 -315 -51zM352 526q0 -155 73 -249.5t187 -94.5t187 95t73 249t-74.5 250t-185.5 96q-113 0 -186.5 -96t-73.5 -250zM1368 872q-96 0 -156 -65.5t-75 -181.5h440q3 114 -54.5 180.5t-154.5 66.5z" />
    <glyph glyph-name="Racute" unicode="&#x154;" horiz-adv-x="1280" 
d="M946 0l-237 526q-46 -4 -68 -4h-207v-522h-262v1434h459q266 0 398 -118t132 -337q0 -280 -213 -389l301 -590h-303zM434 735h203q126 0 188 62.5t62 181.5q0 233 -250 233h-203v-477zM541 1530l139 262h287l-234 -262h-192z" />
    <glyph glyph-name="racute" unicode="&#x155;" horiz-adv-x="829" 
d="M154 0v1055h235v-174h2q47 92 112 142t165 50q52 0 110 -10v-215q-52 8 -102 8q-147 0 -208.5 -96.5t-61.5 -296.5v-463h-252zM324 1237l149 285h285l-252 -285h-182z" />
    <glyph glyph-name="uni0156" unicode="&#x156;" horiz-adv-x="1280" 
d="M946 0l-237 526q-46 -4 -68 -4h-207v-522h-262v1434h459q266 0 398 -118t132 -337q0 -280 -213 -389l301 -590h-303zM434 735h203q126 0 188 62.5t62 181.5q0 233 -250 233h-203v-477zM459 -512l86 410h256l-146 -410h-196z" />
    <glyph glyph-name="uni0157" unicode="&#x157;" horiz-adv-x="829" 
d="M154 0v1055h235v-174h2q47 92 112 142t165 50q52 0 110 -10v-215q-52 8 -102 8q-147 0 -208.5 -96.5t-61.5 -296.5v-463h-252zM76 -469l88 367h244l-148 -367h-184z" />
    <glyph glyph-name="Rcaron" unicode="&#x158;" horiz-adv-x="1280" 
d="M946 0l-237 526q-46 -4 -68 -4h-207v-522h-262v1434h459q266 0 398 -118t132 -337q0 -280 -213 -389l301 -590h-303zM434 735h203q126 0 188 62.5t62 181.5q0 233 -250 233h-203v-477zM510 1530l-221 258h231l121 -166l121 166h231l-221 -258h-262z" />
    <glyph glyph-name="rcaron" unicode="&#x159;" horiz-adv-x="829" 
d="M154 0v1055h235v-174h2q47 92 112 142t165 50q52 0 110 -10v-215q-52 8 -102 8q-147 0 -208.5 -96.5t-61.5 -296.5v-463h-252zM303 1237l-209 285h187l139 -183l137 183h188l-213 -285h-229z" />
    <glyph glyph-name="Sacute" unicode="&#x15a;" horiz-adv-x="1085" 
d="M457 -20q-179 0 -348 57v237q76 -31 173.5 -50t172.5 -19q125 0 194.5 51.5t69.5 136.5q0 42 -18.5 76t-56 61.5t-75 48t-94.5 47.5q-4 1 -5.5 2t-4.5 2.5t-5.5 2.5t-4.5 2q-45 21 -74.5 36t-71.5 39.5t-69 46.5t-57.5 54.5t-48 66.5t-29 78.5t-11.5 94.5
q0 190 135 296.5t373 106.5q180 0 320 -51v-223q-131 49 -310 49q-243 0 -243 -148q0 -28 8 -52.5t27 -46.5t36.5 -37.5t52 -35t56 -30t65.5 -31.5q40 -18 60 -27.5t58 -29t59 -33.5t52.5 -37.5t50 -44.5t40 -51t32.5 -61t19 -70t8 -82q0 -203 -141.5 -317.5t-394.5 -114.5z
M442 1530l140 262h286l-233 -262h-193z" />
    <glyph glyph-name="sacute" unicode="&#x15b;" horiz-adv-x="962" 
d="M434 -18q-185 0 -325 55v201q168 -66 309 -66q91 0 135.5 31t44.5 78q0 16 -5 30t-17 26.5t-23.5 21.5t-34 21t-37.5 19t-45 20t-47 21q-50 22 -84 39.5t-76 47.5t-67 62.5t-42.5 79.5t-17.5 103q0 144 111.5 222.5t302.5 78.5q146 0 297 -49v-195q-122 52 -266 52
q-93 0 -140 -27t-47 -74q0 -15 4 -28.5t16.5 -26t21 -20.5t31 -20.5t32.5 -17.5t41 -19t41 -19q11 -5 48.5 -21.5t51.5 -23.5l47 -23.5t47.5 -28.5t39.5 -32t37 -39.5t25.5 -44.5t19 -55t5.5 -64q0 -153 -116.5 -234t-317.5 -81zM385 1237l150 285h284l-252 -285h-182z" />
    <glyph glyph-name="Scircumflex" unicode="&#x15c;" horiz-adv-x="1085" 
d="M457 -20q-179 0 -348 57v237q76 -31 173.5 -50t172.5 -19q125 0 194.5 51.5t69.5 136.5q0 42 -18.5 76t-56 61.5t-75 48t-94.5 47.5q-4 1 -5.5 2t-4.5 2.5t-5.5 2.5t-4.5 2q-45 21 -74.5 36t-71.5 39.5t-69 46.5t-57.5 54.5t-48 66.5t-29 78.5t-11.5 94.5
q0 190 135 296.5t373 106.5q180 0 320 -51v-223q-131 49 -310 49q-243 0 -243 -148q0 -28 8 -52.5t27 -46.5t36.5 -37.5t52 -35t56 -30t65.5 -31.5q40 -18 60 -27.5t58 -29t59 -33.5t52.5 -37.5t50 -44.5t40 -51t32.5 -61t19 -70t8 -82q0 -203 -141.5 -317.5t-394.5 -114.5z
M190 1530l222 258h262l221 -258h-223l-129 156l-129 -156h-224z" />
    <glyph glyph-name="scircumflex" unicode="&#x15d;" horiz-adv-x="962" 
d="M434 -18q-185 0 -325 55v201q168 -66 309 -66q91 0 135.5 31t44.5 78q0 16 -5 30t-17 26.5t-23.5 21.5t-34 21t-37.5 19t-45 20t-47 21q-50 22 -84 39.5t-76 47.5t-67 62.5t-42.5 79.5t-17.5 103q0 144 111.5 222.5t302.5 78.5q146 0 297 -49v-195q-122 52 -266 52
q-93 0 -140 -27t-47 -74q0 -15 4 -28.5t16.5 -26t21 -20.5t31 -20.5t32.5 -17.5t41 -19t41 -19q11 -5 48.5 -21.5t51.5 -23.5l47 -23.5t47.5 -28.5t39.5 -32t37 -39.5t25.5 -44.5t19 -55t5.5 -64q0 -153 -116.5 -234t-317.5 -81zM156 1237l213 285h229l209 -285h-184
l-142 184l-141 -184h-184z" />
    <glyph glyph-name="Scedilla" unicode="&#x15e;" horiz-adv-x="1085" 
d="M516 -455q-88 0 -168 58l49 100q57 -33 99 -33q40 0 67 21t27 59q0 39 -27 58.5t-74 19.5q-34 0 -61 -6l27 158q-180 0 -346 57v237q76 -31 173.5 -50t172.5 -19q125 0 194.5 51.5t69.5 136.5q0 42 -18.5 76t-56 61.5t-75 48t-94.5 47.5q-4 1 -5.5 2t-4.5 2.5t-5.5 2.5
t-4.5 2q-45 21 -74.5 36t-71.5 39.5t-69 46.5t-57.5 54.5t-48 66.5t-29 78.5t-11.5 94.5q0 190 135 296.5t373 106.5q180 0 320 -51v-223q-131 49 -310 49q-243 0 -243 -148q0 -28 8 -52.5t27 -46.5t36.5 -37.5t52 -35t56 -30t65.5 -31.5q40 -18 60 -27.5t58 -29t59 -33.5
t52.5 -37.5t50 -44.5t40 -51t32.5 -61t19 -70t8 -82q0 -175 -106.5 -285.5t-300.5 -138.5l-11 -62q84 -3 128.5 -46t44.5 -124q0 -92 -65.5 -151.5t-166.5 -59.5z" />
    <glyph glyph-name="scedilla" unicode="&#x15f;" horiz-adv-x="962" 
d="M469 -397q-84 0 -150 51l43 88q50 -31 89 -31q36 0 60 18.5t24 53.5q0 33 -25 50t-66 17q-28 0 -55 -6l25 138q-170 3 -305 55v201q168 -66 309 -66q91 0 135.5 31t44.5 78q0 16 -5 30t-17 26.5t-23.5 21.5t-34 21t-37.5 19t-45 20t-47 21q-50 22 -84 39.5t-76 47.5
t-67 62.5t-42.5 79.5t-17.5 103q0 144 111.5 222.5t302.5 78.5q146 0 297 -49v-195q-122 52 -266 52q-93 0 -140 -27t-47 -74q0 -15 4 -28.5t16.5 -26t21 -20.5t31 -20.5t32.5 -17.5t41 -19t41 -19q11 -5 48.5 -21.5t51.5 -23.5l47 -23.5t47.5 -28.5t39.5 -32t37 -39.5
t25.5 -44.5t19 -55t5.5 -64q0 -134 -90 -212.5t-250 -96.5l-8 -51q152 -3 152 -150q0 -82 -57 -133t-146 -51z" />
    <glyph glyph-name="Scaron" unicode="&#x160;" horiz-adv-x="1085" 
d="M457 -20q-179 0 -348 57v237q76 -31 173.5 -50t172.5 -19q125 0 194.5 51.5t69.5 136.5q0 42 -18.5 76t-56 61.5t-75 48t-94.5 47.5q-4 1 -5.5 2t-4.5 2.5t-5.5 2.5t-4.5 2q-45 21 -74.5 36t-71.5 39.5t-69 46.5t-57.5 54.5t-48 66.5t-29 78.5t-11.5 94.5
q0 190 135 296.5t373 106.5q180 0 320 -51v-223q-131 49 -310 49q-243 0 -243 -148q0 -28 8 -52.5t27 -46.5t36.5 -37.5t52 -35t56 -30t65.5 -31.5q40 -18 60 -27.5t58 -29t59 -33.5t52.5 -37.5t50 -44.5t40 -51t32.5 -61t19 -70t8 -82q0 -203 -141.5 -317.5t-394.5 -114.5z
M412 1530l-222 258h232l121 -166l121 166h231l-221 -258h-262z" />
    <glyph glyph-name="scaron" unicode="&#x161;" horiz-adv-x="962" 
d="M434 -18q-185 0 -325 55v201q168 -66 309 -66q91 0 135.5 31t44.5 78q0 16 -5 30t-17 26.5t-23.5 21.5t-34 21t-37.5 19t-45 20t-47 21q-50 22 -84 39.5t-76 47.5t-67 62.5t-42.5 79.5t-17.5 103q0 144 111.5 222.5t302.5 78.5q146 0 297 -49v-195q-122 52 -266 52
q-93 0 -140 -27t-47 -74q0 -15 4 -28.5t16.5 -26t21 -20.5t31 -20.5t32.5 -17.5t41 -19t41 -19q11 -5 48.5 -21.5t51.5 -23.5l47 -23.5t47.5 -28.5t39.5 -32t37 -39.5t25.5 -44.5t19 -55t5.5 -64q0 -153 -116.5 -234t-317.5 -81zM365 1237l-209 285h186l139 -183l137 183
h189l-213 -285h-229z" />
    <glyph glyph-name="uni0162" unicode="&#x162;" horiz-adv-x="1146" 
d="M442 0v1212h-409v222h1081v-222h-409v-1212h-66l-12 -74q84 -3 128 -46t44 -124q0 -92 -65.5 -151.5t-166.5 -59.5q-88 0 -168 58l50 100q57 -33 98 -33q40 0 67 21t27 59q0 78 -100 78q-35 0 -62 -6l31 178h-68z" />
    <glyph glyph-name="uni0163" unicode="&#x163;" horiz-adv-x="778" 
d="M436 -397q-83 0 -149 51l43 88q50 -31 88 -31q36 0 60 18.5t24 53.5q0 33 -24.5 50t-65.5 17q-29 0 -56 -6l31 170q-168 76 -168 308v532h-170v201h170v245l252 80v-325h225v-201h-225v-492q0 -172 143 -172q33 0 91 15v-207q-85 -16 -146 -16q-23 0 -63 4l-9 -49
q152 -3 152 -150q0 -82 -57 -133t-146 -51z" />
    <glyph glyph-name="Tcaron" unicode="&#x164;" horiz-adv-x="1146" 
d="M442 0v1212h-409v222h1081v-222h-409v-1212h-263zM442 1530l-221 258h232l120 -166l121 166h232l-221 -258h-263z" />
    <glyph glyph-name="tcaron" unicode="&#x165;" horiz-adv-x="778" 
d="M696 1055v-201h-225v-492q0 -172 143 -172q33 0 91 15v-207q-85 -16 -146 -16q-162 0 -251 87.5t-89 252.5v532h-170v201h170v245l252 80v-325h225zM592 1196l86 358h242l-154 -358h-174z" />
    <glyph glyph-name="Umacron" unicode="&#x16a;" horiz-adv-x="1474" 
d="M737 -20q-271 0 -420 151.5t-149 446.5v856h262v-824q0 -209 74.5 -307t232.5 -98q159 0 233 98.5t74 306.5v824h263v-856q0 -295 -150 -446.5t-420 -151.5zM416 1581v152h645v-152h-645z" />
    <glyph glyph-name="umacron" unicode="&#x16b;" horiz-adv-x="1249" 
d="M1096 1055v-1055h-242v158h-6q-130 -176 -338 -176q-182 0 -283.5 115t-101.5 331v627h252v-551q0 -165 52 -237t153 -72q124 0 193 93.5t69 276.5v490h252zM293 1323v150h645v-150h-645z" />
    <glyph glyph-name="Ubreve" unicode="&#x16c;" horiz-adv-x="1474" 
d="M737 -20q-271 0 -420 151.5t-149 446.5v856h262v-824q0 -209 74.5 -307t232.5 -98q159 0 233 98.5t74 306.5v824h263v-856q0 -295 -150 -446.5t-420 -151.5zM737 1518q-139 0 -239.5 68t-128.5 202h168q29 -123 200 -123q169 0 203 123h166q-26 -134 -128 -202t-241 -68z
" />
    <glyph glyph-name="ubreve" unicode="&#x16d;" horiz-adv-x="1249" 
d="M1096 1055v-1055h-242v158h-6q-130 -176 -338 -176q-182 0 -283.5 115t-101.5 331v627h252v-551q0 -165 52 -237t153 -72q124 0 193 93.5t69 276.5v490h252zM614 1217q-145 0 -236 82.5t-102 222.5h152q12 -67 57.5 -110.5t128.5 -43.5q84 0 129.5 44.5t57.5 109.5h151
q-10 -141 -101.5 -223t-236.5 -82z" />
    <glyph glyph-name="Uring" unicode="&#x16e;" horiz-adv-x="1474" 
d="M737 -20q-271 0 -420 151.5t-149 446.5v856h262v-824q0 -209 74.5 -307t232.5 -98q159 0 233 98.5t74 306.5v824h263v-856q0 -295 -150 -446.5t-420 -151.5zM737 1462q-91 0 -153 62t-62 151t62 151t153 62t153 -62t62 -151t-62 -151t-153 -62zM737 1554q51 0 85 35
t34 86t-34 86t-85 35t-85 -35t-34 -86t34 -86t85 -35z" />
    <glyph glyph-name="uring" unicode="&#x16f;" horiz-adv-x="1249" 
d="M1096 1055v-1055h-242v158h-6q-130 -176 -338 -176q-182 0 -283.5 115t-101.5 331v627h252v-551q0 -165 52 -237t153 -72q124 0 193 93.5t69 276.5v490h252zM614 1174q-91 0 -153 62t-62 153t62 153t153 62t153 -62t62 -153t-62 -153t-153 -62zM614 1270q50 0 84.5 35
t34.5 84t-34.5 83.5t-84.5 34.5t-84 -34.5t-34 -83.5q0 -50 34.5 -84.5t83.5 -34.5z" />
    <glyph glyph-name="Uhungarumlaut" unicode="&#x170;" horiz-adv-x="1474" 
d="M737 -20q-271 0 -420 151.5t-149 446.5v856h262v-824q0 -209 74.5 -307t232.5 -98q159 0 233 98.5t74 306.5v824h263v-856q0 -295 -150 -446.5t-420 -151.5zM829 1530l168 262h265l-265 -262h-168zM424 1530l166 262h266l-264 -262h-168z" />
    <glyph glyph-name="uhungarumlaut" unicode="&#x171;" horiz-adv-x="1249" 
d="M1096 1055v-1055h-242v158h-6q-130 -176 -338 -176q-182 0 -283.5 115t-101.5 331v627h252v-551q0 -165 52 -237t153 -72q124 0 193 93.5t69 276.5v490h252zM711 1237l168 285h266l-266 -285h-168zM307 1237l164 285h268l-264 -285h-168z" />
    <glyph glyph-name="Uogonek" unicode="&#x172;" horiz-adv-x="1474" 
d="M817 -455q-106 0 -158.5 48t-52.5 128q0 142 180 261h-49q-271 0 -420 151.5t-149 446.5v854h262v-822q0 -209 74.5 -307t232.5 -98q159 0 233 99t74 306v822h263v-854q0 -76 -10 -142t-24.5 -113.5t-42 -92.5t-49.5 -72.5t-60.5 -60t-61.5 -49t-66 -44.5
q-51 -34 -81.5 -57t-64 -55t-49.5 -65.5t-16 -70.5q0 -39 21.5 -62.5t60.5 -23.5q56 0 94 23l29 -113q-76 -37 -170 -37z" />
    <glyph glyph-name="uogonek" unicode="&#x173;" horiz-adv-x="1249" 
d="M915 -455q-105 0 -156.5 48t-51.5 133q0 147 211 274h-64v158h-6q-130 -176 -338 -176q-182 0 -283.5 115t-101.5 331v627h252v-551q0 -165 52 -237t153 -72q124 0 193 93.5t69 276.5v490h252v-1055q-121 -84 -167 -139t-46 -105q0 -38 21.5 -61t58.5 -23q58 0 96 23
l31 -113q-80 -37 -175 -37z" />
    <glyph glyph-name="Ydieresis" unicode="&#x178;" horiz-adv-x="1331" 
d="M16 1434h301l347 -635h8l346 635h299l-520 -899v-535h-262v541zM317 1530v229h244v-229h-244zM770 1530v229h246v-229h-246z" />
    <glyph glyph-name="Zacute" unicode="&#x179;" horiz-adv-x="1187" 
d="M109 0v217l663 995h-641v222h938v-211l-674 -1002h684v-221h-970zM494 1530l139 262h287l-234 -262h-192z" />
    <glyph glyph-name="zacute" unicode="&#x17a;" horiz-adv-x="1024" 
d="M92 0v197l526 657h-503v201h800v-197l-528 -657h545v-201h-840zM416 1237l149 285h285l-252 -285h-182z" />
    <glyph glyph-name="Zdotaccent" unicode="&#x17b;" horiz-adv-x="1187" 
d="M109 0v217l663 995h-641v222h938v-211l-674 -1002h684v-221h-970zM467 1530v237h254v-237h-254z" />
    <glyph glyph-name="zdotaccent" unicode="&#x17c;" horiz-adv-x="1024" 
d="M92 0v197l526 657h-503v201h800v-197l-528 -657h545v-201h-840zM379 1251v236h266v-236h-266z" />
    <glyph glyph-name="Zcaron" unicode="&#x17d;" horiz-adv-x="1187" 
d="M109 0v217l663 995h-641v222h938v-211l-674 -1002h684v-221h-970zM463 1530l-221 258h231l121 -166l121 166h231l-221 -258h-262z" />
    <glyph glyph-name="zcaron" unicode="&#x17e;" horiz-adv-x="1024" 
d="M92 0v197l526 657h-503v201h800v-197l-528 -657h545v-201h-840zM395 1237l-209 285h187l139 -183l137 183h189l-213 -285h-230z" />
    <glyph glyph-name="uni018F" unicode="&#x18f;" horiz-adv-x="1474" 
d="M94 705q0 50 2 77h1006q-14 208 -119 327.5t-303 119.5q-190 0 -404 -96v235q210 86 426 86q217 0 371 -92.5t230.5 -257t76.5 -387.5q0 -337 -171 -537t-472 -200q-151 0 -273 54.5t-202.5 151.5t-124 229.5t-43.5 289.5zM737 205q145 0 237 104t120 273h-713
q27 -171 118.5 -274t237.5 -103z" />
    <glyph glyph-name="florin" unicode="&#x192;" horiz-adv-x="1187" 
d="M170 702l31 156h258l39 209q17 94 44.5 162.5t73.5 120.5t115 78t162 26q118 0 213 -22l-23 -199q-74 12 -145 12q-95 0 -135.5 -41.5t-59.5 -146.5l-36 -199h260l-29 -156h-262l-144 -772q-40 -210 -130.5 -302.5t-254.5 -92.5q-122 0 -186 29l23 190q93 -20 122 -20
q70 0 118.5 54t66.5 146l139 768h-260z" />
    <glyph glyph-name="uni01CF" unicode="&#x1cf;" horiz-adv-x="634" 
d="M186 0v1434h263v-1434h-263zM186 1530l-180 262h211l100 -150l101 150h211l-180 -262h-263z" />
    <glyph glyph-name="uni01D0" unicode="&#x1d0;" horiz-adv-x="593" 
d="M172 0v1055h252v-1055h-252zM184 1237l-168 285h185l96 -176l98 176h183l-172 -285h-222z" />
    <glyph glyph-name="uni01DD" unicode="&#x1dd;" horiz-adv-x="1177" 
d="M98 522v64h731q-15 144 -91 215t-220 71q-85 0 -180.5 -18.5t-169.5 -50.5v207q176 63 358 63q271 0 416 -148t145 -411q0 -242 -140 -387t-359 -145q-236 0 -363 138.5t-127 401.5zM580 182q102 0 166.5 64.5t82.5 175.5h-481q-1 -111 62.5 -175.5t169.5 -64.5z" />
    <glyph glyph-name="Gcaron" unicode="&#x1e6;" horiz-adv-x="1464" 
d="M856 -20q-361 0 -561.5 196.5t-200.5 544.5q0 345 207 539t563 194q253 0 420 -72v-233q-68 32 -175 56t-228 24q-242 0 -377 -135.5t-135 -378.5q0 -242 131 -376t370 -134q100 0 191 16l2 350h-291v217h545v-749q-206 -59 -461 -59zM670 1530l-221 258h231l121 -166
l121 166h231l-221 -258h-262z" />
    <glyph glyph-name="gcaron" unicode="&#x1e7;" horiz-adv-x="1290" 
d="M571 -463q-179 0 -393 66v217q1 0 23 -8.5t38.5 -14l46.5 -15.5t59.5 -16.5t64.5 -13.5t73.5 -10.5t75.5 -3.5q169 0 251.5 83t82.5 255v78h-8q-54 -72 -141 -113t-187 -41q-209 0 -338 149.5t-129 385.5q0 243 133 390.5t344 147.5q195 0 328 -166h6v148h236v-979
q0 -276 -138.5 -407.5t-427.5 -131.5zM621 195q117 0 191.5 92t74.5 248q0 161 -76.5 250t-196.5 89q-116 0 -189 -86t-73 -243q0 -158 77 -254t192 -96zM494 1237l-209 285h186l139 -183l138 183h188l-213 -285h-229z" />
    <glyph glyph-name="uni0218" unicode="&#x218;" horiz-adv-x="1085" 
d="M457 -20q-179 0 -348 57v237q76 -31 173.5 -50t172.5 -19q125 0 194.5 51.5t69.5 136.5q0 42 -18.5 76t-56 61.5t-75 48t-94.5 47.5q-4 1 -5.5 2t-4.5 2.5t-5.5 2.5t-4.5 2q-45 21 -74.5 36t-71.5 39.5t-69 46.5t-57.5 54.5t-48 66.5t-29 78.5t-11.5 94.5
q0 190 135 296.5t373 106.5q180 0 320 -51v-223q-131 49 -310 49q-243 0 -243 -148q0 -28 8 -52.5t27 -46.5t36.5 -37.5t52 -35t56 -30t65.5 -31.5q40 -18 60 -27.5t58 -29t59 -33.5t52.5 -37.5t50 -44.5t40 -51t32.5 -61t19 -70t8 -82q0 -203 -141.5 -317.5t-394.5 -114.5z
M324 -512l86 410h256l-146 -410h-196z" />
    <glyph glyph-name="uni0219" unicode="&#x219;" horiz-adv-x="962" 
d="M434 -18q-185 0 -325 55v201q168 -66 309 -66q91 0 135.5 31t44.5 78q0 16 -5 30t-17 26.5t-23.5 21.5t-34 21t-37.5 19t-45 20t-47 21q-50 22 -84 39.5t-76 47.5t-67 62.5t-42.5 79.5t-17.5 103q0 144 111.5 222.5t302.5 78.5q146 0 297 -49v-195q-122 52 -266 52
q-93 0 -140 -27t-47 -74q0 -15 4 -28.5t16.5 -26t21 -20.5t31 -20.5t32.5 -17.5t41 -19t41 -19q11 -5 48.5 -21.5t51.5 -23.5l47 -23.5t47.5 -28.5t39.5 -32t37 -39.5t25.5 -44.5t19 -55t5.5 -64q0 -153 -116.5 -234t-317.5 -81zM276 -469l89 367h243l-147 -367h-185z" />
    <glyph glyph-name="uni021A" unicode="&#x21a;" horiz-adv-x="1146" 
d="M442 0v1212h-409v222h1081v-222h-409v-1212h-263zM375 -512l86 410h256l-146 -410h-196z" />
    <glyph glyph-name="uni021B" unicode="&#x21b;" horiz-adv-x="778" 
d="M696 1055v-201h-225v-492q0 -172 143 -172q33 0 91 15v-207q-85 -16 -146 -16q-162 0 -251 87.5t-89 252.5v532h-170v201h170v245l252 80v-325h225zM244 -469l88 367h243l-147 -367h-184z" />
    <glyph glyph-name="uni0237" unicode="&#x237;" horiz-adv-x="593" 
d="M76 -463q-61 0 -115 12v201q2 0 12.5 -2t27 -4t30.5 -2q71 0 106 47t35 148v1118h252v-1121q0 -218 -84.5 -307.5t-263.5 -89.5z" />
    <glyph glyph-name="uni0259" unicode="&#x259;" horiz-adv-x="1177" 
d="M98 522v64h731q-15 144 -91 215t-220 71q-85 0 -180.5 -18.5t-169.5 -50.5v207q176 63 358 63q271 0 416 -148t145 -411q0 -242 -140 -387t-359 -145q-236 0 -363 138.5t-127 401.5zM580 182q102 0 166.5 64.5t82.5 175.5h-481q-1 -111 62.5 -175.5t169.5 -64.5z" />
    <glyph glyph-name="uni02BC" unicode="&#x2bc;" horiz-adv-x="614" 
d="M143 1196l86 358h248l-147 -358h-187z" />
    <glyph glyph-name="circumflex" unicode="&#x2c6;" 
d="M84 1237l213 285h229l209 -285h-184l-141 184l-142 -184h-184z" />
    <glyph glyph-name="caron" unicode="&#x2c7;" 
d="M293 1237l-209 285h186l140 -183l137 183h188l-213 -285h-229z" />
    <glyph glyph-name="uni02C9" unicode="&#x2c9;" 
d="M131 1581v152h645v-152h-645z" />
    <glyph glyph-name="breve" unicode="&#x2d8;" 
d="M410 1217q-145 0 -236 82.5t-102 222.5h151q12 -67 58 -110.5t129 -43.5q84 0 129 44t57 110h152q-10 -141 -101.5 -223t-236.5 -82z" />
    <glyph glyph-name="dotaccent" unicode="&#x2d9;" 
d="M276 1251v236h267v-236h-267z" />
    <glyph glyph-name="ring" unicode="&#x2da;" 
d="M410 1174q-91 0 -153 62t-62 153t62 153t153 62t153 -62t62 -153t-62 -153t-153 -62zM410 1270q49 0 83.5 34.5t34.5 84.5q0 49 -34 83.5t-84 34.5t-84.5 -34.5t-34.5 -83.5t34.5 -84t84.5 -35z" />
    <glyph glyph-name="ogonek" unicode="&#x2db;" 
d="M387 -455q-105 0 -157 48t-52 133q0 176 305 325l84 -51q-121 -84 -167 -139t-46 -105q0 -38 21.5 -61t58.5 -23q58 0 96 23l31 -113q-80 -37 -174 -37z" />
    <glyph glyph-name="tilde" unicode="&#x2dc;" 
d="M59 1255q8 106 59.5 177t143.5 71q33 0 66 -9.5t98 -37.5q6 -3 27.5 -12t34.5 -14t33.5 -10t39.5 -5q71 0 84 88h117q-12 -109 -62.5 -178.5t-142.5 -69.5q-44 0 -160 48q-6 2 -26 10.5t-29 12t-25 8.5t-30 7t-29 2q-72 0 -84 -88h-115z" />
    <glyph glyph-name="hungarumlaut" unicode="&#x2dd;" 
d="M506 1237l168 285h266l-266 -285h-168zM102 1237l164 285h269l-265 -285h-168z" />
    <glyph glyph-name="gravecomb" unicode="&#x300;" 
d="M319 1237l-231 285h287l137 -285h-193z" />
    <glyph glyph-name="acutecomb" unicode="&#x301;" 
d="M313 1237l150 285h285l-252 -285h-183z" />
    <glyph glyph-name="uni0302" unicode="&#x302;" 
d="M84 1237l213 285h229l209 -285h-184l-141 184l-142 -184h-184z" />
    <glyph glyph-name="tildecomb" unicode="&#x303;" 
d="M59 1255q8 106 59.5 177t143.5 71q33 0 66 -9.5t98 -37.5q6 -3 27.5 -12t34.5 -14t33.5 -10t39.5 -5q71 0 84 88h117q-12 -109 -62.5 -178.5t-142.5 -69.5q-44 0 -160 48q-6 2 -26 10.5t-29 12t-25 8.5t-30 7t-29 2q-72 0 -84 -88h-115z" />
    <glyph glyph-name="uni0307" unicode="&#x307;" 
d="M276 1251v236h267v-236h-267z" />
    <glyph glyph-name="uni0308" unicode="&#x308;" 
d="M502 1262v225h223v-225h-223zM94 1262v225h223v-225h-223z" />
    <glyph glyph-name="uni030A" unicode="&#x30a;" 
d="M410 1174q-91 0 -153 62t-62 153t62 153t153 62t153 -62t62 -153t-62 -153t-153 -62zM410 1270q49 0 83.5 34.5t34.5 84.5q0 49 -34 83.5t-84 34.5t-84.5 -34.5t-34.5 -83.5t34.5 -84t84.5 -35z" />
    <glyph glyph-name="uni0327" unicode="&#x327;" 
d="M385 -397q-83 0 -149 51l43 88q50 -31 88 -31q36 0 60 18.5t24 53.5q0 33 -25 50t-66 17q-28 0 -55 -6l31 174h115l-15 -81q152 -3 152 -150q0 -82 -57 -133t-146 -51z" />
    <glyph glyph-name="uni0394" unicode="&#x394;" horiz-adv-x="1433" 
d="M29 0l553 1434h274l549 -1434h-1376zM356 205h682l-338 960z" />
    <glyph glyph-name="uni03A9" unicode="&#x3a9;" horiz-adv-x="1556" 
d="M119 0l-17 293l162 6l15 -104h219v77q-175 49 -281 193.5t-106 355.5q0 294 179.5 466.5t487.5 172.5q311 0 489.5 -174t178.5 -465q0 -208 -106.5 -355t-280.5 -194v-77h217l12 104l166 -6l-16 -293h-574v385q150 23 231 139t81 287q0 199 -107.5 318.5t-290.5 119.5
q-187 0 -292 -118.5t-105 -319.5q0 -173 80.5 -288t232.5 -138v-385h-575z" />
    <glyph glyph-name="mu" unicode="&#x3bc;" horiz-adv-x="1228" 
d="M154 -451v1506h252v-551q0 -166 46 -237.5t136 -71.5q111 0 173 94t62 276v490h252v-1055h-241v168h-5q-100 -182 -288 -182q-65 0 -133 30l-2 -2v-465h-252z" />
    <glyph glyph-name="pi" unicode="&#x3c0;" horiz-adv-x="1341" 
d="M1176 -18q-283 0 -283 280v594h-412v-856h-252v850h-14q-28 0 -78 -21t-82 -57l-104 152q61 65 153 98t199 33h967v-199h-125v-528q0 -68 14 -101.5t36 -41t65 -5.5v-190q-33 -8 -84 -8z" />
    <glyph glyph-name="uni0401" unicode="&#x401;" horiz-adv-x="1105" 
d="M172 0v1434h827v-222h-565v-362h531v-221h-531v-408h570v-221h-832zM244 1530v229h243v-229h-243zM696 1530v229h246v-229h-246z" />
    <glyph glyph-name="uni0402" unicode="&#x402;" horiz-adv-x="1454" 
d="M1122 1434v-222h-544v-383q164 89 331 89q113 0 202 -37.5t144 -104t83 -152.5t28 -188q0 -206 -110.5 -422t-297.5 -356l-161 160q135 106 221 279t86 329q0 128 -63 203.5t-191 75.5q-131 0 -272 -84v-621h-263v1212h-280v222h1087z" />
    <glyph glyph-name="uni0403" unicode="&#x403;" horiz-adv-x="1064" 
d="M172 0v1434h827v-222h-567v-1212h-260zM432 1530l139 262h287l-233 -262h-193z" />
    <glyph glyph-name="uni0404" unicode="&#x404;" horiz-adv-x="1310" 
d="M893 205q40 0 80.5 4t70.5 9.5t63 13.5t49 13.5t38 13t23 7.5v-235q-174 -51 -336 -51q-369 0 -578 198t-209 539q0 339 205.5 538t560.5 199q210 0 357 -61v-238q-2 1 -17 7t-25.5 10.5t-32.5 12t-41 13t-47.5 12t-55.5 10.5t-60.5 6.5t-67.5 2.5q-196 0 -327 -99.5
t-164 -283.5h577v-221h-579q28 -202 162 -311t354 -109z" />
    <glyph glyph-name="uni0405" unicode="&#x405;" horiz-adv-x="1085" 
d="M457 -20q-179 0 -348 57v237q76 -31 173.5 -50t172.5 -19q125 0 194.5 51.5t69.5 136.5q0 42 -18.5 76t-56 61.5t-75 48t-94.5 47.5q-4 1 -5.5 2t-4.5 2.5t-5.5 2.5t-4.5 2q-45 21 -74.5 36t-71.5 39.5t-69 46.5t-57.5 54.5t-48 66.5t-29 78.5t-11.5 94.5
q0 190 135 296.5t373 106.5q180 0 320 -51v-223q-131 49 -310 49q-243 0 -243 -148q0 -28 8 -52.5t27 -46.5t36.5 -37.5t52 -35t56 -30t65.5 -31.5q40 -18 60 -27.5t58 -29t59 -33.5t52.5 -37.5t50 -44.5t40 -51t32.5 -61t19 -70t8 -82q0 -203 -141.5 -317.5t-394.5 -114.5z
" />
    <glyph glyph-name="uni0406" unicode="&#x406;" horiz-adv-x="634" 
d="M186 0v1434h263v-1434h-263z" />
    <glyph glyph-name="uni0407" unicode="&#x407;" horiz-adv-x="634" 
d="M186 0v1434h263v-1434h-263zM51 1530v229h217v-229h-217zM367 1530v229h219v-229h-219z" />
    <glyph glyph-name="uni0408" unicode="&#x408;" horiz-adv-x="778" 
d="M190 -20q-101 0 -157 20v219q63 -18 114 -18q113 0 157 73t44 215v945h262v-1026q0 -214 -107.5 -321t-312.5 -107z" />
    <glyph glyph-name="uni0409" unicode="&#x409;" horiz-adv-x="1945" 
d="M45 -4v215q1 0 9 -2t20.5 -4t23.5 -2q40 0 68.5 19t50.5 65.5t35.5 114.5t22 177t11.5 241.5t3 318.5v295h897v-529h170q260 0 394 -116t134 -334q0 -220 -134 -337.5t-394 -117.5h-432v1212h-383v-86q0 -227 -7 -391t-24.5 -296t-45.5 -216t-71.5 -140.5t-100 -79.5
t-134.5 -23q-49 0 -113 16zM1186 215h164q262 0 262 240q0 235 -262 235h-164v-475z" />
    <glyph glyph-name="uni040A" unicode="&#x40a;" horiz-adv-x="1945" 
d="M172 0v1434h262v-560h504v560h262v-560h162q256 0 389 -113t133 -327q0 -211 -133 -322.5t-389 -111.5h-424v653h-504v-653h-262zM1200 221h160q124 0 187 54t63 159q0 219 -250 219h-160v-432z" />
    <glyph glyph-name="uni040B" unicode="&#x40b;" horiz-adv-x="1495" 
d="M1122 1434v-222h-544v-366q191 72 366 72q449 0 449 -424v-494h-263v424q0 145 -57.5 210.5t-198.5 65.5q-154 0 -296 -61v-639h-263v1212h-280v222h1087z" />
    <glyph glyph-name="uni040C" unicode="&#x40c;" horiz-adv-x="1320" 
d="M172 0v1434h262v-576h158l381 576h305l-463 -676l500 -758h-314l-403 637h-164v-637h-262zM561 1530l139 262h287l-233 -262h-193z" />
    <glyph glyph-name="uni040E" unicode="&#x40e;" horiz-adv-x="1269" 
d="M221 229q82 -30 133 -30q114 0 170 129l-504 1106h281l342 -805h10l322 805h274l-491 -1131q-77 -176 -159.5 -249.5t-217.5 -73.5q-83 0 -160 30v219zM635 1507q-153 0 -248 75.5t-102 223.5h190q12 -127 160 -127t160 127h190q-7 -148 -102 -223.5t-248 -75.5z" />
    <glyph glyph-name="uni040F" unicode="&#x40f;" horiz-adv-x="1443" 
d="M596 -324v324h-424v1434h262v-1213h576v1213h262v-1434h-424v-324h-252z" />
    <glyph glyph-name="uni0410" unicode="&#x410;" horiz-adv-x="1413" 
d="M25 0l536 1434h291l537 -1434h-287l-113 328h-577l-113 -328h-274zM700 1155l-215 -614h430l-210 614h-5z" />
    <glyph glyph-name="uni0411" unicode="&#x411;" horiz-adv-x="1249" 
d="M172 0v1434h895v-222h-635v-319h213q531 0 531 -449q0 -217 -132 -330.5t-385 -113.5h-487zM432 221h205q268 0 268 221q0 230 -258 230h-215v-451z" />
    <glyph glyph-name="uni0412" unicode="&#x412;" horiz-adv-x="1249" 
d="M172 0v1434h467q248 0 372 -94t124 -273q0 -124 -67.5 -207.5t-199.5 -118.5v-4q308 -62 308 -344q0 -393 -525 -393h-479zM434 221h209q260 0 260 203q0 211 -264 211h-205v-414zM434 840h174q260 0 260 194q0 91 -70 134.5t-241 43.5h-123v-372z" />
    <glyph glyph-name="uni0413" unicode="&#x413;" horiz-adv-x="1064" 
d="M172 0v1434h827v-222h-567v-1212h-260z" />
    <glyph glyph-name="uni0414" unicode="&#x414;" horiz-adv-x="1525" 
d="M18 -324v545h142q97 170 125 351.5t28 492.5v369h996v-1213h161v-545h-251v324h-949v-324h-252zM565 1120q0 -140 -4 -239.5t-17.5 -231t-46 -239.5t-83.5 -189h635v991h-484v-92z" />
    <glyph glyph-name="uni0415" unicode="&#x415;" horiz-adv-x="1105" 
d="M172 0v1434h827v-222h-565v-362h531v-221h-531v-408h570v-221h-832z" />
    <glyph glyph-name="uni0416" unicode="&#x416;" horiz-adv-x="1925" 
d="M1604 0l-381 635h-133v-635h-254v635h-134l-380 -635h-312l477 758l-442 676h303l361 -578h127v578h254v-578h124l363 578h303l-442 -676l477 -758h-311z" />
    <glyph glyph-name="uni0417" unicode="&#x417;" horiz-adv-x="1105" 
d="M487 -20q-213 0 -417 77v232q1 -1 16 -6.5t28.5 -11t39 -13.5t49.5 -15t57.5 -14t67 -12t73.5 -8.5t80 -3.5q285 0 285 213q0 217 -291 217h-164v207h135q281 0 281 200q0 187 -268 187q-77 0 -159.5 -17t-120.5 -30t-64 -25v229q198 68 360 68q257 0 388.5 -102.5
t131.5 -276.5q0 -117 -64.5 -201.5t-189.5 -130.5v-2q146 -33 220.5 -120.5t74.5 -217.5q0 -185 -145.5 -304t-403.5 -119z" />
    <glyph glyph-name="uni0418" unicode="&#x418;" horiz-adv-x="1515" 
d="M172 0v1434h262v-918l-4 -166h6l72 135l520 949h315v-1434h-262v905l4 185h-6l-69 -138l-523 -952h-315z" />
    <glyph glyph-name="uni0419" unicode="&#x419;" horiz-adv-x="1515" 
d="M172 0v1434h262v-918l-4 -166h6l72 135l520 949h315v-1434h-262v905l4 185h-6l-69 -138l-523 -952h-315zM758 1507q-153 0 -248 75.5t-102 223.5h190q12 -127 160 -127t160 127h190q-7 -148 -102 -223.5t-248 -75.5z" />
    <glyph glyph-name="uni041A" unicode="&#x41a;" horiz-adv-x="1320" 
d="M172 0v1434h262v-576h158l381 576h305l-463 -676l500 -758h-314l-403 637h-164v-637h-262z" />
    <glyph glyph-name="uni041B" unicode="&#x41b;" horiz-adv-x="1474" 
d="M158 -20q-49 0 -113 16v217q20 -10 57 -10q39 0 67 19t49 65.5t34.5 114.5t22 177t11.5 241.5t3 318.5v295h1014v-1434h-263v1212h-499v-86q0 -227 -7 -391t-24.5 -296t-45.5 -216t-71.5 -140.5t-100 -79.5t-134.5 -23z" />
    <glyph glyph-name="uni041C" unicode="&#x41c;" horiz-adv-x="1761" 
d="M172 0v1434h375l336 -768l348 768h358v-1434h-262v1083h-8l-334 -704h-213l-328 704h-10v-1083h-262z" />
    <glyph glyph-name="uni041D" unicode="&#x41d;" horiz-adv-x="1474" 
d="M172 0v1434h262v-582h606v582h263v-1434h-263v631h-606v-631h-262z" />
    <glyph glyph-name="uni041E" unicode="&#x41e;" horiz-adv-x="1536" 
d="M768 -20q-210 0 -363.5 93t-232 259t-78.5 385q0 335 180 536t494 201q211 0 364.5 -93.5t231.5 -259t78 -384.5q0 -222 -79.5 -388t-232.5 -257.5t-362 -91.5zM768 205q96 0 173 40.5t126 111t74.5 162.5t25.5 198q0 146 -44.5 260t-136.5 183t-218 69q-96 0 -173 -40.5
t-126 -111t-74.5 -162.5t-25.5 -198q0 -145 44 -259t136 -183.5t219 -69.5z" />
    <glyph glyph-name="uni041F" unicode="&#x41f;" horiz-adv-x="1454" 
d="M172 0v1434h1110v-1434h-262v1212h-586v-1212h-262z" />
    <glyph glyph-name="uni0420" unicode="&#x420;" horiz-adv-x="1228" 
d="M172 0v1434h471q265 0 398 -119t133 -340q0 -228 -131.5 -351.5t-399.5 -123.5h-209v-500h-262zM434 721h203q264 0 264 252q0 239 -264 239h-203v-491z" />
    <glyph glyph-name="uni0421" unicode="&#x421;" horiz-adv-x="1290" 
d="M858 -20q-182 0 -326.5 53.5t-240.5 150.5t-146.5 232.5t-50.5 300.5q0 341 206.5 539t549.5 198q86 0 171 -14t127 -28l42 -15v-234q-182 66 -330 66q-225 0 -358 -135.5t-133 -378.5t134.5 -376.5t362.5 -133.5q160 0 324 53v-233q-167 -45 -332 -45z" />
    <glyph glyph-name="uni0422" unicode="&#x422;" horiz-adv-x="1146" 
d="M442 0v1212h-409v222h1081v-222h-409v-1212h-263z" />
    <glyph glyph-name="uni0423" unicode="&#x423;" horiz-adv-x="1269" 
d="M221 229q82 -30 133 -30q114 0 170 129l-504 1106h281l342 -805h10l322 805h274l-491 -1131q-77 -176 -159.5 -249.5t-217.5 -73.5q-83 0 -160 30v219z" />
    <glyph glyph-name="uni0424" unicode="&#x424;" horiz-adv-x="1781" 
d="M760 -20v172h-47q-291 0 -465 161t-174 424t173.5 424.5t465.5 161.5h47v170h262v-170h47q292 0 465.5 -161.5t173.5 -424.5t-174 -424t-465 -161h-47v-172h-262zM723 362h41v750h-41q-180 0 -277.5 -95.5t-97.5 -279.5t97.5 -279.5t277.5 -95.5zM1018 362h41
q181 0 278 95t97 280t-97 280t-278 95h-41v-750z" />
    <glyph glyph-name="uni0425" unicode="&#x425;" horiz-adv-x="1413" 
d="M1057 0l-363 557l-348 -557h-311l502 748l-455 686h315l320 -502l319 502h297l-456 -684l501 -750h-321z" />
    <glyph glyph-name="uni0426" unicode="&#x426;" horiz-adv-x="1505" 
d="M1198 -324v324h-1026v1434h262v-1213h592v1213h262v-1213h162v-545h-252z" />
    <glyph glyph-name="uni0427" unicode="&#x427;" horiz-adv-x="1331" 
d="M897 0v569q-158 -41 -319 -41q-234 0 -355 106.5t-121 319.5v480h263v-437q0 -139 61 -195.5t205 -56.5q140 0 266 37v652h262v-1434h-262z" />
    <glyph glyph-name="uni0428" unicode="&#x428;" horiz-adv-x="1974" 
d="M172 0v1434h262v-1213h422v1213h262v-1213h422v1213h262v-1434h-1630z" />
    <glyph glyph-name="uni0429" unicode="&#x429;" horiz-adv-x="2027" 
d="M172 0v1434h262v-1213h422v1213h262v-1213h422v1213h262v-1213h170v-545h-252v324h-1548z" />
    <glyph glyph-name="uni042A" unicode="&#x42a;" horiz-adv-x="1351" 
d="M315 0v1212h-280v222h543v-508h184q528 0 528 -465q0 -222 -131.5 -341.5t-396.5 -119.5h-447zM578 221h184q256 0 256 240q0 244 -256 244h-184v-484z" />
    <glyph glyph-name="uni042B" unicode="&#x42b;" horiz-adv-x="1792" 
d="M172 0v1434h262v-512h174q522 0 522 -463q0 -220 -130 -339.5t-392 -119.5h-436zM434 221h115q165 0 236 59t71 179q0 241 -248 241h-174v-479zM1358 0v1434h262v-1434h-262z" />
    <glyph glyph-name="uni042C" unicode="&#x42c;" horiz-adv-x="1208" 
d="M172 0v1434h262v-508h184q529 0 529 -465q0 -221 -132 -341t-397 -120h-446zM434 221h184q256 0 256 240q0 244 -256 244h-184v-484z" />
    <glyph glyph-name="uni042D" unicode="&#x42d;" horiz-adv-x="1310" 
d="M418 205q220 0 354 109t162 311h-580v221h578q-33 183 -164.5 283t-327.5 100q-34 0 -67.5 -2.5t-60.5 -6.5t-55 -10.5t-47 -12t-41 -13t-32.5 -12t-25.5 -10.5t-17 -7v238q147 61 357 61q355 0 560.5 -199t205.5 -538q0 -341 -209 -539t-578 -198q-162 0 -336 51v235
q1 0 23 -7.5t38 -13t49 -13.5t63 -13.5t70.5 -9.5t80.5 -4z" />
    <glyph glyph-name="uni042E" unicode="&#x42e;" horiz-adv-x="2037" 
d="M1276 -20q-285 0 -458 179t-195 472h-189v-631h-262v1434h262v-582h195q37 283 209.5 442.5t437.5 159.5q156 0 282.5 -54t211 -151t129.5 -233t45 -299q0 -219 -78 -385t-230 -259t-360 -93zM1276 205q95 0 171 41t123.5 112.5t72 163t24.5 195.5q0 145 -43.5 259.5
t-133.5 183.5t-214 69q-126 0 -216 -70.5t-132.5 -184.5t-42.5 -257q0 -145 42.5 -258.5t132.5 -183.5t216 -70z" />
    <glyph glyph-name="uni042F" unicode="&#x42f;" horiz-adv-x="1290" 
d="M27 0l319 569q-244 120 -244 400q0 221 138.5 343t402.5 122h475v-1434h-262v506h-246q-14 0 -20 2l-258 -508h-305zM647 719h209v493h-209q-132 0 -202 -62.5t-70 -182.5t70 -184t202 -64z" />
    <glyph glyph-name="uni0430" unicode="&#x430;" horiz-adv-x="1142" 
d="M418 -18q-156 0 -252 84.5t-96 234.5q0 180 137 267t393 87h168v29q0 98 -70 143t-188 45q-173 0 -342 -73v211q176 63 379 63q224 0 347.5 -101.5t123.5 -316.5v-655h-246l2 162h-4q-57 -90 -151.5 -135t-200.5 -45zM496 170q116 0 194 80t78 188v58h-152
q-146 0 -215 -48.5t-69 -132.5q0 -70 45 -107.5t119 -37.5z" />
    <glyph glyph-name="uni0431" unicode="&#x431;" horiz-adv-x="1269" 
d="M649 -18q-122 0 -217 35.5t-159 100t-105.5 161t-59.5 213t-18 260.5q0 133 16.5 239t55.5 200.5t102 162.5t158.5 116t222.5 70q67 14 210.5 22.5t246.5 36.5v-219q-86 -23 -233 -33t-162 -12q-196 -27 -286 -134.5t-99 -303.5l-3 -45h7q61 102 161 156.5t220 54.5
q217 0 345 -152.5t128 -384.5q0 -246 -147.5 -395t-383.5 -149zM645 176q122 0 197.5 99t75.5 247q0 147 -74.5 246.5t-198.5 99.5t-198 -99.5t-74 -246.5q0 -151 75.5 -248.5t196.5 -97.5z" />
    <glyph glyph-name="uni0432" unicode="&#x432;" horiz-adv-x="1120" 
d="M1018 784q0 -160 -178 -229v-4q215 -63 215 -246q0 -137 -105.5 -221t-294.5 -84h-501v1055h473q193 0 292 -74t99 -197zM406 184h206q172 0 172 138q0 143 -172 143h-206v-281zM406 633h178q81 0 123.5 33.5t42.5 89.5q0 55 -42.5 84.5t-123.5 29.5h-178v-237z" />
    <glyph glyph-name="uni0433" unicode="&#x433;" horiz-adv-x="890" 
d="M154 0v1055h680v-201h-428v-854h-252z" />
    <glyph glyph-name="uni0434" unicode="&#x434;" horiz-adv-x="1218" 
d="M23 199h122q69 120 92 262.5t23 402.5v191h782v-856h146v-496h-225v297h-715v-297h-225v496zM485 776q0 -189 -25 -332.5t-91 -248.5h422v659h-306v-78z" />
    <glyph glyph-name="uni0435" unicode="&#x435;" horiz-adv-x="1177" 
d="M1081 463h-735q41 -281 332 -281q162 0 334 64v-215q-185 -49 -355 -49q-272 0 -419.5 148t-147.5 411q0 241 142.5 386.5t365.5 145.5q232 0 357.5 -142.5t125.5 -410.5v-57zM598 872q-103 0 -167.5 -66.5t-82.5 -178.5h481q3 114 -61 179.5t-170 65.5z" />
    <glyph glyph-name="uni0436" unicode="&#x436;" horiz-adv-x="1679" 
d="M1366 0l-281 446h-122v-446h-246v446h-125l-281 -446h-301l369 553l-326 502h283l260 -416h121v416h246v-416h120l260 416h283l-326 -502l369 -553h-303z" />
    <glyph glyph-name="uni0437" unicode="&#x437;" horiz-adv-x="983" 
d="M420 -18q-83 0 -162.5 11t-115.5 20.5t-58 17.5v200q147 -51 303 -51q124 0 195 34t71 105q0 66 -62.5 103t-174.5 37h-154v170h137q107 0 162 34t55 93q0 64 -60 92.5t-159 28.5q-139 0 -282 -43v196q145 43 323 43q204 0 321.5 -73.5t117.5 -208.5q0 -172 -191 -240v-2
q108 -25 167.5 -91.5t59.5 -164.5q0 -147 -132 -229t-361 -82z" />
    <glyph glyph-name="uni0438" unicode="&#x438;" horiz-adv-x="1259" 
d="M154 0v1055h252v-723h4l424 723h272v-1055h-252v725h-4l-426 -725h-270z" />
    <glyph glyph-name="uni0439" unicode="&#x439;" horiz-adv-x="1259" 
d="M154 0v1055h252v-723h4l424 723h272v-1055h-252v725h-4l-426 -725h-270zM635 1241q-142 0 -235 74t-99 219h182q8 -63 47 -97t105 -34q128 0 147 131h179q-6 -146 -95 -219.5t-231 -73.5z" />
    <glyph glyph-name="uni043A" unicode="&#x43a;" horiz-adv-x="1157" 
d="M154 0v1055h252v-410h147l270 410h283l-340 -502l381 -553h-301l-293 444h-147v-444h-252z" />
    <glyph glyph-name="uni043B" unicode="&#x43b;" horiz-adv-x="1208" 
d="M131 -20q-53 0 -102 14v207q1 0 9.5 -2t21 -4t24.5 -2q96 0 130 156t34 546v160h809v-1055h-252v854h-332v-70q0 -415 -79 -609.5t-263 -194.5z" />
    <glyph glyph-name="uni043C" unicode="&#x43c;" horiz-adv-x="1495" 
d="M154 0v1055h342l254 -566l260 566h331v-1055h-251v772h-7l-237 -522h-197l-239 522h-4v-772h-252z" />
    <glyph glyph-name="uni043D" unicode="&#x43d;" horiz-adv-x="1249" 
d="M154 0v1055h252v-408h438v408h252v-1055h-252v446h-438v-446h-252z" />
    <glyph glyph-name="uni043E" unicode="&#x43e;" horiz-adv-x="1269" 
d="M635 -18q-243 0 -394 149.5t-151 394.5t152 396t393 151q242 0 393.5 -151t151.5 -396q0 -246 -151 -395t-394 -149zM635 186q123 0 203 94t80 246t-80.5 247t-202.5 95q-123 0 -203 -95.5t-80 -246.5q0 -153 80.5 -246.5t202.5 -93.5z" />
    <glyph glyph-name="uni043F" unicode="&#x43f;" horiz-adv-x="1228" 
d="M154 0v1055h921v-1055h-252v854h-417v-854h-252z" />
    <glyph glyph-name="uni0440" unicode="&#x440;" horiz-adv-x="1290" 
d="M406 137v-588h-252v1506h237v-150h4q67 88 158 128t184 40q144 0 250 -72t159.5 -193t53.5 -273q0 -156 -55.5 -281t-162 -198.5t-245.5 -73.5q-110 0 -196.5 45t-134.5 110zM668 176q122 0 196 98t74 263q0 153 -73 245t-193 92q-124 0 -198.5 -95t-74.5 -255
q0 -159 74 -253.5t195 -94.5zM436 125l-30 35v-13z" />
    <glyph glyph-name="uni0441" unicode="&#x441;" horiz-adv-x="993" 
d="M631 -18q-251 0 -396 147.5t-145 396.5q0 246 145 396.5t394 150.5q140 0 262 -39v-198q-1 0 -22 6.5t-37.5 10.5t-43.5 9.5t-57.5 8.5t-62.5 3q-154 0 -235 -88t-81 -258q0 -173 85 -260.5t237 -87.5q101 0 219 41v-203q-1 0 -11.5 -3t-22 -6t-30 -7t-39.5 -7
l-45.5 -6.5t-54 -5t-59.5 -1.5z" />
    <glyph glyph-name="uni0442" unicode="&#x442;" horiz-adv-x="983" 
d="M365 0v854h-334v201h921v-201h-334v-854h-253z" />
    <glyph glyph-name="uni0443" unicode="&#x443;" horiz-adv-x="1126" 
d="M266 -459q-28 0 -53 2.5t-44.5 6t-27.5 4.5v202q64 -8 84 -8q77 0 122 39t75 125l10 33l-405 1110h276l258 -807h8l271 807h260l-412 -1102q-44 -117 -82.5 -190.5t-88 -126t-109.5 -74t-142 -21.5z" />
    <glyph glyph-name="uni0444" unicode="&#x444;" horiz-adv-x="1617" 
d="M627 -18q-247 0 -392 142.5t-145 399.5q0 256 142.5 402.5t385.5 146.5q20 0 66 -4v481h250v-481q46 4 70 4q245 0 384.5 -140.5t139.5 -402.5q0 -252 -147 -400t-390 -148h-57v-435h-250v435h-57zM991 881q-29 0 -61 -7v-700h41q295 0 295 361q0 178 -72.5 262
t-202.5 84zM352 520q0 -176 77.5 -261t217.5 -85h41v703q-40 4 -57 4q-127 0 -203 -88t-76 -273z" />
    <glyph glyph-name="uni0445" unicode="&#x445;" horiz-adv-x="1105" 
d="M25 0l381 541l-351 514h301l215 -344l213 344h275l-344 -502l366 -553h-301l-227 371l-242 -371h-286z" />
    <glyph glyph-name="uni0446" unicode="&#x446;" horiz-adv-x="1228" 
d="M973 -297v297h-819v1055h252v-854h395v854h252v-854h145v-498h-225z" />
    <glyph glyph-name="uni0447" unicode="&#x447;" horiz-adv-x="1157" 
d="M752 0v389q-142 -27 -250 -27q-398 0 -398 328v365h252v-310q0 -110 44 -150t167 -40q104 0 185 16v484h252v-1055h-252z" />
    <glyph glyph-name="uni0448" unicode="&#x448;" horiz-adv-x="1761" 
d="M154 0v1055h252v-856h350v856h250v-856h350v856h252v-1055h-1454z" />
    <glyph glyph-name="uni0449" unicode="&#x449;" horiz-adv-x="1781" 
d="M154 0v1055h252v-854h348v854h250v-854h348v854h252v-854h147v-498h-225v297h-1372z" />
    <glyph glyph-name="uni044A" unicode="&#x44a;" horiz-adv-x="1167" 
d="M236 0v854h-213v201h464v-348h207q218 0 327 -94t109 -257q0 -164 -109 -260t-327 -96h-458zM672 510h-185v-313h185q100 0 148 41t48 116q0 73 -48.5 114.5t-147.5 41.5z" />
    <glyph glyph-name="uni044B" unicode="&#x44b;" horiz-adv-x="1587" 
d="M154 0v1055h252v-348h174q220 0 328 -94t108 -257q0 -167 -106 -261.5t-324 -94.5h-432zM403 197h158q98 0 146.5 41.5t48.5 115.5q0 73 -48.5 114.5t-146.5 41.5h-158v-313zM1182 0v1055h252v-1055h-252z" />
    <glyph glyph-name="uni044C" unicode="&#x44c;" horiz-adv-x="1085" 
d="M154 0v1055h252v-348h206q218 0 327.5 -94t109.5 -257q0 -164 -109.5 -260t-327.5 -96h-458zM590 510h-184v-313h184q100 0 148 41t48 116q0 73 -48.5 114.5t-147.5 41.5z" />
    <glyph glyph-name="uni044D" unicode="&#x44d;" horiz-adv-x="1024" 
d="M352 178q280 0 318 264h-420v189h420q-44 246 -320 246q-33 0 -66.5 -4t-61.5 -11t-48 -12.5t-40 -12.5t-23 -8v201q1 0 16 5t37.5 11t52.5 12.5t69 10.5t79 4q259 0 414 -143t155 -402q0 -256 -151.5 -401t-420.5 -145q-43 0 -84.5 4t-71.5 10.5t-52.5 12.5t-37 11
t-16.5 5v204q2 -1 27.5 -9.5t54.5 -17.5t76.5 -16.5t93.5 -7.5z" />
    <glyph glyph-name="uni044E" unicode="&#x44e;" horiz-adv-x="1716" 
d="M154 0v1055h252v-414h194q32 200 169 316t339 116q230 0 374 -152t144 -395q0 -245 -144 -394.5t-374 -149.5q-213 0 -350 122t-162 336h-190v-440h-252zM1108 186q120 0 189 95.5t69 246.5q0 154 -70.5 247t-187.5 93q-121 0 -190.5 -93.5t-69.5 -246.5
q0 -155 69.5 -248.5t190.5 -93.5z" />
    <glyph glyph-name="uni044F" unicode="&#x44f;" horiz-adv-x="1146" 
d="M47 0l234 408q-179 100 -179 305q0 159 107.5 250.5t320.5 91.5h463v-1055h-252v352h-227l-182 -352h-285zM541 537h202v325h-202q-89 0 -135 -41t-46 -114q0 -77 47 -123.5t134 -46.5z" />
    <glyph glyph-name="uni0451" unicode="&#x451;" horiz-adv-x="1177" 
d="M1081 463h-735q41 -281 332 -281q162 0 334 64v-215q-185 -49 -355 -49q-272 0 -419.5 148t-147.5 411q0 241 142.5 386.5t365.5 145.5q232 0 357.5 -142.5t125.5 -410.5v-57zM598 872q-103 0 -167.5 -66.5t-82.5 -178.5h481q3 114 -61 179.5t-170 65.5zM276 1260v225
h224v-225h-224zM686 1260v225h223v-225h-223z" />
    <glyph glyph-name="uni0452" unicode="&#x452;" horiz-adv-x="1249" 
d="M-18 1239v154h172v157h252v-157h403v-154h-403v-184l-3 -160h7q121 178 340 178q180 0 277 -114.5t97 -331.5v-670q0 -224 -80.5 -322t-263.5 -98q-52 0 -106 12v201q2 0 12 -2t26 -4t31 -2q69 0 100 46t31 149v63h-2v553q0 165 -51 237t-153 72q-124 0 -193 -95
t-69 -278v-489h-252v1239h-172z" />
    <glyph glyph-name="uni0453" unicode="&#x453;" horiz-adv-x="890" 
d="M154 0v1055h680v-201h-428v-854h-252zM379 1237l149 285h285l-252 -285h-182z" />
    <glyph glyph-name="uni0454" unicode="&#x454;" horiz-adv-x="1024" 
d="M672 178q46 0 93.5 7.5t76.5 16.5t54.5 17.5t27.5 9.5v-204q-2 0 -16.5 -5t-37 -11t-52.5 -12.5t-71.5 -10.5t-84.5 -4q-269 0 -420.5 145t-151.5 401q0 259 155 402t414 143q40 0 79 -4t69 -10.5t52.5 -12.5t37.5 -11t16 -5v-201q-3 1 -23 8t-40 12.5t-48 12.5t-61.5 11
t-66.5 4q-276 0 -320 -246h420v-189h-420q38 -264 318 -264z" />
    <glyph glyph-name="uni0455" unicode="&#x455;" horiz-adv-x="962" 
d="M434 -18q-185 0 -325 55v201q168 -66 309 -66q91 0 135.5 31t44.5 78q0 16 -5 30t-17 26.5t-23.5 21.5t-34 21t-37.5 19t-45 20t-47 21q-50 22 -84 39.5t-76 47.5t-67 62.5t-42.5 79.5t-17.5 103q0 144 111.5 222.5t302.5 78.5q146 0 297 -49v-195q-122 52 -266 52
q-93 0 -140 -27t-47 -74q0 -15 4 -28.5t16.5 -26t21 -20.5t31 -20.5t32.5 -17.5t41 -19t41 -19q11 -5 48.5 -21.5t51.5 -23.5l47 -23.5t47.5 -28.5t39.5 -32t37 -39.5t25.5 -44.5t19 -55t5.5 -64q0 -153 -116.5 -234t-317.5 -81z" />
    <glyph glyph-name="uni0456" unicode="&#x456;" horiz-adv-x="593" 
d="M172 0v1055h252v-1055h-252zM164 1251v236h266v-236h-266z" />
    <glyph glyph-name="uni0457" unicode="&#x457;" horiz-adv-x="593" 
d="M172 0v1055h252v-1055h-252zM66 1262v225h190v-225h-190zM338 1262v225h190v-225h-190z" />
    <glyph glyph-name="uni0458" unicode="&#x458;" horiz-adv-x="593" 
d="M76 -463q-61 0 -115 12v201q2 0 12.5 -2t27 -4t30.5 -2q71 0 106 47t35 148v1118h252v-1121q0 -218 -84.5 -307.5t-263.5 -89.5zM164 1251v236h266v-236h-266z" />
    <glyph glyph-name="uni0459" unicode="&#x459;" horiz-adv-x="1689" 
d="M29 -6v207q1 0 9.5 -2t21 -4t24.5 -2q96 0 130 157.5t34 550.5v154h784v-381h182q221 0 330 -89.5t109 -246.5q0 -156 -109 -247t-330 -91h-434v854h-307v-70q0 -417 -77.5 -610.5t-262.5 -193.5q-55 0 -104 14zM1032 197h164q101 0 150 36.5t49 102.5q0 67 -49 104
t-150 37h-164v-280z" />
    <glyph glyph-name="uni045A" unicode="&#x45a;" horiz-adv-x="1689" 
d="M154 0v1055h252v-389h376v389h252v-389h172q224 0 335.5 -87.5t111.5 -244.5q0 -153 -107.5 -243.5t-328.5 -90.5h-435v469h-376v-469h-252zM1034 197h174q102 0 146.5 34t44.5 99q0 68 -44.5 103.5t-146.5 35.5h-174v-272z" />
    <glyph glyph-name="uni045B" unicode="&#x45b;" horiz-adv-x="1249" 
d="M-18 1239v154h172v157h252v-157h403v-154h-403v-184l-3 -160h7q121 178 340 178q180 0 277 -114.5t97 -331.5v-627h-252v553q0 165 -51 237t-153 72q-124 0 -193 -95t-69 -278v-489h-252v1239h-172z" />
    <glyph glyph-name="uni045C" unicode="&#x45c;" horiz-adv-x="1157" 
d="M154 0v1055h252v-410h147l270 410h283l-340 -502l381 -553h-301l-293 444h-147v-444h-252zM483 1237l150 285h285l-252 -285h-183z" />
    <glyph glyph-name="uni045E" unicode="&#x45e;" horiz-adv-x="1126" 
d="M266 -459q-28 0 -53 2.5t-44.5 6t-27.5 4.5v202q64 -8 84 -8q77 0 122 39t75 125l10 33l-405 1110h276l258 -807h8l271 807h260l-412 -1102q-44 -117 -82.5 -190.5t-88 -126t-109.5 -74t-142 -21.5zM563 1241q-142 0 -235 74t-99 219h183q8 -63 46.5 -97t104.5 -34
q129 0 148 131h178q-6 -146 -95 -219.5t-231 -73.5z" />
    <glyph glyph-name="uni045F" unicode="&#x45f;" horiz-adv-x="1218" 
d="M498 -297v297h-344v1055h252v-854h407v854h252v-1055h-342v-297h-225z" />
    <glyph glyph-name="uni0462" unicode="&#x462;" horiz-adv-x="1290" 
d="M-2 1063v172h256v199h260v-199h391v-172h-391v-152h188q527 0 527 -454q0 -219 -132 -338t-395 -119h-448v1063h-256zM514 215h188q254 0 254 240q0 121 -62.5 181t-191.5 60h-188v-481z" />
    <glyph glyph-name="uni0463" unicode="&#x463;" horiz-adv-x="1167" 
d="M23 854v201h213v495h251v-495h359v-201h-359v-172h207q219 0 327.5 -90t108.5 -248q0 -159 -109 -251.5t-327 -92.5h-458v854h-213zM487 197h185q198 0 198 143q0 69 -48.5 107t-149.5 38h-185v-288z" />
    <glyph glyph-name="uni0472" unicode="&#x472;" horiz-adv-x="1536" 
d="M768 -20q-210 0 -363.5 93t-232 259t-78.5 385q0 335 180 536t494 201q211 0 364.5 -93.5t231.5 -259t78 -384.5q0 -222 -79.5 -388t-232.5 -257.5t-362 -91.5zM768 205q171 0 273 119.5t122 310.5h-790q18 -192 120.5 -311t274.5 -119zM768 1229q-166 0 -268 -115
t-125 -297h786q-24 186 -125.5 299t-267.5 113z" />
    <glyph glyph-name="uni0473" unicode="&#x473;" horiz-adv-x="1269" 
d="M635 -18q-243 0 -394 149.5t-151 394.5t152 396t393 151q242 0 393.5 -151t151.5 -396q0 -246 -151 -395t-394 -149zM635 186q106 0 181.5 73t94.5 196h-555q20 -124 96 -196.5t183 -72.5zM635 868q-101 0 -175.5 -67t-99.5 -180h547q-23 113 -97.5 180t-174.5 67z" />
    <glyph glyph-name="uni0474" unicode="&#x474;" horiz-adv-x="1372" 
d="M512 0l-500 1434h297l369 -1158h8l275 906q83 272 313 272q46 0 96 -12v-215q-73 11 -109.5 -16.5t-66.5 -120.5l-358 -1090h-324z" />
    <glyph glyph-name="uni0475" unicode="&#x475;" horiz-adv-x="1136" 
d="M403 0l-383 1055h273l264 -807h6l187 563q46 144 113 204t173 60q54 0 115 -12v-203q-12 2 -37 2q-62 0 -93 -27.5t-58 -101.5l-261 -733h-299z" />
    <glyph glyph-name="uni0490" unicode="&#x490;" horiz-adv-x="1064" 
d="M172 0v1434h573v323h252v-323h2v-222h-567v-1212h-260z" />
    <glyph glyph-name="uni0491" unicode="&#x491;" horiz-adv-x="901" 
d="M154 0v1055h471v297h225v-498h-444v-854h-252z" />
    <glyph glyph-name="uni0492" unicode="&#x492;" horiz-adv-x="1105" 
d="M213 0v612h-190v172h190v650h827v-222h-567v-428h434v-172h-434v-612h-260z" />
    <glyph glyph-name="uni0493" unicode="&#x493;" horiz-adv-x="911" 
d="M174 0v408h-137v167h137v480h680v-201h-428v-279h297v-167h-297v-408h-252z" />
    <glyph glyph-name="uni0494" unicode="&#x494;" horiz-adv-x="1300" 
d="M811 -422q-83 0 -186 25v215q67 -19 133 -19q104 0 149 65t45 191v344q0 146 -54 211.5t-189 65.5q-140 0 -275 -53v-623h-262v1434h864v-222h-602v-381q175 62 342 62q220 0 329 -104.5t109 -319.5v-432q0 -459 -403 -459z" />
    <glyph glyph-name="uni0495" unicode="&#x495;" horiz-adv-x="1064" 
d="M154 0v1055h680v-201h-428v-274q106 32 223 32q77 0 140 -17.5t112.5 -54.5t76.5 -99.5t27 -145.5v-309q0 -236 -80.5 -342.5t-269.5 -106.5q-41 0 -107 12v201q24 -6 68 -6q73 0 105 48t32 167v281q0 178 -174 178q-67 0 -153 -25v-393h-252z" />
    <glyph glyph-name="uni0496" unicode="&#x496;" horiz-adv-x="1925" 
d="M322 0h-312l477 758l-442 676h303l361 -578h127v578h254v-578h124l363 578h303l-442 -676l338 -537h139v-545h-252v324h-59l-381 635h-133v-635h-254v635h-134z" />
    <glyph glyph-name="uni0497" unicode="&#x497;" horiz-adv-x="1699" 
d="M1366 0l-281 446h-122v-446h-246v446h-125l-281 -446h-301l369 553l-326 502h283l260 -416h121v416h246v-416h120l260 416h283l-326 -502l236 -352h133v-498h-225v297h-78z" />
    <glyph glyph-name="uni0498" unicode="&#x498;" horiz-adv-x="1105" 
d="M647 -324h-252v308q-172 14 -325 73v232q1 -1 16 -6.5t28.5 -11t39 -13.5t49.5 -15t57.5 -14t67 -12t73.5 -8.5t80 -3.5q285 0 285 213q0 217 -291 217h-164v207h135q281 0 281 200q0 187 -268 187q-77 0 -159.5 -17t-120.5 -30t-64 -25v229q198 68 360 68
q257 0 388.5 -102.5t131.5 -276.5q0 -117 -64.5 -201.5t-189.5 -130.5v-2q146 -33 220.5 -120.5t74.5 -217.5q0 -153 -102 -263.5t-287 -145.5v-318z" />
    <glyph glyph-name="uni0499" unicode="&#x499;" horiz-adv-x="983" 
d="M580 -293h-226v277q-97 4 -169 19t-101 28v200q147 -51 303 -51q124 0 195 34t71 105q0 66 -62.5 103t-174.5 37h-154v170h137q107 0 162 34t55 93q0 64 -60 92.5t-159 28.5q-139 0 -282 -43v196q145 43 323 43q204 0 321.5 -73.5t117.5 -208.5q0 -172 -191 -240v-2
q108 -25 167.5 -91.5t59.5 -164.5q0 -119 -87.5 -196.5t-245.5 -102.5v-287z" />
    <glyph glyph-name="uni049A" unicode="&#x49a;" horiz-adv-x="1320" 
d="M172 0v1434h262v-576h158l381 576h305l-463 -676l354 -537h146v-545h-252v324h-62l-403 637h-164v-637h-262z" />
    <glyph glyph-name="uni049B" unicode="&#x49b;" horiz-adv-x="1177" 
d="M154 0v1055h252v-410h147l270 410h283l-340 -502l242 -352h139v-498h-225v297h-76l-293 444h-147v-444h-252z" />
    <glyph glyph-name="uni049C" unicode="&#x49c;" horiz-adv-x="1454" 
d="M1133 0l-404 637h-70v-252h-129v252h-96v-637h-262v1434h262v-576h96v238h129v-238h66l383 576h303l-463 -676l500 -758h-315z" />
    <glyph glyph-name="uni049D" unicode="&#x49d;" horiz-adv-x="1280" 
d="M965 0l-289 444h-60v-208h-129v208h-81v-444h-252v1055h252v-410h81v213h129v-213h60l274 410h277l-348 -502l391 -553h-305z" />
    <glyph glyph-name="uni04A0" unicode="&#x4a0;" horiz-adv-x="1464" 
d="M315 0v1212h-280v222h543v-576h157l381 576h305l-463 -676l500 -758h-313l-404 637h-163v-637h-263z" />
    <glyph glyph-name="uni04A1" unicode="&#x4a1;" horiz-adv-x="1239" 
d="M236 0v854h-213v201h464v-410h148l270 410h283l-340 -502l381 -553h-301l-293 444h-148v-444h-251z" />
    <glyph glyph-name="uni04A2" unicode="&#x4a2;" horiz-adv-x="1525" 
d="M1219 -324v324h-179v631h-606v-631h-262v1434h262v-582h606v582h263v-1213h167v-545h-251z" />
    <glyph glyph-name="uni04A3" unicode="&#x4a3;" horiz-adv-x="1269" 
d="M1014 -297v297h-170v446h-438v-446h-252v1055h252v-408h438v408h252v-854h143v-498h-225z" />
    <glyph glyph-name="uni04A4" unicode="&#x4a4;" horiz-adv-x="1884" 
d="M172 0v1434h262v-582h563v582h807v-222h-544v-1212h-263v631h-563v-631h-262z" />
    <glyph glyph-name="uni04A5" unicode="&#x4a5;" horiz-adv-x="1536" 
d="M154 0v1055h252v-408h407v408h666v-201h-414v-854h-252v446h-407v-446h-252z" />
    <glyph glyph-name="uni04AA" unicode="&#x4aa;" horiz-adv-x="1290" 
d="M877 -324h-252v328q-256 61 -393.5 248.5t-137.5 464.5q0 341 206.5 539t549.5 198q86 0 171 -14t127 -28l42 -15v-234q-182 66 -330 66q-225 0 -358 -135.5t-133 -378.5t134.5 -376.5t362.5 -133.5q160 0 324 53v-233q-159 -43 -313 -45v-304z" />
    <glyph glyph-name="uni04AB" unicode="&#x4ab;" horiz-adv-x="993" 
d="M672 -293h-226v299q-169 50 -262.5 186t-93.5 334q0 246 145 396.5t394 150.5q140 0 262 -39v-198q-1 0 -22 6.5t-37.5 10.5t-43.5 9.5t-57.5 8.5t-62.5 3q-154 0 -235 -88t-81 -258q0 -173 85 -260.5t237 -87.5q101 0 219 41v-203q-106 -30 -221 -34v-277z" />
    <glyph glyph-name="uni04AE" unicode="&#x4ae;" horiz-adv-x="1331" 
d="M16 1434h301l347 -635h8l346 635h299l-520 -899v-535h-262v541z" />
    <glyph glyph-name="uni04AF" unicode="&#x4af;" horiz-adv-x="1105" 
d="M20 1055h273l260 -791h14l269 791h249l-407 -1106v-400h-252v400z" />
    <glyph glyph-name="uni04B0" unicode="&#x4b0;" horiz-adv-x="1331" 
d="M225 596h277l-486 838h301l347 -635h8l346 635h299l-486 -838h295v-172h-329v-424h-262v424h-310v172z" />
    <glyph glyph-name="uni04B1" unicode="&#x4b1;" horiz-adv-x="1105" 
d="M20 1055h273l260 -791h14l269 791h249l-389 -1053h285v-166h-303v-287h-252v287h-299v166h279z" />
    <glyph glyph-name="uni04B2" unicode="&#x4b2;" horiz-adv-x="1413" 
d="M1057 0l-363 557l-348 -557h-311l502 748l-455 686h315l320 -502l319 502h297l-456 -684l352 -529h149v-545h-252v324h-69z" />
    <glyph glyph-name="uni04B3" unicode="&#x4b3;" horiz-adv-x="1126" 
d="M25 0l381 541l-351 514h301l215 -344l213 344h275l-344 -502l233 -352h148v-498h-226v297h-90l-227 371l-242 -371h-286z" />
    <glyph glyph-name="uni04B6" unicode="&#x4b6;" horiz-adv-x="1382" 
d="M897 0v569q-158 -41 -319 -41q-234 0 -355 106.5t-121 319.5v480h263v-437q0 -139 61 -195.5t205 -56.5q140 0 266 37v652h262v-1213h168v-545h-252v324h-178z" />
    <glyph glyph-name="uni04B7" unicode="&#x4b7;" horiz-adv-x="1177" 
d="M752 0v389q-142 -27 -250 -27q-398 0 -398 328v365h252v-310q0 -110 44 -150t167 -40q104 0 185 16v484h252v-854h143v-498h-225v297h-170z" />
    <glyph glyph-name="uni04B8" unicode="&#x4b8;" horiz-adv-x="1351" 
d="M580 993h131v-262q81 5 209 37v666h260v-1434h-260v555q-109 -24 -209 -33v-239h-131v235q-227 8 -352.5 114t-125.5 322v480h263v-455q0 -115 54.5 -174.5t160.5 -71.5v260z" />
    <glyph glyph-name="uni04B9" unicode="&#x4b9;" horiz-adv-x="1177" 
d="M502 797h129v-232q65 3 141 19v471h252v-1055h-252v399q-66 -14 -141 -20v-205h-129v199q-198 2 -298 79.5t-100 241.5v361h252v-305q0 -93 31 -132.5t115 -48.5v228z" />
    <glyph glyph-name="uni04BA" unicode="&#x4ba;" horiz-adv-x="1351" 
d="M434 1434v-588q191 72 367 72q448 0 448 -424v-494h-262v424q0 145 -57.5 210.5t-198.5 65.5q-155 0 -297 -61v-639h-262v1434h262z" />
    <glyph glyph-name="uni04BB" unicode="&#x4bb;" horiz-adv-x="1249" 
d="M154 0v1550h252v-495l-3 -160h7q121 178 340 178q180 0 277 -114.5t97 -331.5v-627h-252v553q0 165 -51 237t-153 72q-124 0 -193 -95t-69 -278v-489h-252z" />
    <glyph glyph-name="uni04C0" unicode="&#x4c0;" horiz-adv-x="634" 
d="M186 0v1434h263v-1434h-263z" />
    <glyph glyph-name="uni04C3" unicode="&#x4c3;" horiz-adv-x="1320" 
d="M172 0v1434h262v-576h117l444 576h303l-507 -652q103 -64 183.5 -131t132.5 -130t87.5 -121.5t53.5 -118t25 -107.5t7 -100q0 -230 -118 -361t-324 -131q-65 0 -185 21v221q55 -14 115 -14q113 0 181.5 68t68.5 196q0 142 -107.5 285.5t-347.5 277.5h-129v-637h-262z" />
    <glyph glyph-name="uni04C4" unicode="&#x4c4;" horiz-adv-x="1157" 
d="M154 0v1055h252v-410h149l270 410h281l-338 -502q360 -261 360 -600q0 -181 -102 -298.5t-270 -117.5q-42 0 -84 6v201q101 -7 150.5 50.5t49.5 156.5q0 133 -84 261.5t-221 231.5h-161v-444h-252z" />
    <glyph glyph-name="uni04C7" unicode="&#x4c7;" horiz-adv-x="1474" 
d="M879 -422q-95 0 -177 25v217q60 -19 125 -19q120 0 166.5 67.5t46.5 201.5v561h-606v-631h-262v1434h262v-582h606v582h263v-1416q0 -217 -106.5 -328.5t-317.5 -111.5z" />
    <glyph glyph-name="uni04C8" unicode="&#x4c8;" horiz-adv-x="1249" 
d="M748 -463q-61 0 -115 12v201q2 0 12.5 -2t26.5 -4t30 -2q72 0 107 47t35 148v509h-438v-446h-252v1055h252v-408h438v408h252v-1121q0 -218 -84.5 -307.5t-263.5 -89.5z" />
    <glyph glyph-name="uni04CF" unicode="&#x4cf;" horiz-adv-x="593" 
d="M170 0v1550h254v-1550h-254z" />
    <glyph glyph-name="uni04D0" unicode="&#x4d0;" horiz-adv-x="1413" 
d="M25 0l536 1434h291l537 -1434h-287l-113 328h-577l-113 -328h-274zM700 1155l-215 -614h430l-210 614h-5zM707 1507q-153 0 -248.5 75.5t-102.5 223.5h191q12 -127 160 -127q147 0 159 127h191q-7 -148 -102 -223.5t-248 -75.5z" />
    <glyph glyph-name="uni04D1" unicode="&#x4d1;" horiz-adv-x="1142" 
d="M418 -18q-156 0 -252 84.5t-96 234.5q0 180 137 267t393 87h168v29q0 98 -70 143t-188 45q-173 0 -342 -73v211q176 63 379 63q224 0 347.5 -101.5t123.5 -316.5v-655h-246l2 162h-4q-57 -90 -151.5 -135t-200.5 -45zM496 170q116 0 194 80t78 188v58h-152
q-146 0 -215 -48.5t-69 -132.5q0 -70 45 -107.5t119 -37.5zM578 1241q-142 0 -235 74t-99 219h182q8 -63 47 -97t105 -34q128 0 147 131h178q-6 -146 -94.5 -219.5t-230.5 -73.5z" />
    <glyph glyph-name="uni04D2" unicode="&#x4d2;" horiz-adv-x="1413" 
d="M25 0l536 1434h291l537 -1434h-287l-113 328h-577l-113 -328h-274zM700 1155l-215 -614h430l-210 614h-5zM358 1530v229h244v-229h-244zM811 1530v229h246v-229h-246z" />
    <glyph glyph-name="uni04D3" unicode="&#x4d3;" horiz-adv-x="1142" 
d="M418 -18q-156 0 -252 84.5t-96 234.5q0 180 137 267t393 87h168v29q0 98 -70 143t-188 45q-173 0 -342 -73v211q176 63 379 63q224 0 347.5 -101.5t123.5 -316.5v-655h-246l2 162h-4q-57 -90 -151.5 -135t-200.5 -45zM496 170q116 0 194 80t78 188v58h-152
q-146 0 -215 -48.5t-69 -132.5q0 -70 45 -107.5t119 -37.5zM258 1260v225h223v-225h-223zM668 1260v225h223v-225h-223z" />
    <glyph glyph-name="uni04D4" unicode="&#x4d4;" horiz-adv-x="1832" 
d="M-27 0l826 1434h930v-222h-537l18 -368h476v-221h-463l20 -402h488v-221h-736l-16 326h-533l-184 -326h-289zM932 1186l-367 -647h404l-33 647h-4z" />
    <glyph glyph-name="uni04D5" unicode="&#x4d5;" horiz-adv-x="1812" 
d="M547 1073q262 0 381 -147h4q126 147 334 147q215 0 332.5 -141t117.5 -402v-55h-698q17 -145 99.5 -221t221.5 -76q140 0 308 64v-209q-168 -51 -320 -51q-321 0 -455 231h-4q-78 -117 -192 -174t-242 -57q-164 0 -264 84t-100 235q0 336 546 336h166v47
q0 97 -74.5 143.5t-193.5 46.5q-169 0 -338 -73v207q165 65 371 65zM508 168q115 0 194.5 76t79.5 192v39h-147q-311 0 -311 -164q0 -67 51 -105t133 -38zM1255 879q-96 0 -156.5 -64.5t-78.5 -177.5h444q3 111 -55.5 176.5t-153.5 65.5z" />
    <glyph glyph-name="uni04D6" unicode="&#x4d6;" horiz-adv-x="1105" 
d="M172 0v1434h827v-222h-565v-362h531v-221h-531v-408h570v-221h-832zM592 1507q-153 0 -248 75.5t-102 223.5h190q12 -127 160 -127t160 127h190q-7 -148 -102 -223.5t-248 -75.5z" />
    <glyph glyph-name="uni04D7" unicode="&#x4d7;" horiz-adv-x="1177" 
d="M1081 463h-735q41 -281 332 -281q162 0 334 64v-215q-185 -49 -355 -49q-272 0 -419.5 148t-147.5 411q0 241 142.5 386.5t365.5 145.5q232 0 357.5 -142.5t125.5 -410.5v-57zM598 872q-103 0 -167.5 -66.5t-82.5 -178.5h481q3 114 -61 179.5t-170 65.5zM596 1241
q-142 0 -235 74t-99 219h182q8 -63 47 -97t105 -34q128 0 147 131h179q-6 -146 -95 -219.5t-231 -73.5z" />
    <glyph glyph-name="uni04D8" unicode="&#x4d8;" horiz-adv-x="1474" 
d="M94 705q0 50 2 77h1006q-14 208 -119 327.5t-303 119.5q-190 0 -404 -96v235q210 86 426 86q217 0 371 -92.5t230.5 -257t76.5 -387.5q0 -337 -171 -537t-472 -200q-151 0 -273 54.5t-202.5 151.5t-124 229.5t-43.5 289.5zM737 205q145 0 237 104t120 273h-713
q27 -171 118.5 -274t237.5 -103z" />
    <glyph glyph-name="uni04D9" unicode="&#x4d9;" horiz-adv-x="1177" 
d="M98 522v64h731q-15 144 -91 215t-220 71q-85 0 -180.5 -18.5t-169.5 -50.5v207q176 63 358 63q271 0 416 -148t145 -411q0 -242 -140 -387t-359 -145q-236 0 -363 138.5t-127 401.5zM580 182q102 0 166.5 64.5t82.5 175.5h-481q-1 -111 62.5 -175.5t169.5 -64.5z" />
    <glyph glyph-name="uni04DA" unicode="&#x4da;" horiz-adv-x="1474" 
d="M94 705q0 50 2 77h1006q-14 208 -119 327.5t-303 119.5q-190 0 -404 -96v235q210 86 426 86q217 0 371 -92.5t230.5 -257t76.5 -387.5q0 -337 -171 -537t-472 -200q-151 0 -273 54.5t-202.5 151.5t-124 229.5t-43.5 289.5zM737 205q145 0 237 104t120 273h-713
q27 -171 118.5 -274t237.5 -103zM389 1530v229h244v-229h-244zM842 1530v229h245v-229h-245z" />
    <glyph glyph-name="uni04DB" unicode="&#x4db;" horiz-adv-x="1177" 
d="M98 522v64h731q-15 144 -91 215t-220 71q-85 0 -180.5 -18.5t-169.5 -50.5v207q176 63 358 63q271 0 416 -148t145 -411q0 -242 -140 -387t-359 -145q-236 0 -363 138.5t-127 401.5zM580 182q102 0 166.5 64.5t82.5 175.5h-481q-1 -111 62.5 -175.5t169.5 -64.5z
M256 1260v225h223v-225h-223zM666 1260v225h223v-225h-223z" />
    <glyph glyph-name="uni04DC" unicode="&#x4dc;" horiz-adv-x="1925" 
d="M1604 0l-381 635h-133v-635h-254v635h-134l-380 -635h-312l477 758l-442 676h303l361 -578h127v578h254v-578h124l363 578h303l-442 -676l477 -758h-311zM614 1530v229h244v-229h-244zM1067 1530v229h246v-229h-246z" />
    <glyph glyph-name="uni04DD" unicode="&#x4dd;" horiz-adv-x="1679" 
d="M1366 0l-281 446h-122v-446h-246v446h-125l-281 -446h-301l369 553l-326 502h283l260 -416h121v416h246v-416h120l260 416h283l-326 -502l369 -553h-303zM524 1260v225h224v-225h-224zM934 1260v225h223v-225h-223z" />
    <glyph glyph-name="uni04DE" unicode="&#x4de;" horiz-adv-x="1105" 
d="M487 -20q-213 0 -417 77v232q1 -1 16 -6.5t28.5 -11t39 -13.5t49.5 -15t57.5 -14t67 -12t73.5 -8.5t80 -3.5q285 0 285 213q0 217 -291 217h-164v207h135q281 0 281 200q0 187 -268 187q-77 0 -159.5 -17t-120.5 -30t-64 -25v229q198 68 360 68q257 0 388.5 -102.5
t131.5 -276.5q0 -117 -64.5 -201.5t-189.5 -130.5v-2q146 -33 220.5 -120.5t74.5 -217.5q0 -185 -145.5 -304t-403.5 -119zM174 1530v229h244v-229h-244zM627 1530v229h245v-229h-245z" />
    <glyph glyph-name="uni04DF" unicode="&#x4df;" horiz-adv-x="983" 
d="M420 -18q-83 0 -162.5 11t-115.5 20.5t-58 17.5v200q147 -51 303 -51q124 0 195 34t71 105q0 66 -62.5 103t-174.5 37h-154v170h137q107 0 162 34t55 93q0 64 -60 92.5t-159 28.5q-139 0 -282 -43v196q145 43 323 43q204 0 321.5 -73.5t117.5 -208.5q0 -172 -191 -240v-2
q108 -25 167.5 -91.5t59.5 -164.5q0 -147 -132 -229t-361 -82zM143 1260v225h224v-225h-224zM553 1260v225h223v-225h-223z" />
    <glyph glyph-name="uni04E2" unicode="&#x4e2;" horiz-adv-x="1515" 
d="M172 0v1434h262v-918l-4 -166h6l72 135l520 949h315v-1434h-262v905l4 185h-6l-69 -138l-523 -952h-315zM436 1581v152h645v-152h-645z" />
    <glyph glyph-name="uni04E3" unicode="&#x4e3;" horiz-adv-x="1259" 
d="M154 0v1055h252v-723h4l424 723h272v-1055h-252v725h-4l-426 -725h-270zM309 1323v150h645v-150h-645z" />
    <glyph glyph-name="uni04E4" unicode="&#x4e4;" horiz-adv-x="1515" 
d="M172 0v1434h262v-918l-4 -166h6l72 135l520 949h315v-1434h-262v905l4 185h-6l-69 -138l-523 -952h-315zM410 1530v229h243v-229h-243zM862 1530v229h246v-229h-246z" />
    <glyph glyph-name="uni04E5" unicode="&#x4e5;" horiz-adv-x="1259" 
d="M154 0v1055h252v-723h4l424 723h272v-1055h-252v725h-4l-426 -725h-270zM315 1260v225h224v-225h-224zM725 1260v225h223v-225h-223z" />
    <glyph glyph-name="uni04E6" unicode="&#x4e6;" horiz-adv-x="1536" 
d="M768 -20q-210 0 -363.5 93t-232 259t-78.5 385q0 335 180 536t494 201q211 0 364.5 -93.5t231.5 -259t78 -384.5q0 -222 -79.5 -388t-232.5 -257.5t-362 -91.5zM768 205q96 0 173 40.5t126 111t74.5 162.5t25.5 198q0 146 -44.5 260t-136.5 183t-218 69q-96 0 -173 -40.5
t-126 -111t-74.5 -162.5t-25.5 -198q0 -145 44 -259t136 -183.5t219 -69.5zM420 1530v229h244v-229h-244zM872 1530v229h246v-229h-246z" />
    <glyph glyph-name="uni04E7" unicode="&#x4e7;" horiz-adv-x="1269" 
d="M635 -18q-243 0 -394 149.5t-151 394.5t152 396t393 151q242 0 393.5 -151t151.5 -396q0 -246 -151 -395t-394 -149zM635 186q123 0 203 94t80 246t-80.5 247t-202.5 95q-123 0 -203 -95.5t-80 -246.5q0 -153 80.5 -246.5t202.5 -93.5zM319 1260v225h224v-225h-224z
M729 1260v225h223v-225h-223z" />
    <glyph glyph-name="uni04E8" unicode="&#x4e8;" horiz-adv-x="1536" 
d="M768 -20q-210 0 -363.5 93t-232 259t-78.5 385q0 335 180 536t494 201q211 0 364.5 -93.5t231.5 -259t78 -384.5q0 -222 -79.5 -388t-232.5 -257.5t-362 -91.5zM768 205q171 0 273 119.5t122 310.5h-790q18 -192 120.5 -311t274.5 -119zM768 1229q-166 0 -268 -115
t-125 -297h786q-24 186 -125.5 299t-267.5 113z" />
    <glyph glyph-name="uni04E9" unicode="&#x4e9;" horiz-adv-x="1269" 
d="M635 -18q-243 0 -394 149.5t-151 394.5t152 396t393 151q242 0 393.5 -151t151.5 -396q0 -246 -151 -395t-394 -149zM635 186q106 0 181.5 73t94.5 196h-555q20 -124 96 -196.5t183 -72.5zM635 868q-101 0 -175.5 -67t-99.5 -180h547q-23 113 -97.5 180t-174.5 67z" />
    <glyph glyph-name="uni04EA" unicode="&#x4ea;" horiz-adv-x="1536" 
d="M768 -20q-210 0 -363.5 93t-232 259t-78.5 385q0 335 180 536t494 201q211 0 364.5 -93.5t231.5 -259t78 -384.5q0 -222 -79.5 -388t-232.5 -257.5t-362 -91.5zM768 205q171 0 273 119.5t122 310.5h-790q18 -192 120.5 -311t274.5 -119zM768 1229q-166 0 -268 -115
t-125 -297h786q-24 186 -125.5 299t-267.5 113zM420 1530v229h244v-229h-244zM872 1530v229h246v-229h-246z" />
    <glyph glyph-name="uni04EB" unicode="&#x4eb;" horiz-adv-x="1269" 
d="M635 -18q-243 0 -394 149.5t-151 394.5t152 396t393 151q242 0 393.5 -151t151.5 -396q0 -246 -151 -395t-394 -149zM635 186q106 0 181.5 73t94.5 196h-555q20 -124 96 -196.5t183 -72.5zM635 868q-101 0 -175.5 -67t-99.5 -180h547q-23 113 -97.5 180t-174.5 67z
M727 1260v225h223v-225h-223zM319 1260v225h224v-225h-224z" />
    <glyph glyph-name="uni04EE" unicode="&#x4ee;" horiz-adv-x="1269" 
d="M221 229q82 -30 133 -30q114 0 170 129l-504 1106h281l342 -805h10l322 805h274l-491 -1131q-77 -176 -159.5 -249.5t-217.5 -73.5q-83 0 -160 30v219zM313 1581v152h645v-152h-645z" />
    <glyph glyph-name="uni04EF" unicode="&#x4ef;" horiz-adv-x="1126" 
d="M266 -459q-28 0 -53 2.5t-44.5 6t-27.5 4.5v202q64 -8 84 -8q77 0 122 39t75 125l10 33l-405 1110h276l258 -807h8l271 807h260l-412 -1102q-44 -117 -82.5 -190.5t-88 -126t-109.5 -74t-142 -21.5zM238 1323v150h645v-150h-645z" />
    <glyph glyph-name="uni04F0" unicode="&#x4f0;" horiz-adv-x="1269" 
d="M221 229q82 -30 133 -30q114 0 170 129l-504 1106h281l342 -805h10l322 805h274l-491 -1131q-77 -176 -159.5 -249.5t-217.5 -73.5q-83 0 -160 30v219zM287 1530v229h243v-229h-243zM739 1530v229h246v-229h-246z" />
    <glyph glyph-name="uni04F1" unicode="&#x4f1;" horiz-adv-x="1126" 
d="M266 -459q-28 0 -53 2.5t-44.5 6t-27.5 4.5v202q64 -8 84 -8q77 0 122 39t75 125l10 33l-405 1110h276l258 -807h8l271 807h260l-412 -1102q-44 -117 -82.5 -190.5t-88 -126t-109.5 -74t-142 -21.5zM244 1260v225h223v-225h-223zM653 1260v225h224v-225h-224z" />
    <glyph glyph-name="uni04F2" unicode="&#x4f2;" horiz-adv-x="1269" 
d="M221 229q82 -30 133 -30q114 0 170 129l-504 1106h281l342 -805h10l322 805h274l-491 -1131q-77 -176 -159.5 -249.5t-217.5 -73.5q-83 0 -160 30v219zM727 1530l168 262h264l-264 -262h-168zM322 1530l165 262h267l-265 -262h-167z" />
    <glyph glyph-name="uni04F3" unicode="&#x4f3;" horiz-adv-x="1126" 
d="M266 -459q-28 0 -53 2.5t-44.5 6t-27.5 4.5v202q64 -8 84 -8q77 0 122 39t75 125l10 33l-405 1110h276l258 -807h8l271 807h260l-412 -1102q-44 -117 -82.5 -190.5t-88 -126t-109.5 -74t-142 -21.5zM655 1237l168 285h267l-267 -285h-168zM252 1237l164 285h268
l-264 -285h-168z" />
    <glyph glyph-name="uni04F4" unicode="&#x4f4;" horiz-adv-x="1331" 
d="M897 0v569q-158 -41 -319 -41q-234 0 -355 106.5t-121 319.5v480h263v-437q0 -139 61 -195.5t205 -56.5q140 0 266 37v652h262v-1434h-262zM293 1530v229h244v-229h-244zM745 1530v229h246v-229h-246z" />
    <glyph glyph-name="uni04F5" unicode="&#x4f5;" horiz-adv-x="1157" 
d="M752 0v389q-142 -27 -250 -27q-398 0 -398 328v365h252v-310q0 -110 44 -150t167 -40q104 0 185 16v484h252v-1055h-252zM262 1260v225h223v-225h-223zM672 1260v225h223v-225h-223z" />
    <glyph glyph-name="uni04F8" unicode="&#x4f8;" horiz-adv-x="1792" 
d="M172 0v1434h262v-512h174q522 0 522 -463q0 -220 -130 -339.5t-392 -119.5h-436zM434 221h115q165 0 236 59t71 179q0 241 -248 241h-174v-479zM1358 0v1434h262v-1434h-262zM549 1530v229h244v-229h-244zM1001 1530v229h246v-229h-246z" />
    <glyph glyph-name="uni04F9" unicode="&#x4f9;" horiz-adv-x="1587" 
d="M154 0v1055h252v-348h174q220 0 328 -94t108 -257q0 -167 -106 -261.5t-324 -94.5h-432zM403 197h158q98 0 146.5 41.5t48.5 115.5q0 73 -48.5 114.5t-146.5 41.5h-158v-313zM1182 0v1055h252v-1055h-252zM479 1260v225h223v-225h-223zM889 1260v225h223v-225h-223z" />
    <glyph glyph-name="uni058D" unicode="&#x58d;" horiz-adv-x="1638" 
d="M819 -18q-49 0 -102.5 16t-93.5 45q139 33 233 145t94 252q0 97 -53 203q116 -20 188 -112.5t72 -208.5q0 -131 -99.5 -235.5t-238.5 -104.5zM530 106q-133 0 -216 78.5t-107 192.5q44 -31 105.5 -50.5t123.5 -19.5q57 0 112.5 17t109 52t97.5 95.5t68 140.5
q51 -86 51 -188q0 -126 -96 -222t-248 -96zM428 383q-130 0 -236 101.5t-106 230.5q0 113 55 192q33 -129 139 -224t252 -95q119 0 213 53q-25 -111 -114.5 -184.5t-202.5 -73.5zM530 664q-128 0 -223.5 96t-95.5 248q0 67 23 124t62 96t85.5 64.5t97.5 36.5
q-65 -106 -65 -229q0 -56 17 -112t51 -110t94 -98.5t139 -68.5q-99 -47 -185 -47zM1165 98q62 115 62 234q0 78 -28 150.5t-99 139t-178 97.5q93 49 188 49q127 0 223.5 -95.5t96.5 -248.5q0 -138 -77 -220.5t-188 -105.5zM745 791q-116 25 -188 113.5t-72 205.5
q0 133 97 237.5t241 104.5q107 0 193 -61q-146 -31 -236 -140.5t-90 -257.5q0 -107 55 -202zM1495 520q-30 141 -131.5 234.5t-267.5 93.5q-108 0 -203 -55q25 111 114.5 184.5t204.5 73.5q142 0 241 -100.5t99 -235.5q0 -113 -57 -195zM813 817q-47 96 -47 191
q0 126 96.5 222.5t247.5 96.5q132 0 214.5 -79.5t107.5 -190.5q-103 67 -226 67q-79 0 -152 -28.5t-140.5 -100t-100.5 -178.5z" />
    <glyph glyph-name="uni058E" unicode="&#x58e;" horiz-adv-x="2048" 
d="M1497 -20l-1319 454l680 744q23 23 23 47q0 20 -21 41l-67 61l145 125l174 -147q39 -31 39 -76q0 -60 -41 -101l-537 -583l924 -330v-235zM1260 659v109h559v-109h-559zM1452 858q-83 0 -122.5 45.5t-39.5 124.5v266h142v-256q0 -35 13.5 -61.5t47.5 -26.5
q39 0 61.5 32.5t22.5 76.5v262q0 73 34 102t99 29q49 0 109 -16v-93q-62 17 -70 17q-33 0 -33 -43v-453h-123v70q-20 -37 -57.5 -56.5t-83.5 -19.5z" />
    <glyph glyph-name="uni058F" unicode="&#x58f;" horiz-adv-x="1187" 
d="M387 545v155h313v246q0 164 -46 233.5t-140 69.5q-95 0 -141.5 -68t-46.5 -225v-63h-258v63q0 255 117 376.5t329 121.5q215 0 332 -120t117 -376v-258h170v-155h-170v-142h170v-155h-170v-248h-263v248h-313v155h313v142h-313z" />
    <glyph glyph-name="uni1E9E" unicode="&#x1e9e;" horiz-adv-x="1372" 
d="M803 -20q-116 0 -236 24v211q90 -22 189 -22q136 0 205 63.5t69 187.5q0 138 -82.5 190t-251.5 52q-27 0 -43 -2v127l262 379q-97 43 -215 43q-138 0 -205 -61.5t-67 -190.5v-981h-260v979q0 236 134.5 354.5t385.5 118.5q145 0 290 -44.5t253 -131.5l-311 -436
q189 -30 288 -133t99 -279q0 -204 -136.5 -326t-367.5 -122z" />
    <glyph glyph-name="uni2010" unicode="&#x2010;" 
d="M111 502v225h600v-225h-600z" />
    <glyph glyph-name="uni2011" unicode="&#x2011;" 
d="M111 502v225h600v-225h-600z" />
    <glyph glyph-name="figuredash" unicode="&#x2012;" horiz-adv-x="1126" 
d="M41 635v225h1044v-225h-1044z" />
    <glyph glyph-name="endash" unicode="&#x2013;" horiz-adv-x="1126" 
d="M41 502v225h1044v-225h-1044z" />
    <glyph glyph-name="emdash" unicode="&#x2014;" horiz-adv-x="1843" 
d="M102 502v225h1639v-225h-1639z" />
    <glyph glyph-name="uni2015" unicode="&#x2015;" horiz-adv-x="1843" 
d="M102 502v225h1639v-225h-1639z" />
    <glyph glyph-name="quoteleft" unicode="&#x2018;" horiz-adv-x="552" 
d="M78 913l207 521h188l-131 -521h-264z" />
    <glyph glyph-name="quoteright" unicode="&#x2019;" horiz-adv-x="552" 
d="M80 913l131 521h264l-186 -521h-209z" />
    <glyph glyph-name="quotesinglbase" unicode="&#x201a;" horiz-adv-x="573" 
d="M76 -258l131 518h262l-182 -518h-211z" />
    <glyph glyph-name="quotedblleft" unicode="&#x201c;" horiz-adv-x="1024" 
d="M520 913l211 521h184l-133 -521h-262zM106 913l213 521h183l-131 -521h-265z" />
    <glyph glyph-name="quotedblright" unicode="&#x201d;" horiz-adv-x="1024" 
d="M522 913l133 521h263l-183 -521h-213zM109 913l133 521h262l-182 -521h-213z" />
    <glyph glyph-name="quotedblbase" unicode="&#x201e;" horiz-adv-x="1024" 
d="M494 -258l133 518h262l-182 -518h-213zM82 -258l131 518h264l-184 -518h-211z" />
    <glyph glyph-name="dagger" unicode="&#x2020;" horiz-adv-x="1331" 
d="M545 -287v1143h-402v199h402v379h241v-379h402v-199h-402v-1143h-241z" />
    <glyph glyph-name="daggerdbl" unicode="&#x2021;" horiz-adv-x="1331" 
d="M545 -287v375h-402v199h402v569h-402v199h402v379h241v-379h402v-199h-402v-569h402v-199h-402v-375h-241z" />
    <glyph glyph-name="bullet" unicode="&#x2022;" horiz-adv-x="1024" 
d="M512 344q-154 0 -260.5 107t-106.5 262q0 154 106.5 260t260.5 106t260.5 -106t106.5 -260q0 -155 -106.5 -262t-260.5 -107z" />
    <glyph glyph-name="ellipsis" unicode="&#x2026;" horiz-adv-x="1863" 
d="M1444 0v260h266v-260h-266zM154 0v260h266v-260h-266zM799 0v260h266v-260h-266z" />
    <glyph glyph-name="perthousand" unicode="&#x2030;" horiz-adv-x="2682" 
d="M332 0l997 1434h182l-997 -1434h-182zM453 737q-169 0 -261 96t-92 265q0 163 94 259.5t259 96.5q169 0 260.5 -94.5t91.5 -261.5q0 -165 -93.5 -263t-258.5 -98zM453 891q82 0 121.5 48.5t39.5 158.5q0 108 -39 156.5t-122 48.5q-162 0 -162 -205q0 -207 162 -207z
M1389 -20q-167 0 -259 94.5t-92 261.5q0 166 92.5 263t258.5 97q170 0 262 -95.5t92 -264.5q0 -161 -95 -258.5t-259 -97.5zM1389 131q83 0 123 48.5t40 156.5q0 109 -39.5 158t-123.5 49q-160 0 -160 -207q0 -205 160 -205zM2228 -20q-167 0 -258.5 94.5t-91.5 261.5
q0 166 92.5 263t257.5 97q170 0 262.5 -95.5t92.5 -264.5q0 -161 -95.5 -258.5t-259.5 -97.5zM2228 131q83 0 123.5 48.5t40.5 156.5q0 109 -40 158t-124 49q-160 0 -160 -207q0 -205 160 -205z" />
    <glyph glyph-name="guilsinglleft" unicode="&#x2039;" horiz-adv-x="716" 
d="M375 199l-275 413l275 416h217l-252 -416l252 -413h-217z" />
    <glyph glyph-name="guilsinglright" unicode="&#x203a;" horiz-adv-x="716" 
d="M616 612l-274 -413h-217l252 413l-252 416h217z" />
    <glyph glyph-name="fraction" unicode="&#x2044;" horiz-adv-x="696" 
d="M-242 0l998 1434h182l-997 -1434h-183z" />
    <glyph glyph-name="foursuperior" unicode="&#x2074;" 
d="M469 569v160h-422v154l361 551h256v-541h102v-164h-102v-160h-195zM229 893h240v362h-4z" />
    <glyph glyph-name="franc" unicode="&#x20a3;" horiz-adv-x="1187" 
d="M225 0v244h-143v155h143v1035h826v-222h-574v-360h545v-221h-545v-232h291v-155h-291v-244h-252z" />
    <glyph glyph-name="Euro" unicode="&#x20ac;" horiz-adv-x="1187" 
d="M6 502l37 155h86q-2 18 -2 60q0 46 2 69h-121l35 156h111q59 238 235.5 375t431.5 137q104 0 190 -23.5t126 -46.5l-52 -204q-28 21 -102.5 42t-155.5 21q-151 0 -253 -80.5t-146 -220.5h608l-35 -156h-604q-2 -23 -2 -69q0 -42 2 -60h576l-35 -155h-514
q45 -147 154.5 -229.5t269.5 -82.5q161 0 295 68v-231q-54 -20 -139.5 -33.5t-163.5 -13.5q-275 0 -454 140t-236 382h-144z" />
    <glyph glyph-name="uni20B4" unicode="&#x20b4;" horiz-adv-x="1187" 
d="M86 805v156h614q68 78 68 151q0 137 -233 137q-180 0 -351 -57v217q163 45 389 45q111 0 196 -19t134.5 -48t81 -69.5t42.5 -78.5t11 -80q0 -104 -75 -198h139v-156h-293q-57 -50 -195 -152h488v-155h-645q-51 -77 -51 -144q0 -80 68 -123t181 -43q83 0 191.5 19
t204.5 51v-223q-186 -55 -406 -55q-131 0 -231 26t-159.5 72t-88.5 103t-29 124q0 96 64 193h-115v155h252q64 62 182 152h-434z" />
    <glyph glyph-name="uni20B8" unicode="&#x20b8;" horiz-adv-x="1187" 
d="M467 0v965h-385v155h1024v-155h-385v-965h-254zM82 1278v156h1024v-156h-1024z" />
    <glyph glyph-name="uni20BC" unicode="&#x20bc;" horiz-adv-x="1187" 
d="M39 0q0 292 32 507.5t92.5 348t139 203.5t180.5 94v281h222v-281q102 -23 180.5 -94t139 -203.5t92.5 -348t32 -507.5h-254q0 480 -47.5 711t-142.5 317v-1028h-222v1028q-96 -85 -143 -315.5t-47 -712.5h-254z" />
    <glyph glyph-name="uni20BD" unicode="&#x20bd;" horiz-adv-x="1187" 
d="M225 0v238h-143v155h143v166h-143v205h143v670h383q246 0 380 -110t134 -320q0 -219 -129 -332t-362 -113h-154v-166h291v-155h-291v-238h-252zM477 764h156q104 0 166.5 58t62.5 171q0 110 -69.5 164.5t-182.5 54.5h-133v-448z" />
    <glyph glyph-name="uni20BE" unicode="&#x20be;" horiz-adv-x="1187" 
d="M455 717v485q-119 -111 -119 -452q0 -529 416 -529h260v-221h-893v221h213q-107 81 -172.5 223.5t-65.5 325.5q0 262 89.5 437.5t269.5 226.5v204h106v-188q12 2 37 2t37 -2v188h106v-208q174 -55 259 -241.5t85 -471.5h-233q0 357 -113 475v-475h-98v530q-24 6 -49 6
q-17 0 -37 -4v-532h-98z" />
    <glyph glyph-name="uni2116" unicode="&#x2116;" horiz-adv-x="2048" 
d="M172 0v1434h322l452 -942l62 -154l-4 215v881h251v-1434h-309l-471 981l-57 131l6 -194v-918h-252zM1647 825q-133 0 -209 86.5t-76 227.5t76 227t209 86q137 0 213.5 -84.5t76.5 -228.5q0 -145 -78 -229.5t-212 -84.5zM1380 575v170h543v-170h-543zM1647 967
q118 0 118 172t-118 172q-113 0 -113 -172t113 -172z" />
    <glyph glyph-name="uni2117" unicode="&#x2117;" horiz-adv-x="1802" 
d="M659 311v811h250q169 0 242.5 -63t73.5 -199q0 -134 -73 -198t-237 -64h-96v-287h-160zM819 729h96q77 0 109.5 31t32.5 100q0 70 -33 100.5t-115 30.5h-90v-262zM901 -20q-153 0 -289.5 57.5t-234.5 155.5t-155.5 234.5t-57.5 289.5t57.5 289.5t155.5 234.5t234.5 155.5
t289.5 57.5t289.5 -57.5t234.5 -155.5t155.5 -234.5t57.5 -289.5t-57.5 -289.5t-155.5 -234.5t-234.5 -155.5t-289.5 -57.5zM899 129q159 0 293.5 78.5t213.5 214t79 295.5t-78 295.5t-212.5 214t-293.5 78.5q-158 0 -292 -78.5t-212 -214t-78 -295.5q0 -161 77 -296
t210.5 -213.5t292.5 -78.5z" />
    <glyph glyph-name="trademark" unicode="&#x2122;" horiz-adv-x="1966" 
d="M905 580v854h273l192 -449l191 449h264v-854h-174v702h-2l-203 -467h-162l-203 467h-2v-702h-174zM344 580v698h-256v156h688v-156h-256v-698h-176z" />
    <glyph glyph-name="uni2126" unicode="&#x2126;" horiz-adv-x="1556" 
d="M119 0l-17 293l162 6l15 -104h219v77q-175 49 -281 193.5t-106 355.5q0 294 179.5 466.5t487.5 172.5q311 0 489.5 -174t178.5 -465q0 -208 -106.5 -355t-280.5 -194v-77h217l12 104l166 -6l-16 -293h-574v385q150 23 231 139t81 287q0 199 -107.5 318.5t-290.5 119.5
q-187 0 -292 -118.5t-105 -319.5q0 -173 80.5 -288t232.5 -138v-385h-575z" />
    <glyph glyph-name="arrowleft" unicode="&#x2190;" horiz-adv-x="1433" 
d="M508 244l-473 473l473 473h268l-366 -367h976v-213h-976l366 -366h-268z" />
    <glyph glyph-name="arrowup" unicode="&#x2191;" horiz-adv-x="1433" 
d="M610 0v1059l-366 -367v269l473 473l473 -473v-269l-367 367v-1059h-213z" />
    <glyph glyph-name="arrowright" unicode="&#x2192;" horiz-adv-x="1433" 
d="M657 244l367 366h-977v213h977l-367 367h269l473 -473l-473 -473h-269z" />
    <glyph glyph-name="arrowdown" unicode="&#x2193;" horiz-adv-x="1433" 
d="M717 0l-473 473v268l366 -366v1059h213v-1059l367 366v-268z" />
    <glyph glyph-name="partialdiff" unicode="&#x2202;" horiz-adv-x="1269" 
d="M625 -18q-238 0 -386.5 149t-148.5 395q0 149 58.5 271t169 194t251.5 72q247 0 375 -180h6v35q0 76 -40.5 153t-118 146t-203 121.5t-281.5 74.5l47 197q432 -70 629 -289.5t197 -591.5q0 -137 -17.5 -248t-58 -205.5t-103.5 -158.5t-158 -99.5t-218 -35.5zM627 176
q120 0 194 96.5t74 247.5q0 149 -73.5 248.5t-194.5 99.5q-125 0 -200 -99.5t-75 -246.5q0 -149 76 -247.5t199 -98.5z" />
    <glyph glyph-name="uni2206" unicode="&#x2206;" horiz-adv-x="1433" 
d="M29 0l553 1434h274l549 -1434h-1376zM356 205h682l-338 960z" />
    <glyph glyph-name="product" unicode="&#x220f;" horiz-adv-x="1495" 
d="M80 -430v217h113v1430h-113v217h1335v-217h-119v-1430h119v-217h-491v217h116v1430h-591v-1430h118v-217h-487z" />
    <glyph glyph-name="summation" unicode="&#x2211;" horiz-adv-x="1331" 
d="M119 -430v203l499 770l-493 682v209h1032v-424h-235v207h-488l484 -668l-490 -762h526v225h234v-442h-1069z" />
    <glyph glyph-name="minus" unicode="&#x2212;" horiz-adv-x="1187" 
d="M76 608v217h1036v-217h-1036z" />
    <glyph glyph-name="uni2215" unicode="&#x2215;" horiz-adv-x="1187" 
d="M-35 0l991 1434h267l-992 -1434h-266z" />
    <glyph glyph-name="uni2219" unicode="&#x2219;" horiz-adv-x="614" 
d="M166 580v276h283v-276h-283z" />
    <glyph glyph-name="radical" unicode="&#x221a;" horiz-adv-x="1320" 
d="M537 -205l-279 1028h-156v221h357l221 -827l244 1460h362v-221h-176l-281 -1661h-292z" />
    <glyph glyph-name="infinity" unicode="&#x221e;" horiz-adv-x="1536" 
d="M428 379q-130 0 -223.5 95.5t-93.5 240.5q0 148 92 244t231 96q189 0 336 -211q144 211 332 211q138 0 230.5 -95t92.5 -241q0 -148 -93 -244t-224 -96q-99 0 -187.5 58t-154.5 149q-149 -207 -338 -207zM449 545q66 0 120.5 43.5t112.5 122.5q-60 87 -116 132.5
t-120 45.5q-75 0 -118 -50t-43 -120q0 -72 46.5 -123t117.5 -51zM1094 889q-65 0 -121 -45.5t-121 -130.5q113 -168 240 -168q68 0 113.5 51t45.5 121q0 72 -42.5 122t-114.5 50z" />
    <glyph glyph-name="integral" unicode="&#x222b;" horiz-adv-x="839" 
d="M186 -307q-65 0 -161 16v189q45 -15 110 -15q82 0 120 48t38 163v1245q0 213 87 307.5t273 94.5q22 0 45 -1.5t42.5 -4.5t34 -5.5t27 -5t13.5 -2.5v-186q-56 14 -110 14q-82 0 -121 -47.5t-39 -161.5v-1247q0 -213 -86.5 -307t-272.5 -94z" />
    <glyph glyph-name="approxequal" unicode="&#x2248;" horiz-adv-x="1187" 
d="M815 737q-57 0 -125.5 23.5t-121.5 52.5t-112 52.5t-98 23.5q-56 0 -104 -39.5t-84 -95.5l-111 149q47 84 121.5 140.5t169.5 56.5q57 0 126.5 -24t122 -52t111.5 -52t97 -24q57 0 113 40.5t84 88.5l124 -137q-45 -82 -131 -142.5t-182 -60.5zM817 334q-56 0 -125 23.5
t-122 52t-112.5 52t-99.5 23.5q-99 0 -188 -135l-111 148q47 84 121 141t166 57q57 0 128 -23.5t125.5 -52t114 -52t97.5 -23.5q56 0 113 42t86 93l118 -145q-45 -82 -129.5 -141.5t-181.5 -59.5z" />
    <glyph glyph-name="notequal" unicode="&#x2260;" horiz-adv-x="1187" 
d="M76 827v217h598l121 250h157l-121 -250h281v-217h-385l-104 -217h489v-217h-594l-125 -262h-157l124 262h-284v217h389l104 217h-493z" />
    <glyph glyph-name="lessequal" unicode="&#x2264;" horiz-adv-x="1187" 
d="M1038 565v-237l-907 393v240l907 395v-244l-630 -274zM1038 295v-217h-907v217h907z" />
    <glyph glyph-name="greaterequal" unicode="&#x2265;" horiz-adv-x="1187" 
d="M150 328v237l630 273l-630 274v244l907 -395v-240zM150 78v217h907v-217h-907z" />
    <glyph glyph-name="dotmath" unicode="&#x22c5;" horiz-adv-x="1187" 
d="M453 580v278h282v-278h-282z" />
    <glyph glyph-name="lozenge" unicode="&#x25ca;" horiz-adv-x="1351" 
d="M676 -20l-541 737l541 737l541 -737zM676 319l289 398l-289 391l-289 -391z" />
    <glyph glyph-name="uniF400" unicode="&#xf400;" horiz-adv-x="4" 
d="M-698 1237l155 285h285l-248 -285h-192z" />
    <glyph glyph-name="uniF401" unicode="&#xf401;" horiz-adv-x="4" 
d="M-850 1530l160 262h307l-246 -262h-221z" />
    <glyph glyph-name="uniF406" unicode="&#xf406;" 
d="M410 1518q-139 0 -240 68t-129 202h168q29 -123 201 -123q168 0 202 123h166q-26 -134 -127.5 -202t-240.5 -68z" />
    <glyph glyph-name="uniF407" unicode="&#xf407;" 
d="M379 -455q-88 0 -168 58l49 100q57 -33 98 -33q40 0 67.5 21t27.5 59q0 39 -27 58.5t-74 19.5q-34 0 -61 -6l35 196h129l-17 -92q84 -3 128 -46t44 -124q0 -92 -65 -151.5t-166 -59.5z" />
    <glyph glyph-name="uniF408" unicode="&#xf408;" 
d="M57 1530l222 258h262l221 -258h-223l-129 156l-129 -156h-224z" />
    <glyph glyph-name="uniF409" unicode="&#xf409;" 
d="M211 -512l86 410h256l-145 -410h-197z" />
    <glyph glyph-name="uniF40A" unicode="&#xf40a;" 
d="M240 993l94 441h262l-162 -441h-194z" />
    <glyph glyph-name="uniF40B" unicode="&#xf40b;" 
d="M283 1530v237h254v-237h-254z" />
    <glyph glyph-name="uniF40C" unicode="&#xf40c;" 
d="M410 1462q-91 0 -153 62t-62 151t62 151t153 62t153 -62t62 -151t-62 -151t-153 -62zM410 1554q51 0 84.5 35t33.5 86t-33.5 86t-84.5 35t-85 -35t-34 -86t34 -86t85 -35z" />
    <glyph glyph-name="uniF40D" unicode="&#xf40d;" 
d="M41 1528q6 101 64 171t153 70q53 0 159 -44t148 -44q67 0 84 88h129q-10 -109 -63 -175t-148 -66q-50 0 -159 43t-152 43q-42 0 -59.5 -21.5t-26.5 -64.5h-129z" />
    <glyph glyph-name="uniF40E" unicode="&#xf40e;" 
d="M387 -455q-105 0 -157 48t-52 133q0 176 305 325l84 -51q-121 -84 -167 -139t-46 -105q0 -38 21.5 -61t58.5 -23q58 0 96 23l31 -113q-80 -37 -174 -37z" />
    <glyph glyph-name="uniF410" unicode="&#xf410;" horiz-adv-x="4" 
d="M-752 1530l-235 262h282l134 -262h-181z" />
    <glyph glyph-name="uniF47E" unicode="&#xf47e;" horiz-adv-x="1474" 
d="M737 -20q-271 0 -420 151.5t-149 446.5v856h262v-824q0 -209 74.5 -307t232.5 -98q159 0 233 98.5t74 306.5v824h263v-856q0 -295 -150 -446.5t-420 -151.5zM610 1530v237h254v-237h-254z" />
    <glyph glyph-name="uniF47F" unicode="&#xf47f;" horiz-adv-x="1249" 
d="M1096 1055v-1055h-242v158h-6q-130 -176 -338 -176q-182 0 -283.5 115t-101.5 331v627h252v-551q0 -165 52 -237t153 -72q124 0 193 93.5t69 276.5v490h252zM481 1251v236h267v-236h-267z" />
    <glyph glyph-name="uniF4C6" unicode="&#xf4c6;" horiz-adv-x="1331" 
d="M578 528q-238 0 -357 95t-119 305v506h263v-437q0 -140 60 -196t204 -56q142 0 268 37v652h262v-1416q0 -440 -426 -440q-76 0 -194 27v219q72 -25 147 -25q211 0 211 271v499q-158 -41 -319 -41z" />
    <glyph glyph-name="uniF4C7" unicode="&#xf4c7;" horiz-adv-x="1157" 
d="M655 -463q-60 0 -114 12v201q2 0 12.5 -2t26.5 -4t30 -2q72 0 107 47t35 148v452q-142 -27 -250 -27q-398 0 -398 328v365h252v-310q0 -110 44 -150t167 -40q104 0 185 16v484h252v-1121q0 -217 -84.5 -307t-264.5 -90z" />
    <glyph glyph-name="uniF4C8" unicode="&#xf4c8;" horiz-adv-x="1290" 
d="M739 -455q-88 0 -168 58l50 100q57 -33 98 -33q40 0 67 21t27 59q0 78 -100 78q-35 0 -62 -6l31 172q-282 45 -435 237.5t-153 485.5q0 341 206.5 539t549.5 198q86 0 171 -14t127 -28l42 -15v-234q-182 66 -330 66q-225 0 -358 -135.5t-133 -378.5t134.5 -376.5
t362.5 -133.5q160 0 324 53v-233q-167 -45 -332 -45q-35 0 -51 2l-8 -56q84 -3 128 -46t44 -124q0 -92 -65.5 -151.5t-166.5 -59.5z" />
    <glyph glyph-name="uniF4C9" unicode="&#xf4c9;" horiz-adv-x="993" 
d="M532 -397q-83 0 -149 51l43 88q50 -31 88 -31q36 0 60 18.5t24 53.5q0 33 -24.5 50t-65.5 17q-28 0 -55 -6l26 154q-184 41 -286.5 180.5t-102.5 347.5q0 246 145 396.5t394 150.5q140 0 262 -39v-198q-1 0 -22 6.5t-37.5 10.5t-43.5 9.5t-57.5 8.5t-62.5 3
q-154 0 -235 -88t-81 -258q0 -173 85 -260.5t237 -87.5q101 0 219 41v-203q-1 0 -11.5 -3t-22 -6t-30 -7t-39.5 -7l-45.5 -6.5t-54 -5t-59.5 -1.5q-27 0 -39 2l-8 -47q151 -3 151 -150q0 -82 -57 -133t-146 -51z" />
    <glyph glyph-name="uniF4CC" unicode="&#xf4cc;" horiz-adv-x="1269" 
d="M221 229q82 -30 133 -30q114 0 170 129l-504 1106h281l342 -805h10l322 805h274l-491 -1131q-77 -176 -159.5 -249.5t-217.5 -73.5q-83 0 -160 30v219zM535 1530l139 262h287l-234 -262h-192z" />
    <glyph glyph-name="uniF4CD" unicode="&#xf4cd;" horiz-adv-x="1126" 
d="M266 -459q-28 0 -53 2.5t-44.5 6t-27.5 4.5v202q64 -8 84 -8q77 0 122 39t75 125l10 33l-405 1110h276l258 -807h8l271 807h260l-412 -1102q-44 -117 -82.5 -190.5t-88 -126t-109.5 -74t-142 -21.5zM463 1237l149 285h285l-252 -285h-182z" />
    <glyph glyph-name="zero.tab" unicode="&#xf4e0;" horiz-adv-x="1187" 
d="M594 -18q-238 0 -367 179t-129 556q0 378 129 556.5t363 178.5q500 0 500 -735q0 -382 -130 -558.5t-366 -176.5zM594 186q77 0 126.5 48t78 167.5t28.5 315.5q0 151 -16 256t-48 164t-73.5 84.5t-99.5 25.5q-55 0 -95.5 -25t-72 -84t-47 -164t-15.5 -257
q0 -150 16.5 -255t48 -164.5t73 -85.5t96.5 -26z" />
    <glyph glyph-name="one.tab" unicode="&#xf4e1;" horiz-adv-x="1187" 
d="M92 201h424v938l-278 -201l-119 174l426 322h223v-1233h319v-201h-995v201z" />
    <glyph glyph-name="two.tab" unicode="&#xf4e2;" horiz-adv-x="1187" 
d="M84 0v197l39 32q310 267 415 372q179 179 223 309q19 55 19 110q0 112 -75.5 169.5t-210.5 57.5q-182 0 -365 -102v223q207 84 414 84q231 0 364 -100.5t133 -311.5q0 -116 -48 -215.5t-151.5 -210.5t-314.5 -297l-127 -116h662v-201h-977z" />
    <glyph glyph-name="three.tab" unicode="&#xf4e3;" horiz-adv-x="1187" 
d="M500 -18q-228 0 -400 67v217q160 -80 373 -80q161 0 249.5 61.5t88.5 172.5q0 107 -86 165t-250 58h-180v197h172q307 0 307 204q0 203 -299 203q-192 0 -344 -71v215q162 61 379 61q251 0 385.5 -97.5t134.5 -269.5q0 -128 -79 -216.5t-220 -116.5v-4
q171 -24 255.5 -116.5t84.5 -225.5q0 -105 -47 -187.5t-127 -133.5t-181 -77t-216 -26z" />
    <glyph glyph-name="four.tab" unicode="&#xf4e4;" horiz-adv-x="1187" 
d="M700 0v309h-657v211l590 914h319v-924h181v-201h-181v-309h-252zM276 510h424v653h-4z" />
    <glyph glyph-name="five.tab" unicode="&#xf4e5;" horiz-adv-x="1187" 
d="M467 -18q-194 0 -346 53v219q103 -37 172.5 -52.5t146.5 -15.5q181 0 278 69.5t97 207.5q0 134 -95.5 196t-262.5 62q-163 0 -299 -47q32 451 49 760h792v-201h-598l-20 -334q112 16 180 16q239 0 375.5 -115t136.5 -329q0 -233 -160 -361t-446 -128z" />
    <glyph glyph-name="six.tab" unicode="&#xf4e6;" horiz-adv-x="1187" 
d="M610 -20q-132 0 -231 53t-158 148.5t-88 218.5t-29 272q0 172 41 315t119.5 247t198.5 162t272 58q120 0 238 -39v-215q-113 49 -234 49q-186 0 -288 -131t-105 -346h4q62 73 134 111.5t180 38.5q192 0 310 -123.5t118 -335.5q0 -210 -131 -346.5t-351 -136.5zM608 184
q110 0 170 74t60 197q0 119 -57 191.5t-167 72.5q-114 0 -176.5 -72.5t-62.5 -195.5q0 -118 59.5 -192.5t173.5 -74.5z" />
    <glyph glyph-name="seven.tab" unicode="&#xf4e7;" horiz-adv-x="1187" 
d="M193 0l628 1233h-776v201h1051v-205l-619 -1229h-284z" />
    <glyph glyph-name="eight.tab" unicode="&#xf4e8;" horiz-adv-x="1187" 
d="M598 -20q-221 0 -362.5 111t-141.5 288q0 130 76 225.5t209 143.5v4q-125 63 -189.5 147.5t-64.5 204.5q0 165 129 257.5t334 92.5q204 0 331.5 -94t127.5 -248q0 -59 -20 -112t-44.5 -87t-65 -67.5t-62 -47t-54.5 -32.5v-2q135 -57 214 -153.5t79 -227.5
q0 -189 -135 -296t-361 -107zM602 184q105 0 168.5 58.5t63.5 152.5q0 49 -18.5 88t-59 71t-83 55.5t-112.5 54.5q-113 -60 -160 -124t-47 -141q0 -107 71.5 -161t176.5 -54zM629 834q90 62 130 118.5t40 122.5q0 88 -59 131t-150 43q-93 0 -156 -44.5t-63 -121.5
q0 -74 64.5 -133t193.5 -116z" />
    <glyph glyph-name="nine.tab" unicode="&#xf4e9;" horiz-adv-x="1187" 
d="M569 1454q105 0 191.5 -36t145.5 -99t99.5 -149.5t59 -186t18.5 -211.5q0 -181 -34 -324t-103.5 -249t-183.5 -162.5t-268 -56.5q-165 0 -283 38v209q42 -16 124.5 -29.5t151.5 -13.5q94 0 163.5 35.5t110.5 101t60.5 150t20.5 191.5h-2q-111 -148 -312 -148
q-193 0 -312.5 122.5t-119.5 334.5q0 215 126.5 349t346.5 134zM573 1249q-109 0 -166 -74t-57 -196q0 -120 56.5 -192t166.5 -72q113 0 176.5 72.5t63.5 191.5q0 121 -62.5 195.5t-177.5 74.5z" />
    <glyph glyph-name="uni20B8.fitted" unicode="&#xf5fd;" horiz-adv-x="1187" 
d="M467 0v965h-385v155h1024v-155h-385v-965h-254zM82 1278v156h1024v-156h-1024z" />
    <glyph glyph-name="numbersign.fitted" unicode="&#xf5ff;" horiz-adv-x="1187" 
d="M178 0l55 391h-165v180h190l41 291h-174v180h201l53 392h190l-55 -392h252l55 392h189l-56 -392h166v-180h-190l-43 -291h176v-180h-201l-53 -391h-180l55 391h-262l-55 -391h-189zM446 571h252l41 291h-252z" />
    <glyph glyph-name="uniF643" unicode="&#xf643;" horiz-adv-x="1187" 
d="M594 -18q-243 0 -369.5 145.5t-126.5 398.5t126.5 400t369.5 147t370.5 -147t127.5 -400q0 -252 -127.5 -398t-370.5 -146zM594 186q118 0 180 87t62 253t-62 254t-180 88q-117 0 -179.5 -88t-62.5 -254q0 -165 62.5 -252.5t179.5 -87.5z" />
    <glyph glyph-name="uniF644" unicode="&#xf644;" horiz-adv-x="1187" 
d="M168 201h397v577l-284 -198l-121 168l438 307h219v-854h283v-201h-932v201z" />
    <glyph glyph-name="uniF645" unicode="&#xf645;" horiz-adv-x="1187" 
d="M92 0v221q273 137 418.5 229.5t194.5 151.5t49 123q0 42 -17.5 71t-50.5 43.5t-69.5 20.5t-84.5 6q-178 0 -385 -78l-14 207q227 78 451 78q104 0 184 -17.5t129 -46t79.5 -69.5t42 -82.5t11.5 -89.5q0 -99 -54 -181.5t-184 -174t-366 -211.5h608v-201h-942z" />
    <glyph glyph-name="uniF646" unicode="&#xf646;" horiz-adv-x="1187" 
d="M479 -406q-206 0 -389 64v221q170 -80 365 -80q162 0 253 63.5t91 172.5t-99 168t-284 59h-137v191h127q180 0 272 57.5t92 159.5q0 94 -75 146t-226 52q-194 0 -352 -77v217q173 65 389 65q252 0 383 -97t131 -267q0 -129 -81 -219t-226 -121v-4q171 -27 254.5 -121.5
t83.5 -229.5q0 -104 -46.5 -186t-126.5 -132t-181.5 -76t-217.5 -26z" />
    <glyph glyph-name="uniF647" unicode="&#xf647;" horiz-adv-x="1187" 
d="M719 -383v383h-699v207l613 848h338v-854h180v-201h-180v-383h-252zM264 201h455v628h-4z" />
    <glyph glyph-name="uniF648" unicode="&#xf648;" horiz-adv-x="1187" 
d="M492 -406q-208 0 -367 54v219q190 -68 340 -68q177 0 273 72t96 207q0 268 -353 268q-176 0 -338 -53l47 762h822v-201h-627l-20 -332q133 17 196 17q253 0 388.5 -115.5t135.5 -337.5q0 -232 -156.5 -362t-436.5 -130z" />
    <glyph glyph-name="uniF649" unicode="&#xf649;" horiz-adv-x="1187" 
d="M610 -20q-132 0 -231 53t-158 148.5t-88 218.5t-29 272q0 172 41 315t119.5 247t198.5 162t272 58q120 0 238 -39v-215q-113 49 -234 49q-186 0 -288 -131t-105 -346h4q62 73 134 111.5t180 38.5q192 0 310 -123.5t118 -335.5q0 -210 -131 -346.5t-351 -136.5zM608 184
q110 0 170 74t60 197q0 119 -57 191.5t-167 72.5q-114 0 -176.5 -72.5t-62.5 -195.5q0 -118 59.5 -192.5t173.5 -74.5z" />
    <glyph glyph-name="uniF64A" unicode="&#xf64a;" horiz-adv-x="1187" 
d="M209 -383l600 1237h-725v201h993v-197l-592 -1241h-276z" />
    <glyph glyph-name="uniF64B" unicode="&#xf64b;" horiz-adv-x="1187" 
d="M598 -20q-221 0 -362.5 111t-141.5 288q0 130 76 225.5t209 143.5v4q-125 63 -189.5 147.5t-64.5 204.5q0 165 129 257.5t334 92.5q204 0 331.5 -94t127.5 -248q0 -59 -20 -112t-44.5 -87t-65 -67.5t-62 -47t-54.5 -32.5v-2q135 -57 214 -153.5t79 -227.5
q0 -189 -135 -296t-361 -107zM602 184q105 0 168.5 58.5t63.5 152.5q0 49 -18.5 88t-59 71t-83 55.5t-112.5 54.5q-113 -60 -160 -124t-47 -141q0 -107 71.5 -161t176.5 -54zM629 834q90 62 130 118.5t40 122.5q0 88 -59 131t-150 43q-93 0 -156 -44.5t-63 -121.5
q0 -74 64.5 -133t193.5 -116z" />
    <glyph glyph-name="uniF64C" unicode="&#xf64c;" horiz-adv-x="1187" 
d="M569 1071q105 0 191.5 -36t145.5 -99t99.5 -149.5t59 -186t18.5 -211.5q0 -181 -34 -324t-103.5 -249t-183.5 -162.5t-268 -56.5q-165 0 -283 38v209q42 -16 124.5 -29.5t151.5 -13.5q94 0 163.5 35.5t110.5 101t60.5 150t20.5 191.5h-2q-111 -148 -312 -148
q-193 0 -312.5 122.5t-119.5 334.5q0 215 126.5 349t346.5 134zM573 866q-109 0 -166 -74t-57 -196q0 -120 56.5 -192t166.5 -72q113 0 176.5 72.5t63.5 191.5q0 121 -62.5 195.5t-177.5 74.5z" />
    <glyph glyph-name="uniF6BA" unicode="&#xf6ba;" 
d="M111 639v209h600v-209h-600z" />
    <glyph glyph-name="uniF6BB" unicode="&#xf6bb;" horiz-adv-x="1351" 
d="M111 639v209h1132v-209h-1132z" />
    <glyph glyph-name="uniF6BC" unicode="&#xf6bc;" horiz-adv-x="1843" 
d="M111 639v209h1624v-209h-1624z" />
    <glyph glyph-name="uniF6C3" unicode="&#xf6c3;" horiz-adv-x="0" 
d="M106 -469l89 367h243l-147 -367h-185z" />
    <glyph glyph-name="uniF6C9" unicode="&#xf6c9;" 
d="M309 1530l140 262h286l-233 -262h-193z" />
    <glyph glyph-name="uniF6CA" unicode="&#xf6ca;" 
d="M279 1530l-222 258h232l121 -166l120 166h232l-221 -258h-262z" />
    <glyph glyph-name="uniF6CB" unicode="&#xf6cb;" 
d="M61 1530v229h244v-229h-244zM514 1530v229h246v-229h-246z" />
    <glyph glyph-name="uniF6CC" unicode="&#xf6cc;" 
d="M324 1757l149 295h258l-250 -295h-157zM51 1530v229h234v-229h-234zM537 1530v229h231v-229h-231z" />
    <glyph glyph-name="uniF6CE" unicode="&#xf6ce;" 
d="M330 1530l-236 262h283l133 -262h-180z" />
    <glyph glyph-name="uniF6CF" unicode="&#xf6cf;" 
d="M508 1530l168 262h264l-264 -262h-168zM102 1530l166 262h267l-265 -262h-168z" />
    <glyph glyph-name="uniF6D0" unicode="&#xf6d0;" 
d="M88 1581v152h645v-152h-645z" />
    <glyph glyph-name="uniF6D1" unicode="&#xf6d1;" 
d="M410 1507q-153 0 -248.5 75.5t-102.5 223.5h191q12 -127 160 -127q147 0 159 127h191q-7 -148 -102 -223.5t-248 -75.5z" />
    <glyph glyph-name="uniF6D4" unicode="&#xf6d4;" 
d="M414 1241q-142 0 -235 74t-99 219h182q8 -63 47 -97t105 -34q128 0 147 131h178q-6 -146 -94.5 -219.5t-230.5 -73.5z" />
    <glyph glyph-name="uniF6D7" unicode="&#xf6d7;" 
d="M20 1262v225h224v-225h-224zM575 1262v225h224v-225h-224zM289 1444l151 289h279l-244 -289h-186z" />
    <glyph glyph-name="uniF6DE" unicode="&#xf6de;" horiz-adv-x="1413" 
d="M92 518v184h1229v-184h-1229z" />
    <glyph glyph-name="commainferior" unicode="&#xf6e1;" 
d="M217 -469l88 367h244l-148 -367h-184z" />
    <glyph glyph-name="commasuperior" unicode="&#xf6e2;" 
d="M264 1124l74 412h225l-131 -412h-168z" />
    <glyph glyph-name="zerooldstyle" unicode="&#xf730;" horiz-adv-x="1269" 
d="M629 -18q-252 0 -385 146t-133 398q0 253 134 400t390 147t390 -147t134 -400t-135 -398.5t-395 -145.5zM635 186q132 0 202 87t70 253t-70 254t-202 88t-202.5 -88t-70.5 -254q0 -165 70.5 -252.5t202.5 -87.5z" />
    <glyph glyph-name="oneoldstyle" unicode="&#xf731;" horiz-adv-x="808" 
d="M373 2v758l-226 -187l-124 172l380 312h228v-1055h-258z" />
    <glyph glyph-name="twooldstyle" unicode="&#xf732;" horiz-adv-x="1085" 
d="M86 0v221q237 133 370 229t179.5 159.5t46.5 125.5q0 133 -195 133q-177 0 -342 -84l-14 209q180 80 404 80q99 0 175 -18t122 -47t75 -70t40 -82t11 -88q0 -147 -122.5 -271.5t-427.5 -291.5h563v-205h-885z" />
    <glyph glyph-name="threeoldstyle" unicode="&#xf733;" horiz-adv-x="1054" 
d="M408 -406q-186 0 -355 62v213q149 -70 334 -70q154 0 239 64.5t85 171.5q0 108 -93.5 167.5t-261.5 59.5h-110v191h100q163 0 248.5 56.5t85.5 156.5q0 93 -69.5 147.5t-204.5 54.5q-172 0 -322 -73v213q165 65 358 65q239 0 364.5 -96t125.5 -264q0 -128 -80.5 -220.5
t-216.5 -123.5v-4q162 -29 245 -117.5t83 -224.5q0 -135 -78 -234t-202 -147t-275 -48z" />
    <glyph glyph-name="fouroldstyle" unicode="&#xf734;" horiz-adv-x="1167" 
d="M696 -383v383h-665v207l581 848h336v-854h182v-201h-182v-383h-252zM270 201h426v624h-4z" />
    <glyph glyph-name="fiveoldstyle" unicode="&#xf735;" horiz-adv-x="1126" 
d="M449 -406q-177 0 -326 52v221q169 -68 309 -68q172 0 268.5 72.5t96.5 208.5q0 131 -88.5 197.5t-255.5 66.5q-169 0 -308 -53l45 764h779v-201h-584l-20 -334q112 17 167 17q243 0 380 -117t137 -332q0 -231 -160 -362.5t-440 -131.5z" />
    <glyph glyph-name="sixoldstyle" unicode="&#xf736;" horiz-adv-x="1228" 
d="M621 -20q-132 0 -231.5 52.5t-159.5 147.5t-89.5 218.5t-29.5 273.5q0 236 73.5 411t221 273t354.5 98q115 0 225 -37v-215q-104 47 -227 47q-193 0 -299.5 -131.5t-108.5 -345.5h2q129 150 326 150q192 0 312 -124t120 -337q0 -208 -132 -344.5t-357 -136.5zM621 184
q113 0 174 74t61 197q0 119 -59.5 191.5t-173.5 72.5q-115 0 -179.5 -72.5t-64.5 -193.5q0 -120 63 -194.5t179 -74.5z" />
    <glyph glyph-name="sevenoldstyle" unicode="&#xf737;" horiz-adv-x="1064" 
d="M182 -383l541 1237h-662v201h922v-203l-526 -1235h-275z" />
    <glyph glyph-name="eightoldstyle" unicode="&#xf738;" horiz-adv-x="1228" 
d="M618 -20q-231 0 -377.5 110t-146.5 289q0 130 81 225.5t224 143.5v4q-132 63 -200 146t-68 200q0 166 134 261t345 95q213 0 345 -93.5t132 -248.5q0 -214 -258 -346v-2q144 -56 225 -152.5t81 -228.5q0 -189 -141 -296t-376 -107zM625 184q111 0 178 56t67 151
q0 49 -19.5 88.5t-61 72.5t-87.5 57.5t-118 54.5q-124 -60 -175 -124t-51 -141q0 -106 77.5 -160.5t189.5 -54.5zM651 834q94 62 137 121t43 126q0 86 -62 127t-159 41q-98 0 -164.5 -45.5t-66.5 -122.5q0 -73 68 -131.5t204 -115.5z" />
    <glyph glyph-name="nineoldstyle" unicode="&#xf739;" horiz-adv-x="1228" 
d="M571 1071q133 0 234 -51t163 -143.5t93 -215t31 -272.5q0 -181 -35 -324t-106.5 -249t-188 -162.5t-273.5 -56.5q-159 0 -280 38v213q44 -18 122.5 -32.5t149.5 -14.5q78 0 139.5 23t104.5 64.5t71.5 101t41.5 131.5t14 158h-2q-116 -148 -320 -148q-197 0 -317.5 123
t-120.5 336q0 214 127.5 347.5t351.5 133.5zM580 866q-113 0 -173.5 -74t-60.5 -196q0 -120 59.5 -192t174.5 -72t179 72.5t64 191.5q0 121 -63 195.5t-180 74.5z" />
    <glyph glyph-name="uniFEFF" unicode="&#xfeff;" horiz-adv-x="0" 
 />
    <glyph glyph-name="uni058F.fitted" horiz-adv-x="1187" 
d="M387 545v155h313v246q0 164 -46 233.5t-140 69.5q-95 0 -141.5 -68t-46.5 -225v-63h-258v63q0 255 117 376.5t329 121.5q215 0 332 -120t117 -376v-258h170v-155h-170v-142h170v-155h-170v-248h-263v248h-313v155h313v142h-313z" />
    <glyph glyph-name="franc.fitted" horiz-adv-x="1187" 
d="M225 0v244h-143v155h143v1035h826v-222h-574v-360h545v-221h-545v-232h291v-155h-291v-244h-252z" />
    <glyph glyph-name="uni20BE.fitted" horiz-adv-x="1187" 
d="M455 717v485q-119 -111 -119 -452q0 -529 416 -529h260v-221h-893v221h213q-107 81 -172.5 223.5t-65.5 325.5q0 262 89.5 437.5t269.5 226.5v204h106v-188q12 2 37 2t37 -2v188h106v-208q174 -55 259 -241.5t85 -471.5h-233q0 357 -113 475v-475h-98v530q-24 6 -49 6
q-17 0 -37 -4v-532h-98z" />
    <glyph glyph-name="uni20BC.fitted" horiz-adv-x="1187" 
d="M39 0q0 292 32 507.5t92.5 348t139 203.5t180.5 94v281h222v-281q102 -23 180.5 -94t139 -203.5t92.5 -348t32 -507.5h-254q0 480 -47.5 711t-142.5 317v-1028h-222v1028q-96 -85 -143 -315.5t-47 -712.5h-254z" />
    <glyph glyph-name="uniF6C3" 
d="M106 -469l89 367h243l-147 -367h-185z" />
    <glyph glyph-name="caron.Slovak" 
d="M221 1196l86 358h242l-154 -358h-174z" />
    <glyph glyph-name="uniF6C3.cap" 
d="M211 -512l86 410h256l-145 -410h-197z" />
    <glyph glyph-name="dotaccent.cap" 
d="M283 1530v237h254v-237h-254z" />
    <glyph glyph-name="dieresis.cap" 
d="M61 1530v229h244v-229h-244zM514 1530v229h246v-229h-246z" />
    <glyph glyph-name="grave.cap" 
d="M330 1530l-236 262h283l133 -262h-180z" />
    <glyph glyph-name="acute.cap" 
d="M309 1530l140 262h286l-233 -262h-193z" />
    <glyph glyph-name="hungarumlaut.cap" 
d="M508 1530l168 262h264l-264 -262h-168zM102 1530l166 262h267l-265 -262h-168z" />
    <glyph glyph-name="circumflex.cap" 
d="M57 1530l222 258h262l221 -258h-223l-129 156l-129 -156h-224z" />
    <glyph glyph-name="caron.cap" 
d="M279 1530l-222 258h232l121 -166l120 166h232l-221 -258h-262z" />
    <glyph glyph-name="breve.cap" 
d="M410 1518q-139 0 -240 68t-129 202h168q29 -123 201 -123q168 0 202 123h166q-26 -134 -127.5 -202t-240.5 -68z" />
    <glyph glyph-name="ring.cap" 
d="M410 1462q-91 0 -153 62t-62 151t62 151t153 62t153 -62t62 -151t-62 -151t-153 -62zM410 1554q51 0 84.5 35t33.5 86t-33.5 86t-84.5 35t-85 -35t-34 -86t34 -86t85 -35z" />
    <glyph glyph-name="tilde.cap" 
d="M41 1528q6 101 64 171t153 70q53 0 159 -44t148 -44q67 0 84 88h129q-10 -109 -63 -175t-148 -66q-50 0 -159 43t-152 43q-42 0 -59.5 -21.5t-26.5 -64.5h-129z" />
    <glyph glyph-name="macron.cap" 
d="M88 1581v152h645v-152h-645z" />
    <glyph glyph-name="dieresis.narrow" 
d="M461 1262v225h209v-225h-209zM150 1262v225h208v-225h-208z" />
    <glyph glyph-name="circumflex.narrow" 
d="M129 1237l168 285h229l164 -285h-182l-98 176l-97 -176h-184z" />
    <glyph glyph-name="caron.narrow" 
d="M297 1237l-168 285h184l97 -176l98 176h182l-172 -285h-221z" />
    <glyph glyph-name="macron.narrow" 
d="M141 1323v150h539v-150h-539z" />
    <glyph glyph-name="dieresis.cap.narrow" 
d="M111 1530v229h235v-229h-235zM473 1530v229h236v-229h-236z" />
    <glyph glyph-name="circumflex.cap.narrow" 
d="M104 1530l175 262h262l174 -262h-211l-94 149l-95 -149h-211z" />
    <glyph glyph-name="caron.cap.narrow" 
d="M279 1530l-181 262h211l101 -150l100 150h211l-180 -262h-262z" />
    <glyph glyph-name="macron.cap.narrow" 
d="M150 1581v152h522v-152h-522z" />
    <glyph glyph-name="commaturn" 
d="M303 1214l154 388h182l-82 -388h-254z" />
    <glyph glyph-name="cyrdieresis.cap" 
d="M61 1530v229h244v-229h-244zM514 1530v229h246v-229h-246z" />
    <glyph glyph-name="cyrdieresis" 
d="M94 1260v225h223v-225h-223zM504 1260v225h223v-225h-223z" />
    <glyph glyph-name="cyrdieresis.narrow" 
d="M178 1262v225h191v-225h-191zM451 1262v225h190v-225h-190z" />
    <glyph glyph-name="cyrdieresis.cap.narrow" 
d="M143 1530v229h217v-229h-217zM459 1530v229h219v-229h-219z" />
    </font>
</defs>
</svg>
